<?xml version="1.0" standalone="no"?>
<!DOCTYPE svg PUBLIC "-//W3C//DTD SVG 1.1//EN" "http://www.w3.org/Graphics/SVG/1.1/DTD/svg11.dtd" >
<svg xmlns="http://www.w3.org/2000/svg">
<metadata></metadata>
<defs>
<font id="virgo_01regular" horiz-adv-x="1139" >
<font-face units-per-em="2048" ascent="1638" descent="-410" />
<missing-glyph horiz-adv-x="999" />
<glyph horiz-adv-x="0" />
<glyph unicode="&#xd;" horiz-adv-x="569" />
<glyph unicode=" "  horiz-adv-x="999" />
<glyph unicode="&#x09;" horiz-adv-x="999" />
<glyph unicode="&#xa0;" horiz-adv-x="999" />
<glyph unicode="!" horiz-adv-x="602" d="M0 602v802q0 197 200 198t200 -201v-800q-1 -199 -200 -199q-198 0 -200 200zM1 3q0 51 26 98.5t73.5 73.5t99.5 26t99 -26t73.5 -73.5t26.5 -98.5q0 -52 -27 -99.5t-74.5 -73.5t-97.5 -26q-51 0 -98.5 26t-74 73.5t-26.5 99.5z" />
<glyph unicode="&#x22;" horiz-adv-x="1202" d="M0 1099v303q2 200 200 201q199 0 200 -200v-301q0 -202 -200 -201q-200 0 -200 198zM599 1099v303q2 200 199 201q199 0 200 -200v-301q0 -202 -200 -201q-201 0 -199 198z" />
<glyph unicode="#" />
<glyph unicode="$" />
<glyph unicode="%" horiz-adv-x="1821" />
<glyph unicode="&#x26;" horiz-adv-x="1366" />
<glyph unicode="'" horiz-adv-x="602" d="M0 1099v303q2 200 200 201q199 0 200 -200v-301q0 -202 -200 -201q-200 0 -200 198z" />
<glyph unicode="(" horiz-adv-x="682" />
<glyph unicode=")" horiz-adv-x="682" />
<glyph unicode="*" horiz-adv-x="797" />
<glyph unicode="+" horiz-adv-x="1196" />
<glyph unicode="," horiz-adv-x="602" d="M0 -103v302q2 201 200 201q199 0 200 -200v-300q0 -202 -200 -201q-200 0 -200 198z" />
<glyph unicode="-" horiz-adv-x="1000" d="M2 795q2 200 198 203h402q200 -2 203 -201q-4 -200 -202 -200h-402q-198 -1 -199 198z" />
<glyph unicode="." horiz-adv-x="598" d="M1 199q0 53 26.5 100.5t74 73.5t98.5 26q50 0 97.5 -26t74.5 -73.5t27 -100.5q0 -51 -26.5 -98.5t-73.5 -73.5t-99 -26t-99.5 26t-73.5 73.5t-26 98.5z" />
<glyph unicode="/" horiz-adv-x="569" />
<glyph unicode="0" horiz-adv-x="1801" d="M-1 798q0 209 107 401.5t298.5 296t394.5 103.5q202 0 393.5 -103.5t300 -296t108.5 -401.5q0 -208 -105.5 -398.5t-296.5 -296t-400 -105.5q-207 0 -398 105.5t-296.5 296t-105.5 398.5zM400 800q0 -104 53 -199t148.5 -148t199.5 -53t199.5 53t148.5 148t53 199 q0 105 -54 201.5t-150 148t-197 51.5q-102 0 -197.5 -51.5t-149.5 -148t-54 -201.5zM600 796q0 53 26.5 100.5t74 73.5t98.5 26q50 0 97.5 -26t74.5 -73.5t27 -100.5q0 -51 -26.5 -98.5t-73.5 -73.5t-99 -26t-99.5 26t-73.5 73.5t-26 98.5z" />
<glyph unicode="1" horiz-adv-x="1201" d="M0 202q0 201 200 201h103l-1 796q-198 -3 -196 199q2 193 198 199h201q196 2 198 -195l-1 -999h101q202 -3 202 -207q-1 -191 -188 -194l-617 -2q-199 4 -200 202z" />
<glyph unicode="2" horiz-adv-x="1600" d="M0 800q1 199 200 200l801 -1q0 200 -296 199h-503q-198 5 -202 202q5 200 202 199h499q700 1 701 -800q1 -200 -200 -199l-801 1q2 -201 299 -202l503 2q196 -1 199 -201q-1 -201 -200 -200h-499q-702 1 -703 800z" />
<glyph unicode="3" horiz-adv-x="1600" d="M0 200q0 197 200 197l698 4q101 0 101 99q0 101 -99 101l-303 1q-202 0 -201 211q0 189 200 187l304 -1q100 0 97 110q3 88 -97 89h-700q-200 0 -200 201q0 198 200 200h700q199 0 350.5 -150t149.5 -350.5t-104 -296.5q106 -104 104.5 -301.5t-152 -349t-336.5 -151.5 h-714q-198 -2 -198 200z" />
<glyph unicode="4" horiz-adv-x="1600" d="M1 199q0 52 193 441t219 436.5t74 74t100 26.5t99.5 -26.5t74 -74t29 -106.5t-265.5 -568h474l-1 1004q0 195 201 197q201 -2 203 -197l-2 -1605q0 -197 -201 -203q-200 7 -200 202v199h-797q-51 0 -98.5 25.5t-74.5 73.5t-27 101z" />
<glyph unicode="5" horiz-adv-x="1600" d="M-1 1400q2 200 203 199h998q197 1 202 -199q-4 -197 -202 -202h-801l-3 -202l806 4q199 -1 200 -200q-1 -799 -703 -800h-499q-199 -1 -200 200q3 200 199 201l503 -2q297 1 299 202l-801 -1q-201 -1 -200 199z" />
<glyph unicode="6" horiz-adv-x="1701" d="M0 502v603q0 193 150.5 344t349.5 150h503q198 -1 199 -199q2 -199 -197 -200h-505q-101 -2 -101 -101l1 -100l500 1q202 -2 352.5 -152.5t148.5 -349t-149.5 -348.5t-349.5 -148l-402 -1q-199 0 -349 149t-151 352zM401 501q1 -102 99 -102h404q101 2 101 101 q1 101 -103 100h-501v-99z" />
<glyph unicode="7" horiz-adv-x="1601" d="M1 1398q-1 200 199 199h1003q50 0 96 -24t73 -72t27 -100t-300.5 -653.5t-327 -648.5t-74 -73.5t-99.5 -26.5t-100 26.5t-74 73.5t-27 97q0 45 480 1002h-675q-201 3 -201 200z" />
<glyph unicode="8" horiz-adv-x="1600" d="M0 500q0 199 101 299q-100 99 -101 302q0 196 150.5 344t347.5 154h402q199 0 350.5 -150t149.5 -350.5t-104 -296.5q106 -104 104.5 -301.5t-152 -349t-336.5 -151.5h-413q-198 -2 -348.5 149.5t-150.5 350.5zM397 501q3 -104 101 -102l400 2q101 0 101 99 q0 101 -99 101h-402q-101 0 -101 -100zM398 1099q0 -100 100 -100h402q100 0 97 110q3 88 -97 89h-402q-100 0 -100 -99z" />
<glyph unicode="9" horiz-adv-x="1701" d="M0.5 1101.5q1.5 198.5 149 349t349.5 147.5l402 1q199 0 349.5 -149t150.5 -352v-604q0 -193 -150.5 -343.5t-349.5 -149.5h-503q-198 1 -199 198q-2 200 197 201h505q101 2 101 101l-1 99h-500q-202 2 -352 152.5t-148.5 349zM397 1100q-1 -101 102 -100h501v99 q0 102 -98 102h-405q-101 -2 -100 -101z" />
<glyph unicode=":" horiz-adv-x="598" d="M1 199q0 53 26.5 100.5t74 73.5t98.5 26q50 0 97.5 -26t74.5 -73.5t27 -100.5q0 -51 -26.5 -98.5t-73.5 -73.5t-99 -26t-99.5 26t-73.5 73.5t-26 98.5zM1 798q0 53 26.5 100.5t74 73.5t98.5 26q50 0 97.5 -26t74.5 -73.5t27 -100.5q0 -51 -26.5 -98.5t-73.5 -73.5 t-99 -26t-99.5 26t-73.5 73.5t-26 98.5z" />
<glyph unicode=";" horiz-adv-x="602" d="M0 -103v302q2 201 200 201q199 0 200 -200v-300q0 -202 -200 -201q-200 0 -200 198zM1 798q0 53 26.5 100.5t74 73.5t98.5 26q50 0 97.5 -26t74.5 -73.5t27 -100.5q0 -51 -26.5 -98.5t-73.5 -73.5t-99 -26t-99.5 26t-73.5 73.5t-26 98.5z" />
<glyph unicode="&#x3c;" horiz-adv-x="1196" />
<glyph unicode="=" horiz-adv-x="1196" />
<glyph unicode="&#x3e;" horiz-adv-x="1196" />
<glyph unicode="?" horiz-adv-x="1398" d="M0 1400q5 200 202 199h295q700 1 701 -502q1 -498 -506 -496q-95 0 -100 -105q0 -200 -198 -196q-202 -3 -200 202q1 199 151 348.5t350 145.5q102 3 102 103t-99 99h-496q-198 5 -202 202zM200 -2q0 52 26.5 99.5t74 73.5t98.5 26q50 0 97.5 -26t74.5 -73.5t27 -99.5 q0 -51 -26.5 -98.5t-73.5 -73.5t-99 -26t-99.5 26t-73.5 73.5t-26 98.5z" />
<glyph unicode="@" horiz-adv-x="2079" />
<glyph unicode="A" horiz-adv-x="1799" d="M1 199q0 52 299 653t325 648.5t74 74t100 26.5t99.5 -26.5t74 -74t327 -648.5t300.5 -653q0 -53 -27 -101t-75 -73.5t-98 -25.5h-1199q-51 0 -98.5 25.5t-74.5 73.5t-27 101zM524 402h549l-274 563z" />
<glyph unicode="B" horiz-adv-x="1600" d="M0 200v1199q0 198 200 200h700q198 0 350 -150q150 -148 150 -345v-6q-2 -200 -104 -296q105 -103 105 -296l-1 -6q-2 -198 -152 -349t-336 -151h-714h-4q-194 0 -194 200zM401 401h497q101 0 101 99q0 101 -99 101l-99 1q-201 0 -201 209q0 189 196 189h4l100 -1 q97 0 97 104v6v5q0 83 -97 84h-499v-797z" />
<glyph unicode="C" horiz-adv-x="1599" d="M0 800q0 799 797 799h2l401 -1q199 -3 200 -198q-1 -201 -199 -201h-2l-399 -1h-6q-393 0 -393 -399q0 -398 400 -400h398q200 -4 200 -198q0 -200 -198 -201h-400q-800 0 -801 800z" />
<glyph unicode="D" horiz-adv-x="1801" d="M0 200v1199q0 198 200 200h600q801 -1 801 -800q-1 -797 -780 -799h-621h-4q-196 0 -196 200zM401 401h401h6q392 0 390 401q2 394 -397 396h-400v-797z" />
<glyph unicode="E" horiz-adv-x="1599" d="M0 194v1205q1 198 200 202l1012 -2q187 -3 188 -194q0 -204 -202 -207h-797v-797h795q202 -1 202 -202q-1 -197 -198 -199h-1000q-199 0 -200 194zM497 795q2 200 198 203h402q200 -2 203 -201q-4 -200 -202 -200h-402h-2q-196 0 -197 198z" />
<glyph unicode="F" horiz-adv-x="1599" d="M0 194v1205q1 198 200 202l1012 -2q187 -3 188 -194q0 -204 -202 -207h-797v-198h800q198 -3 199 -200q-3 -200 -199 -200l-800 -1v-400q-1 -197 -201 -199q-199 0 -200 194z" />
<glyph unicode="G" horiz-adv-x="1801" d="M-1 798q0 209 107 401.5t298.5 296t394.5 103.5l402 1q196 -1 198 -202q-2 -195 -191 -195h-6l-401 -2q-102 0 -197.5 -51.5t-149.5 -148t-54 -201.5q0 -104 53 -199t148.5 -148t199.5 -53t210.5 49.5t154.5 153.5h-167h-2q-200 0 -201 196q0 200 200 203l402 -2 q202 -4 203 -202q0 -208 -105.5 -398.5t-296.5 -296t-400 -105.5q-207 0 -398 105.5t-296.5 296t-105.5 398.5z" />
<glyph unicode="H" horiz-adv-x="1601" d="M0 199v1200q0 200 200 202q201 -1 201 -201l-1 -1200q-1 -198 -201 -200q-200 1 -199 199zM497 799q1 200 206 200h2l294 3v399q0 202 201 202q199 0 200 -202l-1 -1201q0 -200 -197 -200h-4h-2q-198 0 -197 198v403l-294 -1q-205 0 -208 199z" />
<glyph unicode="I" horiz-adv-x="598" d="M0 198v1202q-1 198 198 199q200 -2 203 -198v-1202q-2 -200 -201 -203q-200 4 -200 202z" />
<glyph unicode="J" horiz-adv-x="896" d="M4 199q0 201 200 202h4q94 0 92 97l-1 907q2 191 203 196q199 -4 200 -202v-904q-1 -294 -100 -394.5t-398 -100.5q-199 2 -200 199z" />
<glyph unicode="K" horiz-adv-x="1601" d="M0 199v1200q0 200 200 202q201 -1 201 -201l-1 -1200q-1 -198 -201 -200q-200 1 -199 199zM497 799q1 97 52.5 161t250.5 304.5t249.5 289.5t150.5 49q98 -1 150 -51q50 -48 50 -140v-11q0 -106 -106 -199l-366 -401l367 -398q105 -97 105 -189q0 -7 -1 -14v-17 q1 -89 -49 -135q-52 -49 -145 -48h-7h-4q-100 0 -150 52q-52 52 -247.5 287.5t-246 295t-53.5 164.5z" />
<glyph unicode="L" horiz-adv-x="1599" d="M0 194v1205q1 198 200 202q201 -5 203 -196l-2 -1004h795q202 -1 202 -202q-1 -197 -198 -199h-1000q-199 0 -200 194z" />
<glyph unicode="M" horiz-adv-x="1801" d="M0 200v1200q0 199 199 199q101 -2 149 -51t453 -452q400 400 450 451.5t149 51.5q199 -1 200 -199l1 -1200q0 -199 -202 -202q-198 1 -201 202v707q-201 -207 -250.5 -257.5t-148.5 -50.5q-96 0 -147.5 52t-251.5 252v-703q-1 -198 -200 -200h-2q-199 0 -198 200z" />
<glyph unicode="N" horiz-adv-x="1600" d="M1 176v1247q-1 173 227 174q109 -8 174 -82l599 -764v671q4 172 170 175q225 -3 227 -179l2 -1244q-2 -172 -229 -174q-103 1 -167 82l-602 762v-670q-1 -173 -174 -174h-3q-223 0 -224 176z" />
<glyph unicode="O" horiz-adv-x="1801" d="M-1 798q0 209 107 401.5t298.5 296t394.5 103.5q202 0 393.5 -103.5t300 -296t108.5 -401.5q0 -208 -105.5 -398.5t-296.5 -296t-400 -105.5q-207 0 -398 105.5t-296.5 296t-105.5 398.5zM400 800q0 -104 53 -199t148.5 -148t199.5 -53t199.5 53t148.5 148t53 199 q0 105 -54 201.5t-150 148t-197 51.5q-102 0 -197.5 -51.5t-149.5 -148t-54 -201.5z" />
<glyph unicode="P" horiz-adv-x="1601" d="M0 198v1203q1 196 200 198h702q193 0 345.5 -148t151.5 -350q0 -207 -149.5 -354t-354.5 -147l-197 -2h-2q-196 0 -197 202q0 201 200 201h2l142 1h6q152 0 150 97q0 99 -157 99h-145h-296v-998q1 -200 -201 -200h-2q-199 0 -198 198z" />
<glyph unicode="Q" horiz-adv-x="1801" d="M-1 798q0 209 107 401.5t298.5 296t394.5 103.5q202 0 393.5 -103.5t300 -296t108.5 -401.5q0 -208 -161 -399h2q155 0 162 -200q0 -201 -202 -201h-603q-207 0 -398 105.5t-296.5 296t-105.5 398.5zM400 800q0 -104 53 -199t148.5 -148t199.5 -53t199.5 53t148.5 148 t53 199q0 105 -54 201.5t-150 148t-197 51.5q-102 0 -197.5 -51.5t-149.5 -148t-54 -201.5z" />
<glyph unicode="R" horiz-adv-x="1601" d="M0 198v1203q1 196 200 198h702q196 0 347 -151.5t150 -346.5q0 -207 -75.5 -349.5t-227.5 -147.5l247 -250q59 -59 59 -155q-3 -199 -198 -199h-2h-6q-99 0 -195 98l-400 496q-101 107 -102 206q0 201 200 201h2l142 1h6q152 0 150 97q0 99 -157 99h-145h-296v-998 q1 -200 -201 -200h-2q-199 0 -198 198z" />
<glyph unicode="S" horiz-adv-x="1598" d="M193 395h4l603 3q202 1 202 103q0 101 -200 101h-4h-197q-601 1 -601 495v7q0 494 601 495h602q198 -1 200 -200q0 -200 -193 -201l-609 1q-202 -2 -204 -102q3 -94 201 -94h4h197q603 -2 606 -507q0 -491 -605 -494h-601q-199 1 -199 194q0 199 193 199z" />
<glyph unicode="T" horiz-adv-x="1599" d="M0 1399q1 198 200 202l1012 -2q187 -3 188 -194q0 -204 -202 -207h-299l1 -999q-2 -197 -201 -199q-200 0 -200 194l1 1004h-300q-200 0 -200 201z" />
<glyph unicode="U" horiz-adv-x="1600" d="M4 799v602q1 198 200 200q200 0 201 -193l-1 -609q2 -400 304 -402q300 3 299 403v601q2 199 201 202q199 -6 200 -203v-601q-1 -799 -700 -799h-9q-694 0 -695 799z" />
<glyph unicode="V" horiz-adv-x="1799" d="M1 1401q0 52 27 100t74.5 74t98.5 26q50 0 98 -26t75 -74t425 -867q401 819 428 867t74.5 74t98.5 26q50 0 98 -26t75 -74t27 -100t-300.5 -653.5t-327 -648.5t-74 -73.5t-99.5 -26.5t-100 26.5t-74 73.5t-325 648.5t-299 653.5z" />
<glyph unicode="W" horiz-adv-x="1801" d="M0 197v1200q-1 200 196 200h4q199 -2 200 -200v-703q200 200 251.5 252t147.5 52q99 0 148.5 -50.5t250.5 -257.5v707q3 201 201 202q202 -3 202 -202l-1 -1200q-1 -198 -200 -199q-99 0 -149 51.5t-450 451.5q-405 -403 -453 -452t-149 -51q-199 0 -199 199z" />
<glyph unicode="X" horiz-adv-x="1601" d="M1 1401v11q-1 92 49 140q52 50 151 51q100 0 150.5 -49t355.5 -418q310 375 360.5 423.5t150.5 48.5q98 0 150 -50q50 -48 50 -141v-11q0 -106 -106 -198l-340 -402l341 -397q105 -98 105 -189q0 -7 -1 -15v-17q1 -88 -49 -134q-52 -49 -145 -49h-7h-4q-100 0 -150 52 q-52 53 -350 414q-302 -367 -354 -419q-51 -52 -151 -52h-4h-7q-92 0 -144 48q-50 46 -50 135v17q-1 7 -1 14q0 91 105 189l356 398l-355 401q-106 93 -106 199z" />
<glyph unicode="Y" horiz-adv-x="1601" d="M1 1401v11q0 93 49 140q53 51 151 51q100 0 150.5 -49t355.5 -418q310 375 360.5 423.5t150.5 48.5q98 0 150 -50q50 -48 50 -141v-11q0 -106 -106 -198l-409 -478l-1 -531q-4 -196 -201 -199h-9q-189 0 -189 205l-2 527l-394 470q-106 93 -106 199z" />
<glyph unicode="Z" horiz-adv-x="1600" d="M0 229q2 103 83 167l679 803h-587q-173 1 -175 174q-1 226 177 227h1050h2q171 0 172 -227q-8 -109 -82 -174l-675 -800h582q172 -4 175 -170q-3 -225 -179 -227l-1047 -2q-172 2 -175 229z" />
<glyph unicode="[" horiz-adv-x="569" />
<glyph unicode="\" horiz-adv-x="569" />
<glyph unicode="]" horiz-adv-x="569" />
<glyph unicode="^" horiz-adv-x="961" />
<glyph unicode="_" />
<glyph unicode="`" horiz-adv-x="682" />
<glyph unicode="a" horiz-adv-x="1799" d="M1 199q0 52 299 653t325 648.5t74 74t100 26.5t99.5 -26.5t74 -74t327 -648.5t300.5 -653q0 -53 -27 -101t-75 -73.5t-98 -25.5h-1199q-51 0 -98.5 25.5t-74.5 73.5t-27 101zM524 402h549l-274 563z" />
<glyph unicode="b" horiz-adv-x="1600" d="M0 200v1199q0 198 200 200h700q198 0 350 -150q150 -148 150 -345v-6q-2 -200 -104 -296q105 -103 105 -296l-1 -6q-2 -198 -152 -349t-336 -151h-714h-4q-194 0 -194 200zM401 401h497q101 0 101 99q0 101 -99 101l-99 1q-201 0 -201 209q0 189 196 189h4l100 -1 q97 0 97 104v6v5q0 83 -97 84h-499v-797z" />
<glyph unicode="c" horiz-adv-x="1599" d="M0 800q0 799 797 799h2l401 -1q199 -3 200 -198q-1 -201 -199 -201h-2l-399 -1h-6q-393 0 -393 -399q0 -398 400 -400h398q200 -4 200 -198q0 -200 -198 -201h-400q-800 0 -801 800z" />
<glyph unicode="d" horiz-adv-x="1801" d="M0 200v1199q0 198 200 200h600q801 -1 801 -800q-1 -797 -780 -799h-621h-4q-196 0 -196 200zM401 401h401h6q392 0 390 401q2 394 -397 396h-400v-797z" />
<glyph unicode="e" horiz-adv-x="1599" d="M0 194v1205q1 198 200 202l1012 -2q187 -3 188 -194q0 -204 -202 -207h-797v-797h795q202 -1 202 -202q-1 -197 -198 -199h-1000q-199 0 -200 194zM497 795q2 200 198 203h402q200 -2 203 -201q-4 -200 -202 -200h-402h-2q-196 0 -197 198z" />
<glyph unicode="f" horiz-adv-x="1599" d="M0 194v1205q1 198 200 202l1012 -2q187 -3 188 -194q0 -204 -202 -207h-797v-198h800q198 -3 199 -200q-3 -200 -199 -200l-800 -1v-400q-1 -197 -201 -199q-199 0 -200 194z" />
<glyph unicode="g" horiz-adv-x="1801" d="M-1 798q0 209 107 401.5t298.5 296t394.5 103.5l402 1q196 -1 198 -202q-2 -195 -191 -195h-6l-401 -2q-102 0 -197.5 -51.5t-149.5 -148t-54 -201.5q0 -104 53 -199t148.5 -148t199.5 -53t210.5 49.5t154.5 153.5h-167h-2q-200 0 -201 196q0 200 200 203l402 -2 q202 -4 203 -202q0 -208 -105.5 -398.5t-296.5 -296t-400 -105.5q-207 0 -398 105.5t-296.5 296t-105.5 398.5z" />
<glyph unicode="h" horiz-adv-x="1601" d="M0 199v1200q0 200 200 202q201 -1 201 -201l-1 -1200q-1 -198 -201 -200q-200 1 -199 199zM497 799q1 200 206 200h2l294 3v399q0 202 201 202q199 0 200 -202l-1 -1201q0 -200 -197 -200h-4h-2q-198 0 -197 198v403l-294 -1q-205 0 -208 199z" />
<glyph unicode="i" horiz-adv-x="598" d="M0 198v1202q-1 198 198 199q200 -2 203 -198v-1202q-2 -200 -201 -203q-200 4 -200 202z" />
<glyph unicode="j" horiz-adv-x="896" d="M4 199q0 201 200 202h4q94 0 92 97l-1 907q2 191 203 196q199 -4 200 -202v-904q-1 -294 -100 -394.5t-398 -100.5q-199 2 -200 199z" />
<glyph unicode="k" horiz-adv-x="1601" d="M0 199v1200q0 200 200 202q201 -1 201 -201l-1 -1200q-1 -198 -201 -200q-200 1 -199 199zM497 799q1 97 52.5 161t250.5 304.5t249.5 289.5t150.5 49q98 -1 150 -51q50 -48 50 -140v-11q0 -106 -106 -199l-366 -401l367 -398q105 -97 105 -189q0 -7 -1 -14v-17 q1 -89 -49 -135q-52 -49 -145 -48h-7h-4q-100 0 -150 52q-52 52 -247.5 287.5t-246 295t-53.5 164.5z" />
<glyph unicode="l" horiz-adv-x="1599" d="M0 194v1205q1 198 200 202q201 -5 203 -196l-2 -1004h795q202 -1 202 -202q-1 -197 -198 -199h-1000q-199 0 -200 194z" />
<glyph unicode="m" horiz-adv-x="1801" d="M0 200v1200q0 199 199 199q101 -2 149 -51t453 -452q400 400 450 451.5t149 51.5q199 -1 200 -199l1 -1200q0 -199 -202 -202q-198 1 -201 202v707q-201 -207 -250.5 -257.5t-148.5 -50.5q-96 0 -147.5 52t-251.5 252v-703q-1 -198 -200 -200h-2q-199 0 -198 200z" />
<glyph unicode="n" horiz-adv-x="1600" d="M1 176v1247q-1 173 227 174q109 -8 174 -82l599 -764v671q4 172 170 175q225 -3 227 -179l2 -1244q-2 -172 -229 -174q-103 1 -167 82l-602 762v-670q-1 -173 -174 -174h-3q-223 0 -224 176z" />
<glyph unicode="o" horiz-adv-x="1801" d="M-1 798q0 209 107 401.5t298.5 296t394.5 103.5q202 0 393.5 -103.5t300 -296t108.5 -401.5q0 -208 -105.5 -398.5t-296.5 -296t-400 -105.5q-207 0 -398 105.5t-296.5 296t-105.5 398.5zM400 800q0 -104 53 -199t148.5 -148t199.5 -53t199.5 53t148.5 148t53 199 q0 105 -54 201.5t-150 148t-197 51.5q-102 0 -197.5 -51.5t-149.5 -148t-54 -201.5z" />
<glyph unicode="p" horiz-adv-x="1601" d="M0 198v1203q1 196 200 198h702q193 0 345.5 -148t151.5 -350q0 -207 -149.5 -354t-354.5 -147l-197 -2h-2q-196 0 -197 202q0 201 200 201h2l142 1h6q152 0 150 97q0 99 -157 99h-145h-296v-998q1 -200 -201 -200h-2q-199 0 -198 198z" />
<glyph unicode="q" horiz-adv-x="1801" d="M-1 798q0 209 107 401.5t298.5 296t394.5 103.5q202 0 393.5 -103.5t300 -296t108.5 -401.5q0 -208 -161 -399h2q155 0 162 -200q0 -201 -202 -201h-603q-207 0 -398 105.5t-296.5 296t-105.5 398.5zM400 800q0 -104 53 -199t148.5 -148t199.5 -53t199.5 53t148.5 148 t53 199q0 105 -54 201.5t-150 148t-197 51.5q-102 0 -197.5 -51.5t-149.5 -148t-54 -201.5z" />
<glyph unicode="r" horiz-adv-x="1601" d="M0 198v1203q1 196 200 198h702q196 0 347 -151.5t150 -346.5q0 -207 -75.5 -349.5t-227.5 -147.5l247 -250q59 -59 59 -155q-3 -199 -198 -199h-2h-6q-99 0 -195 98l-400 496q-101 107 -102 206q0 201 200 201h2l142 1h6q152 0 150 97q0 99 -157 99h-145h-296v-998 q1 -200 -201 -200h-2q-199 0 -198 198z" />
<glyph unicode="s" horiz-adv-x="1598" d="M193 395h4l603 3q202 1 202 103q0 101 -200 101h-4h-197q-601 1 -601 495v7q0 494 601 495h602q198 -1 200 -200q0 -200 -193 -201l-609 1q-202 -2 -204 -102q3 -94 201 -94h4h197q603 -2 606 -507q0 -491 -605 -494h-601q-199 1 -199 194q0 199 193 199z" />
<glyph unicode="t" horiz-adv-x="1599" d="M0 1399q1 198 200 202l1012 -2q187 -3 188 -194q0 -204 -202 -207h-299l1 -999q-2 -197 -201 -199q-200 0 -200 194l1 1004h-300q-200 0 -200 201z" />
<glyph unicode="u" horiz-adv-x="1600" d="M4 799v602q1 198 200 200q200 0 201 -193l-1 -609q2 -400 304 -402q300 3 299 403v601q2 199 201 202q199 -6 200 -203v-601q-1 -799 -700 -799h-9q-694 0 -695 799z" />
<glyph unicode="v" horiz-adv-x="1799" d="M1 1401q0 52 27 100t74.5 74t98.5 26q50 0 98 -26t75 -74t425 -867q401 819 428 867t74.5 74t98.5 26q50 0 98 -26t75 -74t27 -100t-300.5 -653.5t-327 -648.5t-74 -73.5t-99.5 -26.5t-100 26.5t-74 73.5t-325 648.5t-299 653.5z" />
<glyph unicode="w" horiz-adv-x="1801" d="M0 197v1200q-1 200 196 200h4q199 -2 200 -200v-703q200 200 251.5 252t147.5 52q99 0 148.5 -50.5t250.5 -257.5v707q3 201 201 202q202 -3 202 -202l-1 -1200q-1 -198 -200 -199q-99 0 -149 51.5t-450 451.5q-405 -403 -453 -452t-149 -51q-199 0 -199 199z" />
<glyph unicode="x" horiz-adv-x="1601" d="M1 1401v11q-1 92 49 140q52 50 151 51q100 0 150.5 -49t355.5 -418q310 375 360.5 423.5t150.5 48.5q98 0 150 -50q50 -48 50 -141v-11q0 -106 -106 -198l-340 -402l341 -397q105 -98 105 -189q0 -7 -1 -15v-17q1 -88 -49 -134q-52 -49 -145 -49h-7h-4q-100 0 -150 52 q-52 53 -350 414q-302 -367 -354 -419q-51 -52 -151 -52h-4h-7q-92 0 -144 48q-50 46 -50 135v17q-1 7 -1 14q0 91 105 189l356 398l-355 401q-106 93 -106 199z" />
<glyph unicode="y" horiz-adv-x="1601" d="M1 1401v11q0 93 49 140q53 51 151 51q100 0 150.5 -49t355.5 -418q310 375 360.5 423.5t150.5 48.5q98 0 150 -50q50 -48 50 -141v-11q0 -106 -106 -198l-409 -478l-1 -531q-4 -196 -201 -199h-9q-189 0 -189 205l-2 527l-394 470q-106 93 -106 199z" />
<glyph unicode="z" horiz-adv-x="1600" d="M0 229q2 103 83 167l679 803h-587q-173 1 -175 174q-1 226 177 227h1050h2q171 0 172 -227q-8 -109 -82 -174l-675 -800h582q172 -4 175 -170q-3 -225 -179 -227l-1047 -2q-172 2 -175 229z" />
<glyph unicode="{" horiz-adv-x="684" />
<glyph unicode="|" horiz-adv-x="532" />
<glyph unicode="}" horiz-adv-x="684" />
<glyph unicode="~" horiz-adv-x="1196" />
<glyph unicode="&#xa1;" horiz-adv-x="682" />
<glyph unicode="&#xa2;" />
<glyph unicode="&#xa3;" />
<glyph unicode="&#xa5;" />
<glyph unicode="&#xa6;" horiz-adv-x="532" />
<glyph unicode="&#xa7;" />
<glyph unicode="&#xa8;" horiz-adv-x="682" />
<glyph unicode="&#xa9;" horiz-adv-x="1509" />
<glyph unicode="&#xaa;" horiz-adv-x="758" />
<glyph unicode="&#xab;" />
<glyph unicode="&#xac;" horiz-adv-x="1196" />
<glyph unicode="&#xad;" horiz-adv-x="1000" d="M2 795q2 200 198 203h402q200 -2 203 -201q-4 -200 -202 -200h-402q-198 -1 -199 198z" />
<glyph unicode="&#xae;" horiz-adv-x="1509" />
<glyph unicode="&#xaf;" horiz-adv-x="1131" />
<glyph unicode="&#xb0;" horiz-adv-x="819" />
<glyph unicode="&#xb1;" horiz-adv-x="1124" />
<glyph unicode="&#xb2;" horiz-adv-x="682" />
<glyph unicode="&#xb3;" horiz-adv-x="682" />
<glyph unicode="&#xb4;" horiz-adv-x="682" />
<glyph unicode="&#xb5;" horiz-adv-x="1180" />
<glyph unicode="&#xb6;" horiz-adv-x="1100" />
<glyph unicode="&#xb7;" horiz-adv-x="682" />
<glyph unicode="&#xb8;" horiz-adv-x="682" />
<glyph unicode="&#xb9;" horiz-adv-x="682" />
<glyph unicode="&#xba;" horiz-adv-x="748" />
<glyph unicode="&#xbb;" />
<glyph unicode="&#xbc;" horiz-adv-x="1708" />
<glyph unicode="&#xbd;" horiz-adv-x="1708" />
<glyph unicode="&#xbe;" horiz-adv-x="1708" />
<glyph unicode="&#xbf;" horiz-adv-x="1251" />
<glyph unicode="&#xc0;" horiz-adv-x="1366" />
<glyph unicode="&#xc1;" horiz-adv-x="1366" />
<glyph unicode="&#xc2;" horiz-adv-x="1366" />
<glyph unicode="&#xc3;" horiz-adv-x="1366" />
<glyph unicode="&#xc4;" horiz-adv-x="1366" />
<glyph unicode="&#xc5;" horiz-adv-x="1366" />
<glyph unicode="&#xc6;" horiz-adv-x="2048" />
<glyph unicode="&#xc7;" horiz-adv-x="1479" />
<glyph unicode="&#xc8;" horiz-adv-x="1366" />
<glyph unicode="&#xc9;" horiz-adv-x="1366" />
<glyph unicode="&#xca;" horiz-adv-x="1366" />
<glyph unicode="&#xcb;" horiz-adv-x="1366" />
<glyph unicode="&#xcc;" horiz-adv-x="569" />
<glyph unicode="&#xcd;" horiz-adv-x="569" />
<glyph unicode="&#xce;" horiz-adv-x="569" />
<glyph unicode="&#xcf;" horiz-adv-x="569" />
<glyph unicode="&#xd0;" horiz-adv-x="1479" />
<glyph unicode="&#xd1;" horiz-adv-x="1479" />
<glyph unicode="&#xd2;" horiz-adv-x="1593" />
<glyph unicode="&#xd3;" horiz-adv-x="1593" />
<glyph unicode="&#xd4;" horiz-adv-x="1593" />
<glyph unicode="&#xd5;" horiz-adv-x="1593" />
<glyph unicode="&#xd6;" horiz-adv-x="1593" />
<glyph unicode="&#xd7;" horiz-adv-x="1196" />
<glyph unicode="&#xd8;" horiz-adv-x="1593" />
<glyph unicode="&#xd9;" horiz-adv-x="1479" />
<glyph unicode="&#xda;" horiz-adv-x="1479" />
<glyph unicode="&#xdb;" horiz-adv-x="1479" />
<glyph unicode="&#xdc;" horiz-adv-x="1479" />
<glyph unicode="&#xdd;" horiz-adv-x="1366" />
<glyph unicode="&#xde;" horiz-adv-x="1366" />
<glyph unicode="&#xdf;" horiz-adv-x="1251" />
<glyph unicode="&#xe0;" />
<glyph unicode="&#xe1;" />
<glyph unicode="&#xe2;" />
<glyph unicode="&#xe3;" />
<glyph unicode="&#xe4;" />
<glyph unicode="&#xe5;" />
<glyph unicode="&#xe6;" horiz-adv-x="1821" />
<glyph unicode="&#xe7;" horiz-adv-x="1024" />
<glyph unicode="&#xe8;" />
<glyph unicode="&#xe9;" />
<glyph unicode="&#xea;" />
<glyph unicode="&#xeb;" />
<glyph unicode="&#xec;" horiz-adv-x="569" />
<glyph unicode="&#xed;" horiz-adv-x="569" />
<glyph unicode="&#xee;" horiz-adv-x="569" />
<glyph unicode="&#xef;" horiz-adv-x="569" />
<glyph unicode="&#xf0;" />
<glyph unicode="&#xf1;" />
<glyph unicode="&#xf2;" />
<glyph unicode="&#xf3;" />
<glyph unicode="&#xf4;" />
<glyph unicode="&#xf5;" />
<glyph unicode="&#xf6;" />
<glyph unicode="&#xf7;" horiz-adv-x="1124" />
<glyph unicode="&#xf8;" horiz-adv-x="1251" />
<glyph unicode="&#xf9;" />
<glyph unicode="&#xfa;" />
<glyph unicode="&#xfb;" />
<glyph unicode="&#xfc;" />
<glyph unicode="&#xfd;" horiz-adv-x="1024" />
<glyph unicode="&#xfe;" />
<glyph unicode="&#xff;" horiz-adv-x="1024" />
<glyph unicode="&#x152;" horiz-adv-x="2048" />
<glyph unicode="&#x153;" horiz-adv-x="1933" />
<glyph unicode="&#x178;" horiz-adv-x="1366" />
<glyph unicode="&#x2c6;" horiz-adv-x="682" />
<glyph unicode="&#x2dc;" horiz-adv-x="682" />
<glyph unicode="&#x2000;" horiz-adv-x="805" />
<glyph unicode="&#x2001;" horiz-adv-x="1610" />
<glyph unicode="&#x2002;" horiz-adv-x="805" />
<glyph unicode="&#x2003;" horiz-adv-x="1610" />
<glyph unicode="&#x2004;" horiz-adv-x="536" />
<glyph unicode="&#x2005;" horiz-adv-x="402" />
<glyph unicode="&#x2006;" horiz-adv-x="268" />
<glyph unicode="&#x2007;" horiz-adv-x="268" />
<glyph unicode="&#x2008;" horiz-adv-x="201" />
<glyph unicode="&#x2009;" horiz-adv-x="322" />
<glyph unicode="&#x200a;" horiz-adv-x="89" />
<glyph unicode="&#x2010;" horiz-adv-x="1000" d="M2 795q2 200 198 203h402q200 -2 203 -201q-4 -200 -202 -200h-402q-198 -1 -199 198z" />
<glyph unicode="&#x2011;" horiz-adv-x="1000" d="M2 795q2 200 198 203h402q200 -2 203 -201q-4 -200 -202 -200h-402q-198 -1 -199 198z" />
<glyph unicode="&#x2012;" horiz-adv-x="1000" d="M2 795q2 200 198 203h402q200 -2 203 -201q-4 -200 -202 -200h-402q-198 -1 -199 198z" />
<glyph unicode="&#x2013;" />
<glyph unicode="&#x2014;" horiz-adv-x="2048" />
<glyph unicode="&#x2018;" horiz-adv-x="455" />
<glyph unicode="&#x2019;" horiz-adv-x="455" />
<glyph unicode="&#x201a;" horiz-adv-x="455" />
<glyph unicode="&#x201c;" horiz-adv-x="682" />
<glyph unicode="&#x201d;" horiz-adv-x="682" />
<glyph unicode="&#x201e;" horiz-adv-x="682" />
<glyph unicode="&#x2022;" horiz-adv-x="717" />
<glyph unicode="&#x2026;" horiz-adv-x="2048" />
<glyph unicode="&#x202f;" horiz-adv-x="322" />
<glyph unicode="&#x2039;" horiz-adv-x="682" />
<glyph unicode="&#x203a;" horiz-adv-x="682" />
<glyph unicode="&#x205f;" horiz-adv-x="402" />
<glyph unicode="&#x20ac;" />
<glyph unicode="&#x2122;" horiz-adv-x="2048" />
<glyph unicode="&#x25fc;" horiz-adv-x="1610" d="M0 0v1610h1610v-1610h-1610z" />
<glyph unicode="&#xfb01;" horiz-adv-x="1024" />
<glyph unicode="&#xfb02;" horiz-adv-x="1024" />
</font>
</defs>
</svg>
