<?xml version="1.0" standalone="no"?>
<!DOCTYPE svg PUBLIC "-//W3C//DTD SVG 1.1//EN" "http://www.w3.org/Graphics/SVG/1.1/DTD/svg11.dtd" >
<svg xmlns="http://www.w3.org/2000/svg" xmlns:xlink="http://www.w3.org/1999/xlink" version="1.1">
<metadata></metadata>
<defs>
<font id="league_spartanregular" horiz-adv-x="1398" >
<font-face units-per-em="2048" ascent="1536" descent="-512" />
<missing-glyph horiz-adv-x="559" />
<glyph horiz-adv-x="0" />
<glyph horiz-adv-x="682" />
<glyph unicode=" "  horiz-adv-x="559" />
<glyph unicode="&#x09;" horiz-adv-x="559" />
<glyph unicode="&#xa0;" horiz-adv-x="559" />
<glyph unicode="!" horiz-adv-x="714" d="M123 203q0 98 68 166.5t165 68.5q98 0 167 -68.5t69 -166.5q0 -97 -69 -165.5t-167 -68.5q-97 0 -165 68.5t-68 165.5zM176 1761h363l-50 -1208h-264z" />
<glyph unicode="&#x22;" horiz-adv-x="1050" d="M123 1559v8q0 60 52.5 106.5t121.5 46.5q70 0 123 -46.5t53 -106.5v-8q0 -42 -31.5 -188.5t-63.5 -272.5l-32 -125h-137q-86 492 -86 586zM578 1559v8q0 60 52.5 106.5t121.5 46.5q70 0 123 -46.5t53 -106.5v-8q0 -42 -32 -188.5t-64 -272.5l-31 -125h-137 q-86 492 -86 586z" />
<glyph unicode="#" horiz-adv-x="1705" d="M139 449l66 247h209l78 299h-220l66 248h219l117 447h254l-117 -447h221l117 447h254l-117 -447h209l-65 -248h-209l-78 -299h219l-66 -247h-219l-116 -449h-254l116 449h-221l-117 -449h-254l117 449h-209zM668 696h221l78 299h-222z" />
<glyph unicode="$" horiz-adv-x="1376" d="M68 215l186 311q9 -7 25 -19.5t63.5 -44.5t93.5 -56t107 -44t112 -20q234 0 234 160q0 30 -15 56.5t-36 46t-61.5 43t-72.5 38.5t-89 41.5t-93 44.5q-148 74 -229.5 183.5t-81.5 236.5q0 122 59 226t152.5 169t206.5 90v295h221v-289q67 -9 132.5 -27t111.5 -38t82.5 -39 t54.5 -31l18 -12l-149 -295q-7 5 -19 12t-49 26.5t-74.5 34t-90 26.5t-99.5 12q-95 0 -145 -38.5t-50 -107.5q0 -23 10 -43.5t35.5 -41t46.5 -35t68 -37t73.5 -33.5t87.5 -37q12 -5 19 -8q73 -31 137.5 -73.5t121.5 -98t90.5 -127t33.5 -148.5q0 -116 -34 -207.5 t-96.5 -151.5t-140.5 -97t-175 -54v-297h-221v283q-99 5 -193 29t-157.5 54.5t-113.5 60.5t-73 50z" />
<glyph unicode="%" horiz-adv-x="2009" d="M47 1317q0 177 130.5 290t326.5 113q190 0 319 -113.5t129 -289.5q0 -175 -126 -289.5t-322 -114.5q-205 0 -331 113.5t-126 290.5zM311 1317q0 -83 53 -135t136 -52q79 0 131.5 52.5t52.5 134.5t-53.5 136t-130.5 54q-79 0 -134 -54t-55 -136zM395 0l983 1690h242 l-983 -1690h-242zM1057 373q0 177 125.5 290t330.5 113q196 0 322.5 -114t126.5 -289q0 -176 -129.5 -290t-319.5 -114q-195 0 -325.5 113.5t-130.5 290.5zM1321 373q0 -82 54.5 -136.5t133.5 -54.5q77 0 131 54.5t54 136.5t-53 134t-132 52q-83 0 -135.5 -51.5 t-52.5 -134.5z" />
<glyph unicode="&#x26;" horiz-adv-x="1705" d="M59 444q0 75 34.5 144.5t98.5 127.5t129 101.5t150 87.5q-82 103 -126 192.5t-44 182.5q0 201 141 320.5t398 119.5q122 0 220 -38.5t158 -102.5t91.5 -141t31.5 -158q0 -71 -34.5 -140t-83.5 -117t-97.5 -85.5t-83.5 -55.5l-34 -18l225 -233q8 4 25.5 14.5t81.5 64.5 t141 134l237 -234q-114 -131 -239 -231l364 -379h-485l-168 174q-47 -33 -64 -45t-61.5 -40.5t-69.5 -40t-70.5 -31t-83 -27t-89 -14.5t-105.5 -7q-81 0 -158 13t-156.5 47t-139 85.5t-97 136.5t-37.5 193zM496 475q0 -68 57 -104.5t133 -36.5q62 0 125.5 24t96.5 48l32 24 l-268 264q-7 -3 -19 -8t-42.5 -24.5t-53.5 -42t-42 -61.5t-19 -83zM692 1280q0 -44 31 -95.5t61 -81.5l31 -30q189 103 189 207q0 75 -38.5 121.5t-125.5 46.5q-74 0 -111 -47.5t-37 -120.5z" />
<glyph unicode="'" horiz-adv-x="595" d="M123 1559v8q0 60 52.5 106.5t121.5 46.5q70 0 123 -46.5t53 -106.5v-8q0 -42 -31.5 -188.5t-63.5 -272.5l-32 -125h-137q-86 492 -86 586z" />
<glyph unicode="(" horiz-adv-x="825" d="M113 608q0 149 21.5 294.5t55.5 259.5t75 217.5t82.5 177t75.5 128t55 81.5l22 26l235 -100q-6 -7 -16.5 -21.5t-40.5 -65.5t-57 -109t-60.5 -153.5t-57.5 -199t-40.5 -244.5t-16.5 -291q0 -141 14.5 -275t37.5 -234.5t50.5 -189.5t55.5 -150t51 -105.5t37 -65.5l15 -20 l-236 -100q-7 9 -20 26t-50.5 76t-71 124t-75 167.5t-71 210.5t-50 249.5t-20.5 286.5z" />
<glyph unicode=")" horiz-adv-x="825" d="M90 1692l236 100l22 -27.5t54 -79.5t76.5 -130t81.5 -175t77 -218.5t54 -258t22 -295.5q0 -145 -20 -286t-51.5 -251t-69.5 -209t-76.5 -169t-70 -122t-51.5 -77l-20 -26l-235 100q5 7 14.5 21t36.5 64t51.5 106.5t54.5 148.5t51.5 191t36.5 233.5t15 275.5 q0 150 -16 290.5t-41.5 245.5t-56.5 197.5t-61.5 155t-56 108t-41.5 66.5z" />
<glyph unicode="*" horiz-adv-x="999" d="M123 1430l53 163l234 -71l2 239h176l2 -239l233 71l54 -163l-234 -84l135 -203l-135 -92l-143 186l-144 -186l-135 92l135 203z" />
<glyph unicode="+" horiz-adv-x="1296" d="M123 692v314h369v368h313v-368h369v-314h-369v-368h-313v368h-369z" />
<glyph unicode="," horiz-adv-x="714" d="M123 203q0 98 68 166.5t165 68.5q98 0 167 -68.5t69 -166.5q0 -303 -344 -588l-105 86q5 5 13.5 14t31.5 38t42.5 60.5t39.5 79t29 95.5q-77 19 -126.5 77t-49.5 138z" />
<glyph unicode="-" horiz-adv-x="905" d="M123 436v314h659v-314h-659z" />
<glyph unicode="." horiz-adv-x="714" d="M123 203q0 98 68 166.5t165 68.5q98 0 167 -68.5t69 -166.5q0 -97 -69 -165.5t-167 -68.5q-97 0 -165 68.5t-68 165.5z" />
<glyph unicode="/" horiz-adv-x="1251" d="M47 -246l844 2007h313l-844 -2007h-313z" />
<glyph unicode="0" horiz-adv-x="1488" d="M57 844q0 171 37 315.5t101 246.5t151.5 173.5t188 106t210.5 34.5t210.5 -34.5t187.5 -106t151.5 -173.5t101 -246.5t36.5 -315.5q0 -183 -37 -331t-100.5 -248t-151.5 -168t-187.5 -98t-210.5 -30t-210.5 30t-188 98t-152 168t-100.5 248t-37 331zM446 844 q0 -268 78 -402.5t221 -134.5q141 0 219 134.5t78 402.5q0 255 -79 396.5t-218 141.5q-140 0 -219.5 -142t-79.5 -396z" />
<glyph unicode="1" horiz-adv-x="845" d="M59 997v381l482 312h182v-1690h-385v1178z" />
<glyph unicode="2" horiz-adv-x="1542" d="M113 0v96q18 15 49.5 41.5t122 107.5t172.5 159.5t182.5 184.5t172.5 197.5t121.5 184t49.5 155.5q0 26 -3 52.5t-17 68t-38 72t-71 53.5t-111 23q-52 0 -101.5 -33t-84 -80.5t-62 -95t-40.5 -80.5l-13 -33l-321 156q3 10 10 28t33 69t57 97t84.5 103t113.5 97.5 t145 68.5t179 28q120 0 218.5 -22t165.5 -58t117.5 -87t79 -103t46.5 -113.5t23.5 -110t5.5 -100.5q0 -81 -33 -168t-85.5 -161.5t-116 -146t-127 -127t-116 -98t-85.5 -65.5l-33 -22h627v-338h-1317z" />
<glyph unicode="3" horiz-adv-x="1361" d="M35 385l356 174q0 -5 1.5 -14.5t9 -36.5t18.5 -51t32.5 -54t49 -51.5t71 -36t95.5 -14.5q108 0 175.5 59t67.5 164q0 108 -70.5 178t-172.5 70q-18 0 -36.5 -3t-27.5 -6l-10 -3v252h84q79 0 141 61.5t62 151.5q0 80 -62.5 133t-146.5 53q-60 0 -107.5 -21.5t-73.5 -52 t-43 -61.5t-22 -52l-6 -22l-303 148q2 8 6 21t22.5 51.5t42.5 73.5t69.5 78t100.5 73.5t138 51.5t180 21q242 0 398.5 -138t156.5 -353q0 -201 -150 -318q102 -62 158.5 -159.5t56.5 -227.5q0 -242 -177 -398.5t-449 -156.5q-106 0 -198.5 23t-155.5 59.5t-114 81t-81 89 t-50.5 81t-28.5 59.5z" />
<glyph unicode="4" horiz-adv-x="1363" d="M-51 356v115l811 1219h381v-996h196v-338h-196v-356h-361v356h-831zM475 694h305v482h-4z" />
<glyph unicode="5" horiz-adv-x="1312" d="M37 336l305 147q25 -85 99 -138.5t198 -53.5q105 0 173.5 69.5t68.5 176.5q0 65 -25 116.5t-66.5 84.5t-99 55.5t-118.5 31.5t-130 9q-168 0 -288 -54l141 910h862v-338h-532l-37 -236q7 0 23 1t24 1q102 -1 189 -17t170.5 -58t142 -107.5t94 -170.5t35.5 -241 q0 -242 -177.5 -398.5t-449.5 -156.5q-129 0 -236 32.5t-178 87.5t-117 116.5t-71 130.5z" />
<glyph unicode="6" horiz-adv-x="1411" d="M49 543q0 109 15 194t54 167.5t79 144.5t118 168l398 473h475l-498 -580q43 25 121 25q71 0 145 -23.5t144.5 -72.5t126 -117.5t89.5 -167t34 -211.5q0 -116 -36 -212.5t-96.5 -162.5t-142 -111.5t-170 -66.5t-182.5 -21q-187 0 -341.5 75.5t-243.5 207t-89 291.5z M449 543q0 -111 72 -183.5t184 -72.5t186 73t74 183q0 113 -75 187.5t-185 74.5q-107 0 -181.5 -74.5t-74.5 -187.5z" />
<glyph unicode="7" horiz-adv-x="1409" d="M113 0l778 1352h-727v338h1296v-113l-893 -1577h-454z" />
<glyph unicode="8" horiz-adv-x="1406" d="M72 455q0 165 79.5 279.5t215.5 176.5q-224 128 -224 383q0 121 82 220t209.5 152.5t267.5 53.5q145 0 271 -53.5t204 -152.5t78 -220q0 -257 -217 -383q136 -63 216.5 -177t80.5 -279q0 -138 -91.5 -251t-235.5 -174t-303 -61q-164 0 -308.5 61t-234.5 174t-90 251z M489 516q0 -94 59 -154.5t154 -60.5q93 0 154.5 61t61.5 154q0 94 -62.5 154.5t-153.5 60.5q-92 0 -152.5 -60.5t-60.5 -154.5zM514 1239q0 -83 55.5 -135.5t135.5 -52.5q82 0 134 52t52 136q0 83 -52 137t-134 54t-136.5 -54.5t-54.5 -136.5z" />
<glyph unicode="9" horiz-adv-x="1411" d="M61 1147q0 116 36 212.5t96.5 162t142 111t170 66.5t182.5 21q187 0 341.5 -75t243.5 -207t89 -291q0 -109 -15 -194t-54 -167.5t-79 -144.5t-118 -168l-398 -473h-475l498 580q-43 -25 -121 -25q-71 0 -145 23.5t-144.5 72.5t-126 117.5t-89.5 167t-34 211.5zM446 1147 q0 -113 75.5 -187.5t185.5 -74.5q107 0 181.5 74.5t74.5 187.5q0 111 -72 183.5t-184 72.5t-186.5 -73t-74.5 -183z" />
<glyph unicode=":" horiz-adv-x="714" d="M123 203q0 98 68 166.5t165 68.5q98 0 167 -68.5t69 -166.5q0 -97 -69 -165.5t-167 -68.5q-97 0 -165 68.5t-68 165.5zM123 899q0 98 68 167t165 69q98 0 167 -69t69 -167q0 -97 -69 -165t-167 -68q-97 0 -165 68t-68 165z" />
<glyph unicode=";" horiz-adv-x="714" d="M123 203q0 -80 49.5 -138t126.5 -77q-15 -76 -54 -147.5t-71 -105.5l-31 -34l105 -86q344 285 344 588q0 98 -69 166.5t-167 68.5q-97 0 -165 -68.5t-68 -166.5zM123 899q0 98 68 167t165 69q98 0 167 -69t69 -167q0 -97 -69 -165t-167 -68q-97 0 -165 68t-68 165z" />
<glyph unicode="&#x3c;" horiz-adv-x="1355" d="M123 731v242l1120 454v-290l-733 -287l733 -283v-291z" />
<glyph unicode="=" horiz-adv-x="1296" d="M123 446v314h1051v-314h-1051zM123 938v313h1051v-313h-1051z" />
<glyph unicode="&#x3e;" horiz-adv-x="1355" d="M113 276v291l733 283l-733 287v290l1120 -454v-242z" />
<glyph unicode="?" horiz-adv-x="1220" d="M47 1333q0 5 6 25t22.5 56t41.5 75.5t69 81t98 74.5t134.5 54t173.5 21q154 0 286.5 -61t214 -174.5t81.5 -253.5q0 -260 -347 -408q-47 -21 -59 -56t-12 -99v-115h-338v223q0 83 17 133t79 90q30 19 72.5 40t68 35t51.5 35t38 50.5t12 71.5q0 73 -48 120.5t-118 47.5 q-52 0 -96 -20t-72.5 -53t-46.5 -67.5t-27 -70.5zM352 203q0 98 68.5 166.5t165.5 68.5q98 0 166.5 -68.5t68.5 -166.5q0 -97 -68.5 -165.5t-166.5 -68.5q-97 0 -165.5 68.5t-68.5 165.5z" />
<glyph unicode="@" horiz-adv-x="1886" d="M47 846q0 190 74 355t199.5 278t294 177t354.5 64q119 0 231 -27t208 -76.5t176.5 -123t137 -162.5t88 -198t31.5 -228q0 -93 -24 -169t-64.5 -127t-94.5 -86t-112.5 -50.5t-120.5 -15.5q-82 0 -157 25.5t-127 68.5l-19 -27q-45 -50 -112 -80t-146 -30q-167 0 -277 118.5 t-110 292.5q0 175 110 295.5t277 120.5q157 0 258 -98v76h244v-428q0 -3 1 -9t7.5 -21t16.5 -26t31 -20.5t48 -9.5q68 0 97.5 44.5t29.5 155.5q0 158 -82.5 283.5t-225.5 194.5t-320 69q-171 0 -314.5 -81.5t-226 -220.5t-82.5 -304q0 -164 84 -299t227 -211t312 -76 q76 0 143 14.5t109 35t73 40.5t44 34l14 15l237 -157q-4 -6 -11 -15.5t-34.5 -38t-59.5 -54.5t-85.5 -57.5t-113 -54t-143 -38t-173.5 -15.5q-186 0 -354.5 64.5t-294 178t-199.5 279t-74 355.5zM795 829q0 -71 46.5 -117t119.5 -46q69 0 115 46.5t46 116.5q0 71 -47 119.5 t-114 48.5q-69 0 -117.5 -48.5t-48.5 -119.5z" />
<glyph unicode="A" horiz-adv-x="1605" d="M-57 0l682 1690h356l682 -1690h-414l-125 338h-643l-125 -338h-413zM612 676h381l-188 491h-4z" />
<glyph unicode="B" horiz-adv-x="1363" d="M123 0v1690h524q90 0 166 -13.5t142.5 -45.5t112.5 -80.5t72.5 -122.5t26.5 -168q0 -120 -53 -214.5t-158 -148.5q361 -63 361 -426q0 -213 -147 -342t-406 -129h-641zM508 297h121q140 0 211 45t71 143q0 113 -70 162t-212 49h-121v-399zM508 1028h31q129 0 192.5 45 t63.5 148q0 89 -64 130.5t-192 41.5h-31v-365z" />
<glyph unicode="C" horiz-adv-x="1542" d="M47 842q0 142 49 277t136 242.5t201 189t251 125.5t279 44q103 0 198 -16t157 -39t109.5 -45.5t68.5 -38.5l22 -16l-164 -328q-6 4 -16 11t-44 25t-70 32t-91.5 25t-110.5 11q-112 0 -206 -30t-157.5 -79.5t-108 -114t-65 -133.5t-20.5 -138q0 -70 20.5 -139t65 -134 t108 -115t157.5 -80t206 -30q55 0 109.5 11t93 26t69 30.5t45.5 26.5l15 11l164 -328q-8 -6 -22.5 -16.5t-67 -37.5t-111.5 -47.5t-155 -37.5t-199 -17q-141 0 -278 44t-251 125t-201.5 187.5t-136.5 240.5t-49 276z" />
<glyph unicode="D" horiz-adv-x="1511" d="M123 0v1690h489q172 0 328 -63.5t271.5 -173.5t184 -268.5t68.5 -338.5q0 -181 -68 -340t-183.5 -269t-271.5 -173.5t-329 -63.5h-489zM508 344h59q211 0 345.5 142.5t136.5 357.5q0 141 -60 255t-170.5 180.5t-251.5 66.5h-59v-1002z" />
<glyph unicode="E" horiz-adv-x="1187" d="M123 0v1690h967v-338h-582v-336h557v-338h-557v-340h582v-338h-967z" />
<glyph unicode="F" horiz-adv-x="1161" d="M123 0v1690h977v-338h-592v-336h547v-338h-547v-678h-385z" />
<glyph unicode="G" horiz-adv-x="1697" d="M47 844q0 180 62.5 341.5t170.5 279t261.5 186.5t328.5 69q414 0 652 -288l-252 -277q-135 217 -377 217q-117 0 -216 -70.5t-156.5 -192t-57.5 -265.5q0 -215 126 -367.5t304 -152.5q94 0 176.5 37t136.5 113t54 175h-390v297h781v-366q-27 -125 -85 -227.5t-134 -173 t-170 -118.5t-192 -70t-200 -22q-168 0 -320 69.5t-262.5 186.5t-175.5 279t-65 340z" />
<glyph unicode="H" horiz-adv-x="1560" d="M123 0v1690h385v-674h545v674h385v-1690h-385v678h-545v-678h-385z" />
<glyph unicode="I" horiz-adv-x="630" d="M123 0v1690h385v-1690h-385z" />
<glyph unicode="J" horiz-adv-x="960" d="M-63 131l122 322q5 -5 14 -12.5t35 -27.5t51.5 -35t59 -27.5t60.5 -12.5q89 0 141.5 58t52.5 179v1115h385v-1213q0 -248 -135.5 -378t-390.5 -130q-68 0 -133.5 16.5t-110.5 40.5t-81 48t-53 40z" />
<glyph unicode="K" horiz-adv-x="1611" d="M123 0v1690h385v-691l579 691h467l-680 -801l787 -889h-531l-622 717v-717h-385z" />
<glyph unicode="L" horiz-adv-x="1157" d="M123 0v1690h385v-1352h582v-338h-967z" />
<glyph unicode="M" horiz-adv-x="1937" d="M33 0l151 1690h410l375 -975l374 975h410l152 -1690h-385l-80 1001h-10l-347 -991h-229l-346 991h-10l-80 -1001h-385z" />
<glyph unicode="N" horiz-adv-x="1691" d="M123 0v1690h385l672 -1049h4v1049h385v-1690h-385l-672 1049h-4v-1049h-385z" />
<glyph unicode="O" horiz-adv-x="1796" d="M47 846q0 182 68 344.5t183 278.5t272 183.5t329 67.5q173 0 330 -67.5t271 -183.5t181.5 -278.5t67.5 -344.5q0 -183 -65 -345t-177.5 -279t-270.5 -185t-337 -68q-184 0 -343.5 68t-270.5 185t-174.5 279t-63.5 345zM463 846q0 -78 15 -149.5t48.5 -136.5t83 -113 t123.5 -76.5t166 -28.5q111 0 196.5 42.5t136 115.5t76 160.5t25.5 185.5q0 77 -16 149t-51 137t-85 113t-122.5 76.5t-159.5 28.5q-107 0 -192.5 -43t-137.5 -115t-79 -160.5t-27 -185.5z" />
<glyph unicode="P" horiz-adv-x="1363" d="M123 0v1690h616q125 0 229.5 -32.5t183 -96t122 -164t43.5 -228.5q0 -170 -76 -294t-205.5 -186t-296.5 -62h-231v-627h-385zM508 934h108q61 0 111 11t93 35.5t67 69.5t24 107q0 51 -16.5 90.5t-43.5 64.5t-65.5 41t-80 22.5t-89.5 6.5h-108v-448z" />
<glyph unicode="Q" horiz-adv-x="1775" d="M47 846q0 182 66.5 344.5t179.5 278.5t268.5 183.5t327.5 67.5q173 0 328.5 -67.5t268 -183.5t178 -278.5t65.5 -344.5q0 -301 -162 -530.5t-426 -309.5v-8q12 0 108 -19.5t154 -19.5q49 0 93 11.5t72 27.5t49 32.5t31 27.5l9 12l121 -260q-4 -9 -13 -24.5t-42.5 -55.5 t-73 -70t-106.5 -55t-142 -25q-69 0 -134.5 16.5t-118 40t-106 47t-120 40t-138.5 16.5q-45 0 -87 -9.5t-70 -23.5t-50 -28t-32 -23l-10 -10l-93 139q6 8 16.5 21t43 46t63.5 58t72.5 46t75.5 21v9q-198 39 -349.5 160t-234 303t-82.5 397zM463 846q0 -78 14 -147.5t46 -133 t80 -108.5t121 -72t165 -27q111 0 195 40t132.5 110t72.5 155t24 183t-25 183t-74.5 154.5t-133 109.5t-191.5 40q-87 0 -158.5 -26.5t-120.5 -72t-82.5 -108t-49 -133t-15.5 -147.5z" />
<glyph unicode="R" horiz-adv-x="1466" d="M123 0v1690h604q118 0 218 -32t174.5 -94t116.5 -158t42 -218q0 -186 -93 -312.5t-253 -177.5l581 -698h-489l-516 668v-668h-385zM508 940h45q54 0 90 2.5t83.5 15t76 34.5t49 65t20.5 104t-20.5 104t-49 65t-76 34.5t-83.5 15t-90 2.5h-45v-442z" />
<glyph unicode="S" horiz-adv-x="1376" d="M47 193l193 323q9 -8 25.5 -20.5t65.5 -45.5t96 -58t110 -45.5t116 -20.5q33 0 58.5 2t63 11.5t62 26t42.5 49t18 77.5q0 30 -15.5 57t-37 47t-64 44.5t-75.5 40t-92.5 43.5t-96.5 46q-153 75 -237 188.5t-84 245.5q0 151 81.5 271.5t206 182.5t262.5 62 q86 0 171.5 -16.5t146.5 -40t109.5 -46.5t73.5 -39l24 -17l-156 -308q-7 5 -19.5 13t-50.5 28t-76.5 35.5t-92.5 28t-103 12.5q-97 0 -149 -40.5t-52 -110.5q0 -17 6.5 -33.5t22.5 -33t31 -30t45 -30.5t51 -28.5t61.5 -29.5t64 -28.5t71.5 -30.5q75 -32 142 -75.5 t125.5 -101t93 -131.5t34.5 -153q0 -117 -35 -211t-94 -155.5t-141.5 -102.5t-173 -58.5t-193.5 -17.5q-111 0 -217 23t-178.5 56t-129 66t-83.5 56z" />
<glyph unicode="T" horiz-adv-x="1220" d="M16 1352v338h1188v-338h-401v-1352h-385v1352h-402z" />
<glyph unicode="U" horiz-adv-x="1523" d="M102 600v1090h385v-977q0 -140 30.5 -220.5t88.5 -112.5t156 -32t156 32t88 112.5t30 220.5v977h385v-1090q0 -312 -167.5 -471.5t-491.5 -159.5t-492 159.5t-168 471.5z" />
<glyph unicode="V" horiz-adv-x="1605" d="M-57 1690h434l426 -1110l426 1110h434l-709 -1690h-303z" />
<glyph unicode="W" horiz-adv-x="2295" d="M-31 1690h428l289 -1160h10l308 1160h290l308 -1160h10l289 1160h426l-482 -1690h-426l-270 948l-270 -948h-428z" />
<glyph unicode="X" horiz-adv-x="1634" d="M-70 0l639 909l-532 781h459l311 -461l311 461h479l-553 -781l660 -909h-498l-399 575l-399 -575h-478z" />
<glyph unicode="Y" horiz-adv-x="1507" d="M-61 1690h462l353 -541l352 541h463l-623 -932v-758h-385v758z" />
<glyph unicode="Z" horiz-adv-x="1574" d="M33 0l835 1352h-716v338h1390l-837 -1352h782v-338h-1454z" />
<glyph unicode="[" horiz-adv-x="905" d="M123 -532v2293h659v-239h-346v-1815h346v-239h-659z" />
<glyph unicode="\" horiz-adv-x="1251" d="M47 1761h313l844 -1761h-313z" />
<glyph unicode="]" horiz-adv-x="905" d="M123 -293h346v1815h-346v239h659v-2293h-659v239z" />
<glyph unicode="^" horiz-adv-x="1015" d="M-10 1239l424 481h188l424 -481h-330l-188 223l-189 -223h-329z" />
<glyph unicode="_" horiz-adv-x="1050" d="M0 -31h1051v-174h-1051v174z" />
<glyph unicode="`" horiz-adv-x="794" d="M96 1485l187 235l415 -360l-114 -158z" />
<glyph unicode="a" d="M47 524q0 114 39 216.5t106.5 177.5t165.5 119t211 44q210 0 344 -131v101h363v-1051h-358v119h-5q-61 -68 -151 -109t-193 -41q-113 0 -211 43.5t-165.5 118.5t-106.5 177t-39 216zM432 524q0 -108 68 -176.5t178 -68.5q106 0 175 69t69 176t-70.5 177.5t-173.5 70.5 q-104 0 -175 -70t-71 -178z" />
<glyph unicode="b" d="M123 0v1761h362v-811q134 131 344 131q150 0 270.5 -75t186.5 -202t66 -280t-66 -279.5t-186.5 -201t-270.5 -74.5q-103 0 -193 41t-151 109h-4v-119h-358zM477 524q0 -107 69 -176t175 -69q110 0 178 68.5t68 176.5t-71 178t-175 70q-103 0 -173.5 -70.5t-70.5 -177.5z " />
<glyph unicode="c" horiz-adv-x="1005" d="M47 522q0 151 81.5 280.5t215.5 204t285 74.5q65 0 125.5 -10t100 -24.5t69.5 -29t44 -24.5l13 -10l-123 -248q-8 5 -22 13.5t-60 22t-94 13.5q-103 0 -176.5 -75.5t-73.5 -182.5q0 -108 73.5 -184t176.5 -76q48 0 92 12t64 24l20 13l123 -252q-5 -4 -14.5 -10 t-42.5 -22.5t-70.5 -29t-98.5 -22.5t-126 -10q-150 0 -284 73.5t-216 201.5t-82 278z" />
<glyph unicode="d" d="M47 524q0 114 39 216.5t106.5 177.5t165.5 119t211 44q210 0 344 -131v811h363v-1761h-358v119h-5q-61 -68 -151 -109t-193 -41q-113 0 -211 43.5t-165.5 118.5t-106.5 177t-39 216zM432 524q0 -108 68 -176.5t178 -68.5q106 0 175 69t69 176t-70.5 177.5t-173.5 70.5 q-104 0 -175 -70t-71 -178z" />
<glyph unicode="e" horiz-adv-x="1234" d="M47 524q0 151 78 279.5t211 203t289 74.5q121 0 223 -35.5t178 -104t119 -175.5t43 -242q0 -37 -2 -49h-762q0 -58 22 -102t57.5 -68t73 -35.5t74.5 -11.5q88 0 139 23.5t117 93.5l262 -131q-164 -275 -544 -275q-156 0 -289 74.5t-211 202.5t-78 278zM434 676h400 q-12 82 -65 126t-134 44q-91 0 -143.5 -47.5t-57.5 -122.5z" />
<glyph unicode="f" horiz-adv-x="768" d="M33 774v277h151v223q2 235 110.5 376.5t301.5 141.5q82 0 156.5 -23.5t108.5 -46.5l34 -24l-127 -256q-50 28 -109 28q-66 0 -89 -46t-23 -160v-213h241v-277h-241v-774h-363v774h-151z" />
<glyph unicode="g" d="M47 524q0 114 39 216.5t106.5 177.5t165.5 119t211 44q204 0 338 -125h6v95h363v-1080q0 -172 -81 -294t-218.5 -181t-319.5 -59q-449 0 -581 305l297 145q35 -56 105.5 -95.5t178.5 -39.5q32 0 65 7.5t68 26t62 45.5t44 70.5t17 96.5v78q-55 -60 -140 -83.5t-204 -23.5 q-113 0 -211 43.5t-165.5 118.5t-106.5 177t-39 216zM432 524q0 -108 68 -176.5t178 -68.5q106 0 175 69t69 176t-70.5 177.5t-173.5 70.5q-104 0 -175 -70t-71 -178z" />
<glyph unicode="h" horiz-adv-x="1353" d="M123 0v1761h362v-821h4q141 141 302 141q61 0 122 -12t123 -41t109 -72t76.5 -111.5t29.5 -152.5v-692h-362v594q0 82 -52.5 143.5t-136.5 61.5q-82 0 -148.5 -63.5t-66.5 -141.5v-594h-362z" />
<glyph unicode="i" horiz-adv-x="618" d="M94 1485q0 89 63 152t152 63t152 -63t63 -152t-63 -152t-152 -63t-152 63t-63 152zM123 0h362v1051h-362v-1051z" />
<glyph unicode="j" horiz-adv-x="608" d="M-182 -498q2 -1 26 -12.5t34 -15t38 -13t51 -13.5t60.5 -7.5t78.5 -3.5q84 0 150.5 24t108.5 63t69.5 92.5t39 108t11.5 113.5v1213h-362v-1143q0 -72 -26.5 -108t-73.5 -36q-20 0 -43.5 8t-36.5 16l-13 7zM94 1485q0 89 63 152t152 63t152 -63t63 -152t-63 -152 t-152 -63t-152 63t-63 152z" />
<glyph unicode="k" horiz-adv-x="1323" d="M123 0v1761h362v-1077l367 367h471l-500 -502l549 -549h-467l-420 420v-420h-362z" />
<glyph unicode="l" horiz-adv-x="608" d="M123 0v1761h362v-1761h-362z" />
<glyph unicode="m" horiz-adv-x="2017" d="M123 0v1051h362v-111h4q141 141 302 141q115 0 214.5 -46.5t151.5 -145.5q160 192 348 192q61 0 117 -12t110.5 -41t94 -72.5t64 -111t24.5 -152.5v-692h-363v594q0 85 -46.5 141t-137.5 56q-80 0 -122.5 -48.5t-45.5 -115.5v-627h-362v594q0 84 -47 140.5t-138 56.5 q-84 0 -126 -53t-42 -124v-614h-362z" />
<glyph unicode="n" horiz-adv-x="1353" d="M123 0v1051h362v-111h4q141 141 302 141q61 0 122 -12t123 -41t109 -72t76.5 -111.5t29.5 -152.5v-692h-362v594q0 82 -52.5 143.5t-136.5 61.5q-82 0 -148.5 -63.5t-66.5 -141.5v-594h-362z" />
<glyph unicode="o" horiz-adv-x="1353" d="M47 524q0 121 49.5 225t134 176.5t201.5 114t248 41.5q173 0 316 -70t227 -198.5t84 -288.5q0 -242 -177.5 -398.5t-449.5 -156.5q-283 0 -458 155.5t-175 399.5zM432 524q0 -108 68 -176.5t178 -68.5q106 0 175 69t69 176t-70.5 177.5t-173.5 70.5q-104 0 -175 -70 t-71 -178z" />
<glyph unicode="p" d="M123 -532v1583h358v-119h4q61 68 151 108.5t193 40.5q150 0 270.5 -74.5t186.5 -201t66 -279.5t-66 -280t-186.5 -202t-270.5 -75q-210 0 -344 131v-632h-362zM477 526q0 -107 70.5 -177t173.5 -70q104 0 175 70t71 177q0 108 -68 177t-178 69q-106 0 -175 -69.5 t-69 -176.5z" />
<glyph unicode="q" d="M47 526q0 114 39 216t106.5 177t165.5 118.5t211 43.5q103 0 193 -40.5t151 -108.5h5v119h358v-1583h-363v632q-134 -131 -344 -131q-113 0 -211 44t-165.5 119t-106.5 177.5t-39 216.5zM432 526q0 -107 71 -177t175 -70q103 0 173.5 70t70.5 177t-69 176.5t-175 69.5 q-110 0 -178 -69t-68 -177z" />
<glyph unicode="r" horiz-adv-x="1019" d="M123 0v1051h362v-152h4q5 7 14 19.5t40 44t65.5 55.5t89.5 43.5t113 19.5q60 0 117.5 -16.5t84.5 -32.5l27 -16l-151 -307q-8 6 -22.5 15.5t-63.5 25.5t-103 16q-53 0 -94 -20t-63 -47t-36 -59.5t-18 -53.5t-4 -33v-553h-362z" />
<glyph unicode="s" horiz-adv-x="1007" d="M47 111l148 247q6 -5 16 -13t41 -28.5t61 -36.5t69.5 -29t72.5 -13q32 0 53 3.5t40 21t19 50.5q0 34 -28 54t-97.5 45.5t-107.5 44.5q-46 24 -79 46.5t-66 56.5t-50.5 80t-17.5 103q0 159 124.5 248.5t334.5 89.5q90 0 178 -20.5t131 -40.5l43 -21l-119 -237 q-14 7 -37 18t-85 29t-111 18q-62 0 -87.5 -13.5t-25.5 -49.5q0 -9 2.5 -17t8.5 -14.5t11.5 -12t16.5 -11.5t19 -9.5t23.5 -9t25 -8.5l28.5 -9t29 -9q49 -15 87.5 -30.5t84 -44t76 -62.5t51 -85.5t20.5 -113.5q0 -359 -497 -359q-71 0 -139 14.5t-114.5 35.5t-82.5 42 t-53 35z" />
<glyph unicode="t" horiz-adv-x="808" d="M33 774v277h151v391h363v-391h221v-277h-221v-334q0 -145 82 -145q21 0 43.5 8.5t34.5 16.5l12 8l90 -293q-13 -7 -36.5 -18t-93 -29.5t-136.5 -18.5q-83 0 -148 24.5t-104 63t-63.5 93t-34 108t-9.5 113.5v403h-151z" />
<glyph unicode="u" horiz-adv-x="1343" d="M102 463v588h363v-500q0 -156 47 -221.5t160 -65.5t160 65.5t47 221.5v500h362v-588q0 -262 -136 -378t-433 -116t-433.5 116t-136.5 378z" />
<glyph unicode="v" horiz-adv-x="1290" d="M-41 1051h430l256 -572l256 572h430l-563 -1051h-246z" />
<glyph unicode="w" horiz-adv-x="2019" d="M-41 1051h418l256 -568l252 568h250l251 -568l256 568h418l-563 -1051h-246l-241 543l-242 -543h-246z" />
<glyph unicode="x" horiz-adv-x="1339" d="M0 0l449 549l-386 502h424l183 -244l182 244h424l-385 -502l448 -549h-438l-231 297l-232 -297h-438z" />
<glyph unicode="y" horiz-adv-x="1296" d="M-41 1051h418l293 -539l250 539h417l-825 -1583h-418l363 696z" />
<glyph unicode="z" horiz-adv-x="1148" d="M10 0l520 774h-434v277h1043l-521 -775h480v-276h-1088z" />
<glyph unicode="{" horiz-adv-x="913" d="M123 518v193q143 0 143 133v547q0 55 8.5 104t31 99t58 86t94 58.5t134.5 22.5h199v-262h-82q-55 0 -92 -39t-37 -100v-526q0 -154 -125 -220q125 -66 125 -219v-526q0 -61 37 -100t92 -39h82v-262h-199q-76 0 -134.5 22.5t-94 58.5t-58 86t-31 99t-8.5 104v547 q0 133 -143 133z" />
<glyph unicode="|" horiz-adv-x="559" d="M123 0v1761h313v-1761h-313z" />
<glyph unicode="}" horiz-adv-x="913" d="M123 -270h82q55 0 92 39t37 100v526q0 153 125 219q-125 66 -125 220v526q0 61 -37 100t-92 39h-82v262h199q94 0 160.5 -33t101 -89.5t49 -117t14.5 -130.5v-547q0 -133 144 -133v-193q-144 0 -144 -133v-547q0 -70 -14.5 -130.5t-49 -117t-101 -89.5t-160.5 -33h-199 v262z" />
<glyph unicode="~" horiz-adv-x="1421" d="M123 801l8 16t23.5 39t39 55.5t53 59t66.5 55.5t79.5 39t92.5 16q49 0 91 -8t85 -28.5t63 -32.5t67 -41q95 -64 145 -64q33 0 63 16.5t49 40t33.5 47t20.5 39.5l6 17l190 -166l-8 -16t-23.5 -39t-39 -55.5t-53 -59t-66.5 -55.5t-79.5 -39t-92.5 -16q-61 0 -119.5 17.5 t-93.5 36.5t-88 54q-98 66 -150 66q-33 0 -63 -16.5t-49 -40t-33.5 -47t-20.5 -39.5l-6 -17z" />
<glyph unicode="&#xa1;" horiz-adv-x="714" d="M123 1026q0 97 68 165.5t165 68.5q98 0 167 -68.5t69 -165.5q0 -98 -69 -166.5t-167 -68.5q-97 0 -165 68.5t-68 166.5zM176 -532l49 1208h264l50 -1208h-363z" />
<glyph unicode="&#xa2;" horiz-adv-x="1005" d="M47 522q0 181 113 326.5t286 202.5v252h222v-224q58 -3 111.5 -14t88.5 -24.5t62 -26.5t39 -22l12 -9l-123 -248q-8 5 -22 13.5t-60 22t-94 13.5q-103 0 -176.5 -75.5t-73.5 -182.5q0 -108 73.5 -184t176.5 -76q48 0 92 12t64 24l20 13l123 -252q-10 -7 -29 -18.5 t-84.5 -35.5t-138.5 -34v-239h-221v248q-194 41 -327.5 192t-133.5 346z" />
<glyph unicode="&#xa3;" horiz-adv-x="1533" d="M113 0q0 44 21.5 104.5t58.5 119.5t95.5 100t123.5 41q32 46 32 118q0 49 -24 109h-307v201h209q-107 169 -107 350q0 121 37.5 225.5t108 183.5t181.5 124.5t249 45.5q77 0 145.5 -13.5t119 -36t94 -51.5t73 -61t53 -64.5t37.5 -61.5t23 -51.5t12 -36.5l4 -13l-324 -157 q-2 10 -5.5 25.5t-21 56t-41 71.5t-68.5 56.5t-101 25.5q-93 0 -144 -74t-51 -194q0 -48 4.5 -88.5t18 -81t20.5 -59.5t29 -65t26 -56h355v-201h-281q6 -43 6 -94q0 -43 -14 -84.5t-28 -61.5l-15 -20q10 0 59.5 -17t122 -34t139.5 -17q33 0 59 15t40 37t23.5 44t12.5 37 l3 15l280 -140q-1 -6 -3.5 -17t-13.5 -42.5t-27 -60t-46 -63.5t-67 -60.5t-94 -42.5t-124 -17q-108 0 -226.5 30t-225 59.5t-185.5 29.5q-37 0 -61 -22t-29 -44l-6 -22h-235z" />
<glyph unicode="&#xa5;" horiz-adv-x="1564" d="M-33 1690h463l352 -541l353 541h462l-532 -797h344v-272h-434v-123h434v-273h-434v-225h-385v225h-436v273h436v123h-436v272h346z" />
<glyph unicode="&#xa6;" horiz-adv-x="559" d="M123 0v680h313v-680h-313zM123 1081v680h313v-680h-313z" />
<glyph unicode="&#xa7;" horiz-adv-x="1310" d="M47 -172l328 70q2 -6 6 -17t21.5 -38t39.5 -48t61.5 -38t86.5 -17q87 0 127.5 32t40.5 81q0 21 -9 39.5t-32.5 38.5t-44 34.5t-64.5 37t-71 35.5t-86 40q-98 46 -168.5 93.5t-125.5 106t-82.5 130.5t-27.5 157q6 117 77.5 215t197.5 154q-95 68 -139 151.5t-44 206.5 q0 85 31.5 160.5t94 136t166 96t237.5 35.5q70 0 131.5 -12.5t106.5 -33.5t83.5 -48.5t64 -58t45.5 -61t31.5 -58t18.5 -48.5t9 -34l3 -12l-327 -70q0 5 -2 14t-12 32t-26 40.5t-49 32t-77 14.5q-62 0 -95.5 -31.5t-33.5 -80.5q0 -20 9.5 -39t33 -38.5t45 -35t65 -37.5 t72.5 -36t86 -40q200 -94 301.5 -207.5t101.5 -279.5q-6 -117 -77 -215t-197 -154q94 -70 138 -153.5t44 -204.5q0 -57 -15.5 -112.5t-56 -114t-103 -102t-164.5 -71.5t-232 -28q-97 0 -179.5 21.5t-137 56t-97 76t-66 83.5t-39 76.5t-19.5 55.5zM383 625q2 -29 20 -57 t41.5 -49t63.5 -45t69.5 -39t75.5 -36q5 -2 17 -7.5t18 -8.5l47 -23q175 46 183 172q-2 29 -20 57t-41.5 49t-64 45t-69.5 38.5t-76 36.5q-5 2 -17 7.5t-18 8.5l-49 23q-173 -50 -180 -172z" />
<glyph unicode="&#xa8;" horiz-adv-x="1148" d="M143 1432q0 78 55.5 133t133.5 55t133 -55t55 -133t-55 -133.5t-133 -55.5t-133.5 55.5t-55.5 133.5zM629 1432q0 78 55 133t133 55t133.5 -55t55.5 -133t-55.5 -133.5t-133.5 -55.5t-133 55.5t-55 133.5z" />
<glyph unicode="&#xa9;" horiz-adv-x="1845" d="M47 844q0 178 69.5 340t187 279.5t279.5 187t339 69.5q178 0 340 -69.5t279.5 -187t187 -279.5t69.5 -340q0 -177 -69.5 -339t-187 -279.5t-279.5 -187t-340 -69.5q-177 0 -339 69.5t-279.5 187t-187 279.5t-69.5 339zM281 844q0 -130 51 -248.5t137 -204.5t204.5 -137 t248.5 -51q174 0 322 86t234.5 234t86.5 321q0 174 -86.5 322t-234.5 234.5t-322 86.5q-173 0 -321 -86.5t-234 -234.5t-86 -322zM514 846q0 -115 63.5 -213.5t166 -154.5t217.5 -56q70 0 137 17t99 33l32 17q-15 33 -44.5 92.5t-45.5 92.5q-55 -33 -135 -33 q-84 0 -142.5 60t-58.5 149q0 86 59 146.5t142 60.5q30 0 64.5 -8.5t53.5 -16.5l19 -8l88 182q-8 8 -32.5 22t-91 32t-144.5 18q-114 0 -217 -57t-166.5 -157.5t-63.5 -217.5z" />
<glyph unicode="&#xaa;" horiz-adv-x="1048" d="M143 1374q0 145 92 245.5t232 100.5q127 0 215 -82v62h223v-649h-221v73h-2q-85 -92 -215 -92q-140 0 -232 99.5t-92 242.5zM383 1374q0 -66 42.5 -108.5t109.5 -42.5q66 0 108.5 42.5t42.5 108.5q0 67 -43.5 110.5t-107.5 43.5t-108 -43.5t-44 -110.5z" />
<glyph unicode="&#xab;" horiz-adv-x="1280" d="M68 569l399 512l190 -149l-282 -363l282 -362l-190 -150zM580 569l399 512l190 -149l-282 -363l282 -362l-190 -150z" />
<glyph unicode="&#xad;" horiz-adv-x="905" d="M123 436v314h659v-314h-659z" />
<glyph unicode="&#xae;" horiz-adv-x="1011" d="M47 1260q0 190 134.5 325t322.5 135q126 0 232 -61.5t167.5 -167.5t61.5 -231q0 -189 -134.5 -323t-326.5 -134q-92 0 -176.5 36.5t-146 97.5t-98 145.5t-36.5 177.5zM170 1260q0 -138 98.5 -236t235.5 -98q141 0 239.5 98t98.5 236q0 140 -98.5 238.5t-239.5 98.5 q-137 0 -235.5 -99t-98.5 -238zM365 1051v424h149q62 0 100.5 -32.5t38.5 -92.5q0 -93 -86 -123l150 -176h-127l-129 168v-168h-96zM461 1286h12q22 0 36 2.5t27 15.5t13 37q0 35 -21 46.5t-55 11.5h-12v-113z" />
<glyph unicode="&#xaf;" horiz-adv-x="1122" d="M143 1298v246h836v-246h-836z" />
<glyph unicode="&#xb0;" horiz-adv-x="761" d="M143 1581q0 93 68.5 152t169.5 59t169 -59t68 -152q0 -92 -66.5 -151.5t-170.5 -59.5q-105 0 -171.5 59t-66.5 152zM293 1581q0 -39 24.5 -66.5t63.5 -27.5q38 0 64 27.5t26 66.5q0 40 -26 66t-64 26q-37 0 -62.5 -26.5t-25.5 -65.5z" />
<glyph unicode="&#xb1;" horiz-adv-x="1296" d="M123 0v313h1051v-313h-1051zM123 743v314h369v317h313v-317h369v-314h-369v-317h-313v317h-369z" />
<glyph unicode="&#xb2;" horiz-adv-x="546" d="M66 1051v36q14 11 37 31t81.5 75t103.5 103.5t81.5 103.5t36.5 89q0 14 -3 27.5t-11.5 33t-29 31.5t-51.5 12q-32 0 -61 -31.5t-42 -62.5l-13 -31l-125 62q3 8 8 20.5t25.5 45.5t45.5 58t68.5 45.5t93.5 20.5q65 0 113.5 -16.5t75 -40t42.5 -57t20.5 -60.5t4.5 -57 q0 -43 -24 -90.5t-57.5 -84.5t-67.5 -68t-58 -48l-24 -16h244v-131h-514z" />
<glyph unicode="&#xb3;" horiz-adv-x="518" d="M18 1210l138 66q0 -4 1.5 -10.5t8 -23.5t16.5 -30t30.5 -23.5t47.5 -10.5q42 0 68 23t26 63q0 41 -27 67.5t-67 26.5l-27 -4v96h31q30 0 54 24t24 58q0 30 -24 51t-56 21q-36 0 -60 -20t-30 -40l-6 -20l-115 55q1 6 4.5 15.5t19 33.5t36.5 43t62 34t91 15q93 0 152 -52.5 t59 -135.5q0 -76 -57 -121q82 -50 82 -147q0 -93 -67.5 -153t-170.5 -60q-56 0 -101.5 16.5t-71 39.5t-42.5 46.5t-23 40.5z" />
<glyph unicode="&#xb4;" horiz-adv-x="1159" d="M279 1360l415 360l187 -235l-488 -283z" />
<glyph unicode="&#xb6;" horiz-adv-x="1449" d="M47 1169q0 145 64.5 263t188 188t284.5 70h743v-1690h-211v1477h-125v-1477h-211v627h-196q-120 0 -222.5 44.5t-170.5 119t-106 172.5t-38 206z" />
<glyph unicode="&#xb7;" horiz-adv-x="714" d="M123 551q0 98 68 166.5t165 68.5q98 0 167 -68.5t69 -166.5q0 -97 -69 -165.5t-167 -68.5q-97 0 -165 68.5t-68 165.5z" />
<glyph unicode="&#xb8;" horiz-adv-x="913" d="M143 -432l148 110q3 -4 8.5 -10.5t23.5 -23t36.5 -29t46 -23t53.5 -10.5q53 0 77.5 23.5t24.5 56.5q0 44 -39.5 68t-87.5 24q-33 0 -59 -4.5t-35 -9.5l-10 -4l-21 16l99 301l143 -45l-45 -137q44 0 89 -13t85 -38t65 -66.5t25 -91.5q0 -51 -17 -96t-52.5 -84t-97.5 -61.5 t-144 -22.5q-52 0 -103.5 17.5t-88 42.5t-66 50t-43.5 42z" />
<glyph unicode="&#xb9;" horiz-adv-x="286" d="M18 1427v146l181 117h69v-639h-145v444z" />
<glyph unicode="&#xba;" horiz-adv-x="1067" d="M143 1374q0 150 114 248t280 98q163 0 275 -98t112 -248q0 -149 -109.5 -245.5t-277.5 -96.5q-176 0 -285 96t-109 246zM383 1374q0 -67 42 -109t110 -42q66 0 108.5 42.5t42.5 108.5q0 67 -43.5 110.5t-107.5 43.5t-108 -43.5t-44 -110.5z" />
<glyph unicode="&#xbb;" horiz-adv-x="1280" d="M111 207l282 362l-282 363l190 149l399 -512l-399 -512zM623 207l282 362l-282 363l190 149l399 -512l-399 -512z" />
<glyph unicode="&#xbc;" horiz-adv-x="1794" d="M123 1286v223l278 181h107v-983h-223v686zM207 0l983 1690h242l-983 -1690h-242zM918 207v67l473 709h221v-580h112v-196h-112v-207h-211v207h-483zM1225 403h176v281h-2z" />
<glyph unicode="&#xbd;" horiz-adv-x="1935" d="M123 1286v223l278 181h107v-983h-223v686zM207 0l983 1690h242l-983 -1690h-242zM1094 0v55q20 17 54 45.5t120 109.5t151.5 152t119.5 153t54 132q0 15 -1.5 30t-10 39t-22 41.5t-41 30.5t-64.5 13q-46 0 -89 -46.5t-63 -92.5l-20 -46l-184 89q2 6 6 16t19 39.5t32.5 56 t48 59t65 56t83.5 39.5t102 16q95 0 167 -24.5t110.5 -59.5t62.5 -84.5t30.5 -89t6.5 -82.5q0 -64 -35 -133.5t-85.5 -124t-101 -100t-85.5 -69.5l-35 -25h360v-195h-755z" />
<glyph unicode="&#xbe;" horiz-adv-x="2000" d="M74 938l202 98q1 -6 2.5 -15.5t11.5 -34.5t25 -44.5t46 -35t71 -15.5q62 0 100.5 33.5t38.5 93.5q0 61 -40 100t-99 39l-41 -6v143h47q44 0 79.5 35t35.5 86q0 45 -36 76t-83 31q-34 0 -61 -12.5t-41.5 -30t-24.5 -34.5t-13 -29l-3 -13l-172 84q2 8 7 22.5t28 50.5 t55 63.5t92.5 50t136.5 22.5q137 0 225.5 -78t88.5 -201q0 -115 -84 -180q123 -75 123 -219q0 -138 -101.5 -228t-255.5 -90q-61 0 -113.5 13t-88 34t-64.5 46.5t-46 51t-28.5 46.5t-15.5 34zM414 0l983 1690h241l-983 -1690h-241zM1124 207v67l473 709h222v-580h112v-196 h-112v-207h-211v207h-484zM1432 403h176v281h-2z" />
<glyph unicode="&#xbf;" horiz-adv-x="1220" d="M47 -74q0 -140 81.5 -253.5t214 -174.5t286.5 -61q93 0 173.5 21t134.5 54t98 74.5t69 81t41.5 75.5t22.5 56t6 25l-302 145q-10 -36 -27.5 -70.5t-46 -67.5t-72 -53t-95.5 -20q-70 0 -118 47.5t-48 120.5q0 42 12 71.5t38 50.5t51.5 35t68 35t72.5 40q62 40 79 90 t17 133v223h-338v-115q0 -32 -1.5 -50t-8 -40.5t-22 -38t-40.5 -26.5q-162 -69 -254 -167.5t-92 -240.5zM399 954q0 97 69 165.5t167 68.5q97 0 165 -68.5t68 -165.5q0 -98 -68 -166.5t-165 -68.5q-98 0 -167 68.5t-69 166.5z" />
<glyph unicode="&#xc0;" horiz-adv-x="1605" d="M-57 0l682 1690h356l682 -1690h-414l-125 338h-643l-125 -338h-413zM319 2124l187 235l416 -360l-115 -158zM612 676h381l-188 491h-4z" />
<glyph unicode="&#xc1;" horiz-adv-x="1605" d="M-57 0l682 1690h356l682 -1690h-414l-125 338h-643l-125 -338h-413zM612 676h381l-188 491h-4zM682 1999l416 360l186 -235l-487 -283z" />
<glyph unicode="&#xc2;" horiz-adv-x="1605" d="M-57 0l682 1690h356l682 -1690h-414l-125 338h-643l-125 -338h-413zM350 2028l453 331l452 -331l-139 -187l-313 230l-314 -230zM612 676h381l-188 491h-4z" />
<glyph unicode="&#xc3;" horiz-adv-x="1605" d="M-57 0l682 1690h356l682 -1690h-414l-125 338h-643l-125 -338h-413zM330 1898q1 7 3.5 20t12.5 49.5t22.5 70t35.5 74t50.5 70t67.5 49.5t86 20q36 0 89 -14t89 -28l35 -14q82 -38 156 -38q29 0 52 23.5t31 47.5l9 23h207q-1 -7 -3.5 -20t-12.5 -49.5t-23 -70t-36 -74 t-50 -70t-67.5 -49.5t-86.5 -20q-36 0 -89 14t-88 28l-36 14q-81 39 -155 39q-29 0 -52 -23.5t-31 -47.5l-9 -24h-207zM612 676h381l-188 491h-4z" />
<glyph unicode="&#xc4;" horiz-adv-x="1605" d="M-57 0l682 1690h356l682 -1690h-414l-125 338h-643l-125 -338h-413zM371 2071q0 78 55 133t133 55t133.5 -55t55.5 -133t-55.5 -133.5t-133.5 -55.5t-133 55.5t-55 133.5zM612 676h381l-188 491h-4zM856 2071q0 78 55 133t133 55t133.5 -55t55.5 -133t-55.5 -133.5 t-133.5 -55.5t-133 55.5t-55 133.5z" />
<glyph unicode="&#xc5;" horiz-adv-x="1605" d="M-57 0l682 1690h356l682 -1690h-414l-125 338h-643l-125 -338h-413zM473 2140q0 126 95 208.5t235 82.5q141 0 235.5 -82.5t94.5 -208.5q0 -129 -92.5 -211t-237.5 -82q-147 0 -238.5 81.5t-91.5 211.5zM612 676h381l-188 491h-4zM678 2140q0 -55 35 -93t90 -38 q53 0 89 38t36 93q0 53 -36.5 90t-88.5 37q-51 0 -88 -37.5t-37 -89.5z" />
<glyph unicode="&#xc6;" horiz-adv-x="2007" d="M-10 0l772 1690h1147v-338h-582v-336h557v-338h-557v-340h582v-338h-967v338h-395l-144 -338h-413zM682 676h260v618h-4z" />
<glyph unicode="&#xc7;" horiz-adv-x="1542" d="M47 842q0 142 49 277t136 242.5t201 189t251 125.5t279 44q103 0 198 -16t157 -39t109.5 -45.5t68.5 -38.5l22 -16l-164 -328q-6 4 -16 11t-44 25t-70 32t-91.5 25t-110.5 11q-112 0 -206 -30t-157.5 -79.5t-108 -114t-65 -133.5t-20.5 -138q0 -70 20.5 -139t65 -134 t108 -115t157.5 -80t206 -30q55 0 109.5 11t93 26t69 30.5t45.5 26.5l15 11l164 -328q-8 -6 -22.5 -16.5t-67 -37.5t-111.5 -47.5t-155 -37.5t-199 -17q-68 0 -123 8l-35 -106q44 0 89 -13t85 -38t65 -66.5t25 -91.5q0 -51 -17 -96t-52.5 -84t-97.5 -61.5t-144 -22.5 q-52 0 -103.5 17.5t-88 42.5t-66 50t-44.5 42l-14 18l148 110q3 -4 8.5 -10.5t23.5 -23t36.5 -29t46 -23t53.5 -10.5q53 0 77.5 23.5t24.5 56.5q0 44 -39.5 68t-87.5 24q-33 0 -59 -4.5t-36 -9.5l-9 -4l-21 16l84 258q-181 57 -326.5 177.5t-232 292t-86.5 362.5z" />
<glyph unicode="&#xc8;" horiz-adv-x="1187" d="M111 2124l186 235l416 -360l-115 -158zM123 0v1690h967v-338h-582v-336h557v-338h-557v-340h582v-338h-967z" />
<glyph unicode="&#xc9;" horiz-adv-x="1187" d="M123 0v1690h967v-338h-582v-336h557v-338h-557v-340h582v-338h-967zM352 1999l416 360l186 -235l-487 -283z" />
<glyph unicode="&#xca;" horiz-adv-x="1187" d="M123 0v1690h967v-338h-582v-336h557v-338h-557v-340h582v-338h-967zM141 2028l453 331l453 -331l-140 -187l-313 230l-313 -230z" />
<glyph unicode="&#xcb;" horiz-adv-x="1187" d="M123 0v1690h967v-338h-582v-336h557v-338h-557v-340h582v-338h-967zM162 2071q0 78 55 133t133 55t133.5 -55t55.5 -133t-55.5 -133.5t-133.5 -55.5t-133 55.5t-55 133.5zM647 2071q0 78 55.5 133t133.5 55t133 -55t55 -133t-55 -133.5t-133 -55.5t-133.5 55.5 t-55.5 133.5z" />
<glyph unicode="&#xcc;" horiz-adv-x="630" d="M-168 2124l186 235l416 -360l-115 -158zM123 0v1690h385v-1690h-385z" />
<glyph unicode="&#xcd;" horiz-adv-x="630" d="M115 1999l415 360l187 -235l-488 -283zM123 0v1690h385v-1690h-385z" />
<glyph unicode="&#xce;" horiz-adv-x="630" d="M-137 2028l452 331l453 -331l-139 -187l-314 230l-313 -230zM123 0v1690h385v-1690h-385z" />
<glyph unicode="&#xcf;" horiz-adv-x="630" d="M-115 2071q0 78 55.5 133t133.5 55t133 -55t55 -133t-55 -133.5t-133 -55.5t-133.5 55.5t-55.5 133.5zM123 0v1690h385v-1690h-385zM371 2071q0 78 55 133t133 55t133.5 -55t55.5 -133t-55.5 -133.5t-133.5 -55.5t-133 55.5t-55 133.5z" />
<glyph unicode="&#xd0;" horiz-adv-x="1589" d="M33 688v313h168v689h489q173 0 329 -63.5t271.5 -173.5t183.5 -269t68 -340q-1 -181 -69.5 -339.5t-183.5 -268.5t-271 -173t-328 -63h-489v688h-168zM586 344h59q212 0 346.5 143.5t134.5 358.5q-2 214 -136 357t-345 143h-59v-345h223v-313h-223v-344z" />
<glyph unicode="&#xd1;" horiz-adv-x="1691" d="M123 0v1690h385l672 -1049h4v1049h385v-1690h-385l-672 1049h-4v-1049h-385zM373 1898q1 7 3.5 20t12.5 49.5t22.5 70t35.5 74t50.5 70t67.5 49.5t86 20q36 0 89 -14t88 -28l36 -14q82 -38 156 -38q29 0 52 23.5t32 47.5l8 23h207q-1 -7 -3.5 -20t-12.5 -49.5t-23 -70 t-36 -74t-50 -70t-67.5 -49.5t-86.5 -20q-36 0 -89 14t-89 28l-35 14q-81 39 -155 39q-29 0 -52 -23.5t-32 -47.5l-8 -24h-207z" />
<glyph unicode="&#xd2;" horiz-adv-x="1796" d="M47 846q0 182 68 344.5t183 278.5t272 183.5t329 67.5q173 0 330 -67.5t271 -183.5t181.5 -278.5t67.5 -344.5q0 -183 -65 -345t-177.5 -279t-270.5 -185t-337 -68q-184 0 -343.5 68t-270.5 185t-174.5 279t-63.5 345zM414 2124l186 235l416 -360l-115 -158zM463 846 q0 -78 15 -149.5t48.5 -136.5t83 -113t123.5 -76.5t166 -28.5q111 0 196.5 42.5t136 115.5t76 160.5t25.5 185.5q0 77 -16 149t-51 137t-85 113t-122.5 76.5t-159.5 28.5q-107 0 -192.5 -43t-137.5 -115t-79 -160.5t-27 -185.5z" />
<glyph unicode="&#xd3;" horiz-adv-x="1796" d="M47 846q0 182 68 344.5t183 278.5t272 183.5t329 67.5q173 0 330 -67.5t271 -183.5t181.5 -278.5t67.5 -344.5q0 -183 -65 -345t-177.5 -279t-270.5 -185t-337 -68q-184 0 -343.5 68t-270.5 185t-174.5 279t-63.5 345zM463 846q0 -78 15 -149.5t48.5 -136.5t83 -113 t123.5 -76.5t166 -28.5q111 0 196.5 42.5t136 115.5t76 160.5t25.5 185.5q0 77 -16 149t-51 137t-85 113t-122.5 76.5t-159.5 28.5q-107 0 -192.5 -43t-137.5 -115t-79 -160.5t-27 -185.5zM696 1999l416 360l186 -235l-487 -283z" />
<glyph unicode="&#xd4;" horiz-adv-x="1796" d="M47 846q0 182 68 344.5t183 278.5t272 183.5t329 67.5q173 0 330 -67.5t271 -183.5t181.5 -278.5t67.5 -344.5q0 -183 -65 -345t-177.5 -279t-270.5 -185t-337 -68q-184 0 -343.5 68t-270.5 185t-174.5 279t-63.5 345zM444 2028l453 331l453 -331l-140 -187l-313 230 l-313 -230zM463 846q0 -78 15 -149.5t48.5 -136.5t83 -113t123.5 -76.5t166 -28.5q111 0 196.5 42.5t136 115.5t76 160.5t25.5 185.5q0 77 -16 149t-51 137t-85 113t-122.5 76.5t-159.5 28.5q-107 0 -192.5 -43t-137.5 -115t-79 -160.5t-27 -185.5z" />
<glyph unicode="&#xd5;" horiz-adv-x="1796" d="M47 846q0 182 68 344.5t183 278.5t272 183.5t329 67.5q173 0 330 -67.5t271 -183.5t181.5 -278.5t67.5 -344.5q0 -183 -65 -345t-177.5 -279t-270.5 -185t-337 -68q-184 0 -343.5 68t-270.5 185t-174.5 279t-63.5 345zM424 1898q1 7 3.5 20t12.5 49.5t22.5 70t35.5 74 t50.5 70t67.5 49.5t86 20q36 0 89 -14t89 -28l35 -14q82 -38 156 -38q29 0 52 23.5t31 47.5l9 23h207q-1 -7 -3.5 -20t-12.5 -49.5t-22.5 -70t-35.5 -74t-50.5 -70t-67.5 -49.5t-86 -20q-36 0 -89 14t-89 28l-35 14q-82 39 -156 39q-29 0 -52 -23.5t-31 -47.5l-9 -24h-207z M463 846q0 -78 15 -149.5t48.5 -136.5t83 -113t123.5 -76.5t166 -28.5q111 0 196.5 42.5t136 115.5t76 160.5t25.5 185.5q0 77 -16 149t-51 137t-85 113t-122.5 76.5t-159.5 28.5q-107 0 -192.5 -43t-137.5 -115t-79 -160.5t-27 -185.5z" />
<glyph unicode="&#xd6;" horiz-adv-x="1796" d="M47 846q0 182 68 344.5t183 278.5t272 183.5t329 67.5q173 0 330 -67.5t271 -183.5t181.5 -278.5t67.5 -344.5q0 -183 -65 -345t-177.5 -279t-270.5 -185t-337 -68q-184 0 -343.5 68t-270.5 185t-174.5 279t-63.5 345zM463 846q0 -78 15 -149.5t48.5 -136.5t83 -113 t123.5 -76.5t166 -28.5q111 0 196.5 42.5t136 115.5t76 160.5t25.5 185.5q0 77 -16 149t-51 137t-85 113t-122.5 76.5t-159.5 28.5q-107 0 -192.5 -43t-137.5 -115t-79 -160.5t-27 -185.5zM467 2071q0 78 55 133t133 55t133.5 -55t55.5 -133t-55.5 -133.5t-133.5 -55.5 t-133 55.5t-55 133.5zM952 2071q0 78 55.5 133t133.5 55t133 -55t55 -133t-55 -133.5t-133 -55.5t-133.5 55.5t-55.5 133.5z" />
<glyph unicode="&#xd7;" horiz-adv-x="1296" d="M115 539l311 311l-311 313l221 219l311 -311l314 311l221 -221l-314 -313l314 -311l-219 -222l-314 314l-313 -314z" />
<glyph unicode="&#xd8;" horiz-adv-x="1796" d="M47 846q0 182 68 344.5t183 278.5t272 183.5t329 67.5q226 0 420 -112l111 139l229 -176l-119 -150q99 -117 154 -264t55 -311q0 -183 -65 -345t-177.5 -279t-270.5 -185t-337 -68q-236 0 -428 109l-104 -133l-230 176l113 141q-98 117 -150.5 266.5t-52.5 317.5z M463 846q0 -145 47 -256l571 721q-80 39 -182 39q-107 0 -192.5 -43t-137.5 -115t-79 -160.5t-27 -185.5zM711 379q78 -37 188 -37q111 0 196.5 42.5t136 115.5t76 160.5t25.5 185.5q0 138 -51 252z" />
<glyph unicode="&#xd9;" horiz-adv-x="1523" d="M102 600q0 -312 168 -471.5t492 -159.5t491.5 159.5t167.5 471.5v1090h-385v-977q0 -140 -30 -220.5t-88 -112.5t-156 -32t-156 32t-88.5 112.5t-30.5 220.5v977h-385v-1090zM279 2124l186 235l416 -360l-115 -158z" />
<glyph unicode="&#xda;" horiz-adv-x="1523" d="M102 600q0 -312 168 -471.5t492 -159.5t491.5 159.5t167.5 471.5v1090h-385v-977q0 -140 -30 -220.5t-88 -112.5t-156 -32t-156 32t-88.5 112.5t-30.5 220.5v977h-385v-1090zM520 1999l416 360l186 -235l-487 -283z" />
<glyph unicode="&#xdb;" horiz-adv-x="1523" d="M102 600q0 -312 168 -471.5t492 -159.5t491.5 159.5t167.5 471.5v1090h-385v-977q0 -140 -30 -220.5t-88 -112.5t-156 -32t-156 32t-88.5 112.5t-30.5 220.5v977h-385v-1090zM309 2028l453 331l452 -331l-139 -187l-313 230l-313 -230z" />
<glyph unicode="&#xdc;" horiz-adv-x="1523" d="M102 600q0 -312 168 -471.5t492 -159.5t491.5 159.5t167.5 471.5v1090h-385v-977q0 -140 -30 -220.5t-88 -112.5t-156 -32t-156 32t-88.5 112.5t-30.5 220.5v977h-385v-1090zM330 2071q0 78 55 133t133 55t133.5 -55t55.5 -133t-55.5 -133.5t-133.5 -55.5t-133 55.5 t-55 133.5zM815 2071q0 78 55.5 133t133.5 55t133 -55t55 -133t-55 -133.5t-133 -55.5t-133.5 55.5t-55.5 133.5z" />
<glyph unicode="&#xdd;" horiz-adv-x="1507" d="M-61 1690h462l353 -541l352 541h463l-623 -932v-758h-385v758zM514 1999l416 360l186 -235l-487 -283z" />
<glyph unicode="&#xde;" horiz-adv-x="1363" d="M123 0v1690h385v-314h231q168 0 296.5 -56t205 -175t76.5 -289q0 -128 -44 -231.5t-121.5 -171t-183 -104t-229.5 -36.5h-231v-313h-385zM508 621h108q60 0 109 11.5t90 36t63.5 69t22.5 106.5t-22.5 107t-63.5 70t-90 36.5t-109 11.5h-108v-448z" />
<glyph unicode="&#xdf;" horiz-adv-x="1343" d="M49 666v276h135v332q0 149 72.5 269t190.5 184.5t255 64.5q234 -4 381.5 -146t147.5 -356q0 -233 -205 -348q128 -59 199 -164.5t71 -255.5q0 -160 -80.5 -286.5t-224 -196.5t-323.5 -70v332q106 0 174.5 66.5t68.5 173.5q0 116 -64 186t-179 70v276q91 0 156 61t65 156 q0 93 -49 145t-138 52q-58 0 -106.5 -49.5t-48.5 -134.5v-1303h-363v666h-135z" />
<glyph unicode="&#xe0;" d="M47 524q0 -114 39 -216t106.5 -177t165.5 -118.5t211 -43.5q103 0 193 41t151 109h5v-119h358v1051h-363v-101q-134 131 -344 131q-113 0 -211 -44t-165.5 -119t-106.5 -177.5t-39 -216.5zM215 1485l186 235l416 -360l-115 -158zM432 524q0 108 71 178t175 70 q103 0 173.5 -70.5t70.5 -177.5t-69 -176t-175 -69q-110 0 -178 68.5t-68 176.5z" />
<glyph unicode="&#xe1;" d="M47 524q0 -114 39 -216t106.5 -177t165.5 -118.5t211 -43.5q103 0 193 41t151 109h5v-119h358v1051h-363v-101q-134 131 -344 131q-113 0 -211 -44t-165.5 -119t-106.5 -177.5t-39 -216.5zM432 524q0 108 71 178t175 70q103 0 173.5 -70.5t70.5 -177.5t-69 -176t-175 -69 q-110 0 -178 68.5t-68 176.5zM580 1360l415 360l187 -235l-488 -283z" />
<glyph unicode="&#xe2;" d="M47 524q0 -114 39 -216t106.5 -177t165.5 -118.5t211 -43.5q103 0 193 41t151 109h5v-119h358v1051h-363v-101q-134 131 -344 131q-113 0 -211 -44t-165.5 -119t-106.5 -177.5t-39 -216.5zM246 1389l452 331l453 -331l-139 -187l-314 230l-313 -230zM432 524 q0 108 71 178t175 70q103 0 173.5 -70.5t70.5 -177.5t-69 -176t-175 -69q-110 0 -178 68.5t-68 176.5z" />
<glyph unicode="&#xe3;" d="M47 524q0 -114 39 -216t106.5 -177t165.5 -118.5t211 -43.5q103 0 193 41t151 109h5v-119h358v1051h-363v-101q-134 131 -344 131q-113 0 -211 -44t-165.5 -119t-106.5 -177.5t-39 -216.5zM225 1260q1 7 3.5 20t12.5 49.5t23 69.5t36 74t50 70t67.5 49t86.5 20 q36 0 89 -14t89 -28l35 -14q81 -38 155 -38q29 0 52.5 23.5t31.5 46.5l9 24h206q-1 -7 -3.5 -20t-12.5 -49.5t-22.5 -69.5t-35.5 -74t-50.5 -70t-67.5 -49t-86 -20q-36 0 -89 14t-88 28l-36 13q-82 39 -156 39q-29 0 -52 -23.5t-32 -46.5l-8 -24h-207zM432 524q0 108 71 178 t175 70q103 0 173.5 -70.5t70.5 -177.5t-69 -176t-175 -69q-110 0 -178 68.5t-68 176.5z" />
<glyph unicode="&#xe4;" d="M47 524q0 -114 39 -216t106.5 -177t165.5 -118.5t211 -43.5q103 0 193 41t151 109h5v-119h358v1051h-363v-101q-134 131 -344 131q-113 0 -211 -44t-165.5 -119t-106.5 -177.5t-39 -216.5zM268 1432q0 78 55.5 133t133.5 55t133 -55t55 -133t-55 -133.5t-133 -55.5 t-133.5 55.5t-55.5 133.5zM432 524q0 108 71 178t175 70q103 0 173.5 -70.5t70.5 -177.5t-69 -176t-175 -69q-110 0 -178 68.5t-68 176.5zM754 1432q0 78 55 133t133 55t133 -55t55 -133t-55 -133.5t-133 -55.5t-133 55.5t-55 133.5z" />
<glyph unicode="&#xe5;" d="M47 524q0 114 39 216.5t106.5 177.5t165.5 119t211 44q210 0 344 -131v101h363v-1051h-358v119h-5q-61 -68 -151 -109t-193 -41q-113 0 -211 43.5t-165.5 118.5t-106.5 177t-39 216zM369 1501q0 126 95 208.5t234 82.5q141 0 235.5 -82.5t94.5 -208.5q0 -129 -92.5 -211 t-237.5 -82q-147 0 -238 81.5t-91 211.5zM432 524q0 -108 68 -176.5t178 -68.5q106 0 175 69t69 176t-70.5 177.5t-173.5 70.5q-104 0 -175 -70t-71 -178zM573 1501q0 -55 35 -93t90 -38q53 0 89 38t36 93q0 53 -36.5 90t-88.5 37q-51 0 -88 -37.5t-37 -89.5z" />
<glyph unicode="&#xe6;" horiz-adv-x="1931" d="M47 279q0 146 100.5 241.5t274.5 95.5q208 0 321 -79v75q0 81 -71.5 131t-157.5 50q-84 0 -155 -15.5t-101 -31.5l-29 -15l-114 248q5 4 15.5 11t47.5 24.5t79.5 31t112 24.5t144.5 11q111 0 229 -31t205 -100q160 131 373 131q121 0 223 -35.5t178 -104t119 -175.5 t43 -242q0 -37 -2 -49h-762q0 -47 15 -85t38.5 -62t54.5 -40t61 -23t59 -7q88 0 139 23.5t117 93.5l262 -131q-164 -275 -545 -275q-128 0 -241.5 51t-194.5 142q-5 -8 -15.5 -21t-50 -46t-86.5 -58.5t-127 -46.5t-170 -21q-168 0 -278.5 85t-110.5 225zM408 309 q0 -55 44.5 -89t116.5 -34q70 0 122 38t52 85q0 46 -51.5 80.5t-122.5 34.5q-73 0 -117 -30t-44 -85zM1130 676h400q-12 82 -65 126t-134 44q-91 0 -143.5 -47.5t-57.5 -122.5z" />
<glyph unicode="&#xe7;" horiz-adv-x="1005" d="M47 522q0 151 81.5 280.5t215.5 204t285 74.5q65 0 125.5 -10t100 -24.5t69.5 -29t44 -24.5l13 -10l-123 -248q-8 5 -22 13.5t-60 22t-94 13.5q-103 0 -176.5 -75.5t-73.5 -182.5q0 -108 73.5 -184t176.5 -76q48 0 92 12t64 24l20 13l123 -252q-5 -4 -14.5 -10 t-42.5 -22.5t-70.5 -29t-98.5 -22.5t-126 -10q-25 0 -37 2l-33 -100q44 0 89 -13t85 -38t65 -66.5t25 -91.5q0 -51 -17 -96t-52.5 -84t-97.5 -61.5t-144 -22.5q-52 0 -103 17.5t-87.5 42.5t-66 50t-43.5 42l-15 18l147 110q3 -4 8.5 -10.5t23.5 -23t36.5 -29t46 -23 t53.5 -10.5q53 0 77.5 23.5t24.5 56.5q0 44 -39.5 68t-87.5 24q-33 0 -59 -4.5t-36 -9.5l-9 -4l-21 16l80 248q-171 57 -283 200.5t-112 321.5z" />
<glyph unicode="&#xe8;" horiz-adv-x="1234" d="M47 524q0 151 78 279.5t211 203t289 74.5q121 0 223 -35.5t178 -104t119 -175.5t43 -242q0 -37 -2 -49h-762q0 -58 22 -102t57.5 -68t73 -35.5t74.5 -11.5q88 0 139 23.5t117 93.5l262 -131q-164 -275 -544 -275q-156 0 -289 74.5t-211 202.5t-78 278zM133 1485l186 235 l416 -360l-114 -158zM434 676h400q-12 82 -65 126t-134 44q-91 0 -143.5 -47.5t-57.5 -122.5z" />
<glyph unicode="&#xe9;" horiz-adv-x="1234" d="M47 524q0 151 78 279.5t211 203t289 74.5q121 0 223 -35.5t178 -104t119 -175.5t43 -242q0 -37 -2 -49h-762q0 -58 22 -102t57.5 -68t73 -35.5t74.5 -11.5q88 0 139 23.5t117 93.5l262 -131q-164 -275 -544 -275q-156 0 -289 74.5t-211 202.5t-78 278zM434 676h400 q-12 82 -65 126t-134 44q-91 0 -143.5 -47.5t-57.5 -122.5zM498 1360l415 360l187 -235l-488 -283z" />
<glyph unicode="&#xea;" horiz-adv-x="1234" d="M47 524q0 151 78 279.5t211 203t289 74.5q121 0 223 -35.5t178 -104t119 -175.5t43 -242q0 -37 -2 -49h-762q0 -58 22 -102t57.5 -68t73 -35.5t74.5 -11.5q88 0 139 23.5t117 93.5l262 -131q-164 -275 -544 -275q-156 0 -289 74.5t-211 202.5t-78 278zM164 1389l452 331 l453 -331l-139 -187l-314 230l-313 -230zM434 676h400q-12 82 -65 126t-134 44q-91 0 -143.5 -47.5t-57.5 -122.5z" />
<glyph unicode="&#xeb;" horiz-adv-x="1234" d="M47 524q0 151 78 279.5t211 203t289 74.5q121 0 223 -35.5t178 -104t119 -175.5t43 -242q0 -37 -2 -49h-762q0 -58 22 -102t57.5 -68t73 -35.5t74.5 -11.5q88 0 139 23.5t117 93.5l262 -131q-164 -275 -544 -275q-156 0 -289 74.5t-211 202.5t-78 278zM186 1432 q0 78 55.5 133t133.5 55t133 -55t55 -133t-55 -133.5t-133 -55.5t-133.5 55.5t-55.5 133.5zM434 676h400q-12 82 -65 126t-134 44q-91 0 -143.5 -47.5t-57.5 -122.5zM672 1432q0 78 55 133t133 55t133.5 -55t55.5 -133t-55.5 -133.5t-133.5 -55.5t-133 55.5t-55 133.5z" />
<glyph unicode="&#xec;" horiz-adv-x="608" d="M-178 1485l186 235l416 -360l-115 -158zM123 0h362v1051h-362v-1051z" />
<glyph unicode="&#xed;" horiz-adv-x="608" d="M123 0h362v1051h-362v-1051zM184 1360l416 360l186 -235l-487 -283z" />
<glyph unicode="&#xee;" horiz-adv-x="608" d="M-147 1389l452 331l453 -331l-140 -187l-313 230l-313 -230zM123 0h362v1051h-362v-1051z" />
<glyph unicode="&#xef;" horiz-adv-x="608" d="M-127 1432q0 78 55 133t133 55t133.5 -55t55.5 -133t-55.5 -133.5t-133.5 -55.5t-133 55.5t-55 133.5zM123 0h362v1051h-362v-1051zM358 1432q0 78 55.5 133t133.5 55t133 -55t55 -133t-55 -133.5t-133 -55.5t-133.5 55.5t-55.5 133.5z" />
<glyph unicode="&#xf0;" horiz-adv-x="1400" d="M84 524q0 99 33 189.5t88 156t124 114t142 73t141 24.5q128 0 185 -32q-92 130 -240 235l-170 -168l-158 158l127 127q-57 27 -114 48t-85 29l-28 7l86 307q20 -4 54.5 -13.5t135.5 -47.5t195 -86l150 147l155 -160l-106 -106q88 -62 162.5 -130.5t147 -162.5 t122.5 -197.5t81 -235.5t31 -276q0 -242 -177 -398.5t-449 -156.5q-283 0 -458 155.5t-175 399.5zM469 524q0 -108 68 -176.5t178 -68.5q106 0 174.5 69t68.5 176v11q-4 103 -74 170t-169 67q-104 0 -175 -70t-71 -178z" />
<glyph unicode="&#xf1;" horiz-adv-x="1353" d="M123 0h362v594q0 78 66.5 141.5t148.5 63.5q84 0 136.5 -61.5t52.5 -143.5v-594h362v692q0 84 -29.5 152.5t-76.5 111.5t-109 72t-123 41t-122 12q-161 0 -302 -141h-4v111h-362v-1051zM203 1260q1 7 3.5 20t12.5 49.5t22.5 69.5t35.5 74t50.5 70t67.5 49t86 20 q36 0 89 -14t88 -28l36 -14q82 -38 156 -38q29 0 52 23.5t32 46.5l8 24h207q-1 -7 -3.5 -20t-12.5 -49.5t-23 -69.5t-36 -74t-50 -70t-67.5 -49t-86.5 -20q-36 0 -89 14t-89 28l-35 13q-81 39 -155 39q-29 0 -52 -23.5t-32 -46.5l-8 -24h-207z" />
<glyph unicode="&#xf2;" horiz-adv-x="1353" d="M47 524q0 -244 175 -399.5t458 -155.5q272 0 449.5 156.5t177.5 398.5q0 160 -84 288.5t-227 198.5t-316 70q-131 0 -248 -41.5t-201.5 -114t-134 -176.5t-49.5 -225zM193 1485l186 235l416 -360l-115 -158zM432 524q0 108 71 178t175 70q103 0 173.5 -70.5t70.5 -177.5 t-69 -176t-175 -69q-110 0 -178 68.5t-68 176.5z" />
<glyph unicode="&#xf3;" horiz-adv-x="1353" d="M47 524q0 -244 175 -399.5t458 -155.5q272 0 449.5 156.5t177.5 398.5q0 160 -84 288.5t-227 198.5t-316 70q-131 0 -248 -41.5t-201.5 -114t-134 -176.5t-49.5 -225zM432 524q0 108 71 178t175 70q103 0 173.5 -70.5t70.5 -177.5t-69 -176t-175 -69q-110 0 -178 68.5 t-68 176.5zM475 1360l416 360l186 -235l-487 -283z" />
<glyph unicode="&#xf4;" horiz-adv-x="1353" d="M47 524q0 -244 175 -399.5t458 -155.5q272 0 449.5 156.5t177.5 398.5q0 160 -84 288.5t-227 198.5t-316 70q-131 0 -248 -41.5t-201.5 -114t-134 -176.5t-49.5 -225zM223 1389l453 331l452 -331l-139 -187l-313 230l-314 -230zM432 524q0 108 71 178t175 70 q103 0 173.5 -70.5t70.5 -177.5t-69 -176t-175 -69q-110 0 -178 68.5t-68 176.5z" />
<glyph unicode="&#xf5;" horiz-adv-x="1353" d="M47 524q0 -244 175 -399.5t458 -155.5q272 0 449.5 156.5t177.5 398.5q0 160 -84 288.5t-227 198.5t-316 70q-131 0 -248 -41.5t-201.5 -114t-134 -176.5t-49.5 -225zM203 1260q1 7 3.5 20t12.5 49.5t22.5 69.5t35.5 74t50.5 70t67.5 49t86 20q36 0 89 -14t88 -28l36 -14 q82 -38 156 -38q29 0 52 23.5t32 46.5l8 24h207q-1 -7 -3.5 -20t-12.5 -49.5t-23 -69.5t-36 -74t-50 -70t-67.5 -49t-86.5 -20q-36 0 -89 14t-89 28l-35 13q-81 39 -155 39q-29 0 -52 -23.5t-32 -46.5l-8 -24h-207zM432 524q0 108 71 178t175 70q103 0 173.5 -70.5 t70.5 -177.5t-69 -176t-175 -69q-110 0 -178 68.5t-68 176.5z" />
<glyph unicode="&#xf6;" horiz-adv-x="1353" d="M47 524q0 -244 175 -399.5t458 -155.5q272 0 449.5 156.5t177.5 398.5q0 160 -84 288.5t-227 198.5t-316 70q-131 0 -248 -41.5t-201.5 -114t-134 -176.5t-49.5 -225zM246 1432q0 78 55 133t133 55t133.5 -55t55.5 -133t-55.5 -133.5t-133.5 -55.5t-133 55.5t-55 133.5z M432 524q0 108 71 178t175 70q103 0 173.5 -70.5t70.5 -177.5t-69 -176t-175 -69q-110 0 -178 68.5t-68 176.5zM731 1432q0 78 55.5 133t133.5 55t133 -55t55 -133t-55 -133.5t-133 -55.5t-133.5 55.5t-55.5 133.5z" />
<glyph unicode="&#xf7;" horiz-adv-x="1296" d="M123 692v314h1051v-314h-1051zM481 387q0 70 48 119t116 49q71 0 119.5 -48.5t48.5 -119.5q0 -68 -49 -116t-119 -48q-67 0 -115.5 48.5t-48.5 115.5zM481 1307q0 70 48 119t116 49q71 0 119.5 -48.5t48.5 -119.5q0 -68 -49 -116t-119 -48q-67 0 -115.5 48.5t-48.5 115.5 z" />
<glyph unicode="&#xf8;" horiz-adv-x="1353" d="M-14 57l170 138q-109 140 -109 329q0 121 49.5 225t134 176.5t201.5 114t248 41.5q237 0 412 -129l184 150l92 -111l-174 -141q113 -138 113 -326q0 -242 -177.5 -398.5t-449.5 -156.5q-254 0 -420 125l-182 -147zM432 524q0 -53 14 -94l371 299q-62 43 -139 43 q-104 0 -175 -70t-71 -178zM537 317q59 -38 141 -38q106 0 175 69t69 176q0 43 -17 92z" />
<glyph unicode="&#xf9;" horiz-adv-x="1343" d="M102 463q0 -262 136.5 -378t433.5 -116t433 116t136 378v588h-362v-500q0 -156 -47 -221.5t-160 -65.5t-160 65.5t-47 221.5v500h-363v-588zM188 1485l187 235l416 -360l-115 -158z" />
<glyph unicode="&#xfa;" horiz-adv-x="1343" d="M102 463q0 -262 136.5 -378t433.5 -116t433 116t136 378v588h-362v-500q0 -156 -47 -221.5t-160 -65.5t-160 65.5t-47 221.5v500h-363v-588zM551 1360l416 360l186 -235l-487 -283z" />
<glyph unicode="&#xfb;" horiz-adv-x="1343" d="M102 463q0 -262 136.5 -378t433.5 -116t433 116t136 378v588h-362v-500q0 -156 -47 -221.5t-160 -65.5t-160 65.5t-47 221.5v500h-363v-588zM219 1389l453 331l452 -331l-139 -187l-313 230l-314 -230z" />
<glyph unicode="&#xfc;" horiz-adv-x="1343" d="M102 463q0 -262 136.5 -378t433.5 -116t433 116t136 378v588h-362v-500q0 -156 -47 -221.5t-160 -65.5t-160 65.5t-47 221.5v500h-363v-588zM240 1432q0 78 55 133t133 55t133 -55t55 -133t-55 -133.5t-133 -55.5t-133 55.5t-55 133.5zM725 1432q0 78 55 133t133 55 t133.5 -55t55.5 -133t-55.5 -133.5t-133.5 -55.5t-133 55.5t-55 133.5z" />
<glyph unicode="&#xfd;" horiz-adv-x="1296" d="M-41 1051h418l293 -539l250 539h417l-825 -1583h-418l363 696zM449 1360l415 360l187 -235l-488 -283z" />
<glyph unicode="&#xfe;" d="M123 -532v2293h362v-811q134 131 344 131q150 0 270.5 -75t186.5 -202t66 -280t-66 -279.5t-186.5 -201t-270.5 -74.5q-103 0 -193 41t-151 109h-4v-651h-358zM477 524q0 -107 69 -176t175 -69q110 0 178 68.5t68 176.5t-71 178t-175 70q-103 0 -173.5 -70.5 t-70.5 -177.5z" />
<glyph unicode="&#xff;" horiz-adv-x="1296" d="M-41 1051h418l293 -539l250 539h417l-825 -1583h-418l363 696zM217 1432q0 78 55.5 133t133.5 55t133 -55t55 -133t-55 -133.5t-133 -55.5t-133.5 55.5t-55.5 133.5zM702 1432q0 78 55.5 133t133.5 55t133 -55t55 -133t-55 -133.5t-133 -55.5t-133.5 55.5t-55.5 133.5z " />
<glyph unicode="&#x152;" horiz-adv-x="2068" d="M47 844q0 181 68 340t183.5 269t271.5 173.5t329 63.5h1071v-338h-581v-336h557v-338h-557v-340h581v-338h-1071q-173 0 -329 63t-271.5 173t-183.5 268.5t-68 339.5zM463 846q0 -215 134.5 -358.5t346.5 -143.5h60v1002h-60q-212 0 -346.5 -143t-134.5 -357z" />
<glyph unicode="&#x153;" horiz-adv-x="2091" d="M47 524q0 121 47.5 225t130 176.5t197.5 114t246 41.5q71 0 137.5 -17.5t111.5 -42t80 -49t51 -42.5l17 -17q6 7 18 18t52.5 40t85 51.5t115.5 40.5t145 18q121 0 223 -35.5t178 -104t119 -175.5t43 -242q0 -37 -2 -49h-762q0 -58 22 -102t57.5 -68t73 -35.5t74.5 -11.5 q88 0 139 23.5t117 93.5l262 -131q-164 -275 -544 -275q-69 0 -137 17t-115.5 41.5t-85.5 49t-57 41.5l-19 17q-6 -7 -17 -18t-49 -39.5t-80.5 -50.5t-111 -40t-141.5 -18q-281 0 -451 154.5t-170 400.5zM426 524q0 -108 68 -176.5t178 -68.5q106 0 174.5 69t68.5 176 q0 108 -70.5 178t-172.5 70q-104 0 -175 -70t-71 -178zM1290 676h400q-12 82 -65 126t-134 44q-91 0 -143.5 -47.5t-57.5 -122.5z" />
<glyph unicode="&#x178;" horiz-adv-x="1507" d="M-61 1690h462l353 -541l352 541h463l-623 -932v-758h-385v758zM322 2071q0 78 55 133t133 55t133 -55t55 -133t-55 -133.5t-133 -55.5t-133 55.5t-55 133.5zM807 2071q0 78 55 133t133 55t133.5 -55t55.5 -133t-55.5 -133.5t-133.5 -55.5t-133 55.5t-55 133.5z" />
<glyph unicode="&#x2c6;" horiz-adv-x="1191" d="M143 1389l453 331l453 -331l-140 -187l-313 230l-313 -230z" />
<glyph unicode="&#x2dc;" horiz-adv-x="1232" d="M143 1260q1 7 3.5 20t12.5 49.5t23 69.5t36 74t50 70t67.5 49t86.5 20q36 0 89 -14t89 -28l35 -14q82 -38 156 -38q29 0 52 23.5t31 46.5l9 24h207q-1 -7 -3.5 -20t-12.5 -49.5t-23 -69.5t-36 -74t-50 -70t-67.5 -49t-86.5 -20q-36 0 -89 14t-88 28l-36 13 q-82 39 -156 39q-29 0 -52 -23.5t-32 -46.5l-8 -24h-207z" />
<glyph unicode="&#x2000;" horiz-adv-x="1215" />
<glyph unicode="&#x2001;" horiz-adv-x="2431" />
<glyph unicode="&#x2002;" horiz-adv-x="1215" />
<glyph unicode="&#x2003;" horiz-adv-x="2431" />
<glyph unicode="&#x2004;" horiz-adv-x="810" />
<glyph unicode="&#x2005;" horiz-adv-x="607" />
<glyph unicode="&#x2006;" horiz-adv-x="405" />
<glyph unicode="&#x2007;" horiz-adv-x="405" />
<glyph unicode="&#x2008;" horiz-adv-x="303" />
<glyph unicode="&#x2009;" horiz-adv-x="486" />
<glyph unicode="&#x200a;" horiz-adv-x="135" />
<glyph unicode="&#x2010;" horiz-adv-x="905" d="M123 436v314h659v-314h-659z" />
<glyph unicode="&#x2011;" horiz-adv-x="905" d="M123 436v314h659v-314h-659z" />
<glyph unicode="&#x2012;" horiz-adv-x="905" d="M123 436v314h659v-314h-659z" />
<glyph unicode="&#x2013;" horiz-adv-x="1105" d="M0 436v314h1106v-314h-1106z" />
<glyph unicode="&#x2014;" horiz-adv-x="2211" d="M0 436v314h2212v-314h-2212z" />
<glyph unicode="&#x2018;" horiz-adv-x="595" d="M47 1190q0 271 311 530l97 -75q-5 -4 -12.5 -12.5t-28.5 -35t-39 -55.5t-36 -72.5t-26 -87.5q70 -18 115 -70t45 -122q0 -89 -61.5 -152t-149.5 -63q-89 0 -152 63t-63 152z" />
<glyph unicode="&#x2019;" horiz-adv-x="595" d="M123 1505q0 89 61.5 152t149.5 63q89 0 152 -63t63 -152q0 -271 -311 -530l-97 76q5 4 12.5 12t28.5 35t39 55.5t36 72t26 87.5q-70 18 -115 70t-45 122z" />
<glyph unicode="&#x201a;" horiz-adv-x="595" d="M123 223q0 89 61.5 152t149.5 63q89 0 152 -63t63 -152q0 -271 -311 -530l-97 76q5 4 12.5 12t28.5 35t39 55.5t36 72t26 87.5q-70 18 -115 70t-45 122z" />
<glyph unicode="&#x201c;" horiz-adv-x="1116" d="M47 1190q0 271 311 530l97 -75q-5 -4 -12.5 -12.5t-28.5 -35t-39 -55.5t-36 -72.5t-26 -87.5q70 -18 115 -70t45 -122q0 -89 -61.5 -152t-149.5 -63q-89 0 -152 63t-63 152zM569 1190q0 275 310 530l96 -75q-5 -4 -12.5 -12.5t-29 -35t-39 -55.5t-36 -72.5t-27.5 -87.5 q71 -18 116.5 -70t45.5 -122q0 -89 -62.5 -152t-150.5 -63q-89 0 -150 62.5t-61 152.5z" />
<glyph unicode="&#x201d;" horiz-adv-x="1116" d="M123 1505q0 89 62.5 152t150.5 63q89 0 150 -62.5t61 -152.5q0 -276 -309 -530l-97 76q5 4 12.5 12t29 35t39 55.5t36 72t27.5 87.5q-71 18 -116.5 70t-45.5 122zM643 1505q0 89 61.5 152t149.5 63q89 0 152 -63t63 -152q0 -271 -311 -530l-96 76q5 4 12.5 12t28.5 35 t38.5 55.5t35.5 72t26 87.5q-70 18 -115 70t-45 122z" />
<glyph unicode="&#x201e;" horiz-adv-x="1116" d="M123 223q0 89 62.5 152t150.5 63q89 0 150 -62.5t61 -152.5q0 -276 -309 -530l-97 76q5 4 12.5 12t29 35t39 55.5t36 72t27.5 87.5q-71 18 -116.5 70t-45.5 122zM643 223q0 89 61.5 152t149.5 63q89 0 152 -63t63 -152q0 -271 -311 -530l-96 76q5 4 12.5 12t28.5 35 t38.5 55.5t35.5 72t26 87.5q-70 18 -115 70t-45 122z" />
<glyph unicode="&#x2022;" horiz-adv-x="1466" d="M332 729q0 167 116.5 285.5t282.5 118.5q167 0 285.5 -118.5t118.5 -285.5q0 -166 -118.5 -282.5t-285.5 -116.5q-166 0 -282.5 116.5t-116.5 282.5z" />
<glyph unicode="&#x2026;" horiz-adv-x="2144" d="M123 203q0 98 68 166.5t165 68.5q98 0 167 -68.5t69 -166.5q0 -97 -69 -165.5t-167 -68.5q-97 0 -165 68.5t-68 165.5zM838 203q0 98 68 166.5t165 68.5q98 0 167 -68.5t69 -166.5q0 -97 -69 -165.5t-167 -68.5q-97 0 -165 68.5t-68 165.5zM1552 203q0 98 68.5 166.5 t165.5 68.5q98 0 166.5 -68.5t68.5 -166.5q0 -97 -68.5 -165.5t-166.5 -68.5q-97 0 -165.5 68.5t-68.5 165.5z" />
<glyph unicode="&#x202f;" horiz-adv-x="486" />
<glyph unicode="&#x2039;" horiz-adv-x="768" d="M68 569l399 512l190 -149l-282 -363l282 -362l-190 -150z" />
<glyph unicode="&#x203a;" horiz-adv-x="768" d="M111 207l282 362l-282 363l190 149l399 -512l-399 -512z" />
<glyph unicode="&#x205f;" horiz-adv-x="607" />
<glyph unicode="&#x20ac;" horiz-adv-x="1701" d="M47 561v221h148q-2 18 -2 60q0 40 2 63h-148v221h197q64 171 195 306t306 211.5t363 76.5q103 0 198 -16t157 -39t109.5 -45.5t69.5 -38.5l21 -16l-168 -336q-6 4 -16 11t-44 25t-70 32t-91.5 25t-110.5 11q-160 0 -276 -56t-187 -151h623v-221h-711q-4 -20 -4 -57 q0 -20 4 -66h711v-221h-621q71 -94 186.5 -149.5t274.5 -55.5q55 0 109.5 11t93 26t69 30.5t45.5 26.5l15 11l168 -336q-8 -6 -22.5 -16.5t-67 -37.5t-111.5 -47.5t-155 -37.5t-199 -17q-284 0 -524.5 166t-339.5 426h-197z" />
<glyph unicode="&#x2122;" horiz-adv-x="1052" d="M35 1583v107h375v-107h-125v-422h-125v422h-125zM428 1161l47 529h129l117 -304l117 304h129l49 -529h-123l-25 314h-2l-108 -310h-72l-108 310h-3l-26 -314h-121z" />
<glyph unicode="&#x25fc;" horiz-adv-x="1054" d="M0 0v1055h1055v-1055h-1055z" />
<glyph unicode="&#xfb01;" horiz-adv-x="1376" d="M33 774v277h151v223q2 238 112.5 378t319.5 140q79 0 157 -17.5t133 -42.5t98 -50t64 -42l22 -18l-127 -256q-15 12 -39.5 30t-88.5 47.5t-112 29.5q-103 0 -139.5 -47.5t-36.5 -161.5v-213h706v-1051h-362v774h-344v-774h-363v774h-151z" />
<glyph unicode="&#xfb02;" horiz-adv-x="1376" d="M33 774v277h151v223q2 235 110.5 376.5t301.5 141.5q144 0 256 -66l-84 -284q-50 28 -109 28q-66 0 -89 -46t-23 -160v-213h241v-277h-241v-774h-363v774h-151zM891 0v1761h362v-1761h-362z" />
<glyph unicode="&#xfb03;" horiz-adv-x="2144" d="M74 774v277h151v223q2 235 110.5 376.5t301.5 141.5q82 0 156.5 -23.5t108.5 -46.5l34 -24l-127 -256q-50 28 -109 28q-66 0 -89 -46t-23 -160v-213h364v223q2 238 112.5 378t319.5 140q79 0 157 -17.5t133 -42.5t98 -50t64 -42l22 -18l-127 -256q-15 12 -39.5 30 t-88.5 47.5t-112 29.5q-103 0 -139.5 -47.5t-36.5 -161.5v-213h706v-1051h-362v774h-344v-774h-363v774h-364v-774h-363v774h-151z" />
<glyph unicode="&#xfb04;" horiz-adv-x="2144" d="M74 774v277h151v223q2 235 110.5 376.5t301.5 141.5q82 0 156.5 -23.5t108.5 -46.5l34 -24l-127 -256q-50 28 -109 28q-66 0 -89 -46t-23 -160v-213h364v223q2 235 110.5 376.5t301.5 141.5q144 0 256 -66l-84 -284q-50 28 -109 28q-66 0 -89 -46t-23 -160v-213h241v-277 h-241v-774h-363v774h-364v-774h-363v774h-151zM1659 0v1761h362v-1761h-362z" />
</font>
</defs>
</svg>
