<?xml version="1.0" standalone="no"?>
<!DOCTYPE svg PUBLIC "-//W3C//DTD SVG 1.1//EN" "http://www.w3.org/Graphics/SVG/1.1/DTD/svg11.dtd">
<svg xmlns="http://www.w3.org/2000/svg">
<metadata>Copyright (C) 2016 by original authors @ fontello.com</metadata>
<defs>
<font id="fontello" horiz-adv-x="1000" >
<font-face font-family="fontello" font-weight="400" font-stretch="normal" units-per-em="1000" ascent="850" descent="-150" />
<missing-glyph horiz-adv-x="1000" />
<glyph glyph-name="game-console-15" unicode="&#xe800;" d="M0 850v-217-16-384c0-2 1-4 2-7l72-159c-41-1-74-35-74-76v-141h1000v141c0 41-33 75-74 76l73 163c1 2 1 4 1 7v380 16 217h-1000z m767-700c-19 0-34 15-34 33s15 34 34 34 33-15 33-34-15-33-33-33z m16-31c29 8 50 33 50 64 0 37-30 67-66 67s-67-30-67-67c0-31 21-56 50-64v-52h-50v33c0 9-7 17-17 17h-83c-9 0-17-8-17-17v-33h-166v33c0 9-8 17-17 17h-83c-10 0-17-8-17-17v-33h-50v52c29 8 50 33 50 64 0 37-30 67-67 67s-66-30-66-67c0-31 21-56 50-64v-52h-98l48 398c0 0 0 1 0 2 0 10 3 20 9 29 2 2 4 5 7 7 1 1 2 2 2 2 2 2 5 4 7 5 1 1 2 1 3 2 2 1 5 2 8 2 1 1 2 1 2 1 4 1 8 2 12 2h566c4 0 8-1 12-2 1 0 1 0 2-1 3 0 6-1 8-2 1-1 2-1 3-2 2-1 5-3 7-5 1 0 1-1 2-2 3-2 5-5 7-7 6-9 9-19 9-29 0-1 0-2 1-2l47-398h-98v52z m-116-52h-50v16h50v-16z m-284 0h-50v16h50v-16z m-150 83c-18 0-33 15-33 33s15 34 33 34 34-15 34-34-15-33-34-33z m607 378c-2 2-4 3-5 4-2 2-4 3-7 5-2 1-4 2-6 3-3 2-5 3-8 4-2 1-5 2-8 2-2 1-4 2-7 2-5 1-10 2-16 2h-566c-6 0-11-1-16-2-3 0-5-1-7-2-3 0-6-1-8-2-3-1-5-2-8-4-2-1-4-2-6-3-2-2-5-3-7-5-1-1-3-2-4-4l-100 89h878l-99-89z m-807 289h934v-167h-934v167z m0-221l108-95c-5-10-7-21-8-33l-42-357-58 126v359z m934-605v-108h-934v108c0 23 19 42 43 42h24 217 83 200 83 217 24c24 0 43-19 43-42z m-58 121l-42 356c0 12-3 23-8 33l108 95v-356l-58-128z m-117-95c-32 0-59-27-59-59s27-58 59-58 58 26 58 58-26 59-58 59z m0-84c-14 0-25 11-25 25s11 25 25 25 25-11 25-25-11-25-25-25z m-584 84c-32 0-58-27-58-59s26-58 58-58 59 26 59 58-26 59-59 59z m0-84c-13 0-25 11-25 25s12 25 25 25 25-11 25-25-11-25-25-25z m-41 817h-17v33c0 10-7 17-17 17s-16-7-16-17v-33h-17v17c0 9-7 16-17 16s-16-7-16-16v-67c0-9 7-17 16-17s17 8 17 17v17h17v-34c0-9 7-16 16-16s17 7 17 16v34h17c9 0 16 7 16 16s-7 17-16 17z m71-5c-3-3-5-7-5-12 0-4 2-8 5-11 3-3 8-5 12-5s9 2 12 5c3 3 5 7 5 11s-2 9-5 12c-6 6-17 6-24 0z m267 0c-3-3-5-7-5-12 0-4 2-8 5-11 3-3 7-5 12-5s8 2 12 5c3 3 4 7 4 11s-1 9-4 12c-7 6-18 6-24 0z m378 55c-36 0-66-30-66-67s30-66 66-66 67 30 67 66-30 67-67 67z m0-100c-18 0-33 15-33 33s15 34 33 34 34-15 34-34-15-33-34-33z m-666-317c4 0 8 2 12 5l66 67c7 6 7 17 0 23s-17 7-23 0l-67-66c-7-7-7-17 0-24 3-3 7-5 12-5z m21-21l-33-34c-7-6-7-17 0-23 3-3 7-5 12-5s8 2 12 5l33 33c6 7 6 17 0 24s-17 6-24 0z m34 33c-3-3-5-7-5-12 0-4 2-8 5-11 3-3 7-5 11-5 5 0 9 2 12 5 3 3 5 7 5 11 0 5-2 9-5 12-6 6-17 6-23 0z m83 83l-50-50c-7-6-7-17 0-23 3-3 7-5 12-5s8 2 12 5l50 50c6 6 6 17 0 23s-18 7-24 0z" horiz-adv-x="1000" />

<glyph glyph-name="game-console-16" unicode="&#xe801;" d="M864 850h-728c-27 0-50-22-50-50v-900c0-28 23-50 50-50h728c27 0 50 22 50 50v900c0 28-23 50-50 50z m15-950c0-9-7-16-15-16h-728c-8 0-15 7-15 16v900c0 9 7 16 15 16h728c8 0 15-7 15-16v-900z m-620 191c-38 0-69-31-69-69s31-69 69-69 69 31 69 69-31 69-69 69z m-69 518v-35-103-35-103-35-138h620v138 35 103 35 103 35 138h-620v-138z m586-414h-552v103h552v-103z m0 138h-552v103h552v-103z m0 138h-552v103h552v-103z m-552 241h552v-103h-552v103z" horiz-adv-x="1000" />

<glyph glyph-name="game-controller" unicode="&#xe802;" d="M700 550c0 37-30 67-67 67s-66-30-66-67 30-67 66-67 67 30 67 67z m-67-33c-18 0-33 14-33 33s15 33 33 33 34-15 34-33-15-33-34-33z m167-67c0 37-30 67-67 67s-66-30-66-67 30-67 66-67 67 30 67 67z m-67-33c-18 0-33 14-33 33s15 33 33 33 34-15 34-33-15-33-34-33z m-394 133h-22v22c0 15-13 28-28 28h-44c-16 0-28-13-28-28v-22h-22c-16 0-28-13-28-28v-44c0-16 12-28 28-28h22v-22c0-16 12-28 28-28h44c15 0 28 12 28 28v22h22c15 0 28 12 28 28v44c0 15-13 28-28 28z m-6-67h-22c-15 0-28-12-28-28v-22h-33v22c0 16-12 28-28 28h-22v34h22c16 0 28 12 28 27v23h33v-23c0-15 13-27 28-27h22v-34z m650 21l-1 2c0 6-1 11-2 16-8 37-27 72-57 101-35 35-100 72-178 76l-14 35c-12 29-37 51-67 59l-18 4c-102 26-198 26-292 0l-18-4c-30-8-55-30-67-59l-14-35c-78-4-143-41-178-76-30-29-49-64-57-101-1-5-1-9-2-13l-1-5c-1-3-52-349 28-545 7-17 17-31 30-42 15-12 30-17 46-17 18 0 37 8 54 25 71 70 100 330 101 342l2 16c7-8 13-16 18-23 11-18 19-40 23-66 21-147 76-235 118-282 16-18 39-28 63-28s47 10 63 28c42 47 97 135 118 282 4 26 12 48 23 66 5 7 11 15 19 23l1-17c1-11 30-271 101-341 17-17 36-25 55-25 15 0 30 5 45 17 13 11 23 25 30 42 80 196 29 542 28 545z m-683 218c8 19 24 33 45 39l17 4c89 24 180 24 276 0l18-4c20-6 36-20 44-39l9-22h-418l9 22z m-57-452c-8-72-39-270-91-321-20-19-37-21-56-6-8 7-16 17-20 29-51 124-46 324-36 439 6-10 14-19 22-27 0 0 1 0 1 0 4-4 8-8 12-11 0 0 0 0 1-1 4-3 8-6 12-8 23-17 53-27 87-31 8-1 15-2 22-4 2 0 4-1 7-2 4-1 8-2 12-4 3-1 5-2 8-3 3-1 7-3 10-4 3-2 5-3 8-5 2-1 3-2 5-2l-4-39z m475 55l1 0c-19-15-33-32-43-47-14-22-23-49-28-79-20-139-71-221-110-265-20-22-56-22-76 0-39 44-90 126-110 265-5 30-14 57-28 79-10 15-24 32-42 47l0 0-8 5c-12 9-27 18-44 24-2 1-4 1-7 2-5 2-11 4-17 6-9 2-18 3-27 4-29 3-53 12-73 25-5 4-10 8-15 12-1 1-3 3-5 5-2 2-5 4-7 7-2 2-4 4-6 6-1 3-3 5-4 7-2 2-4 5-5 8-1 2-2 4-3 6-2 3-3 5-4 8-1 2-1 4-2 6-1 3-2 7-3 10 0 2 0 3 0 5-1 4-1 7-2 11 0 2 0 3 0 5 0 4 0 8 1 12 0 5 1 11 2 16 6 31 22 60 47 85 33 32 94 67 168 67h464c74 0 135-35 168-67 25-25 41-54 47-85 1-5 2-11 3-16 0-4 0-8 0-12 0-2 0-3 0-5 0-4-1-7-1-11-1-2-1-3-1-5-1-3-2-7-3-10-1-2-1-4-2-6-1-3-2-5-4-8-1-2-2-4-3-6-1-3-3-6-5-8-1-2-3-4-4-7-2-2-4-4-6-6-2-3-5-5-7-8-2-1-3-3-5-4-5-4-10-8-15-12-3-2-5-3-8-4-17-11-38-17-62-20-1 0-2-1-3-1 0 0 0 0 0 0-9-1-18-2-26-5-7-1-13-3-18-5-3-1-5-1-7-2-17-6-32-15-44-24l-8-5z m206-353c-4-12-11-22-20-29-19-15-36-13-56 6-51 51-83 249-91 321l-3 39c1 0 2 1 4 2 3 2 6 3 8 5 3 1 7 3 10 4 3 1 5 2 8 3 4 2 8 3 13 4 2 1 4 2 7 2 6 2 14 3 21 4 34 4 64 14 88 31 3 2 7 5 11 8 1 0 1 1 2 1 4 3 8 7 11 11 1 0 1 0 1 0 8 8 16 17 23 27 9-115 14-315-37-439z m-424 361c-44 0-80-35-83-78-11-17-17-36-17-55 0-55 45-100 100-100s100 45 100 100c0 19-6 38-17 55-3 43-39 78-83 78z m0-33c28 0 50-22 50-50v0c0-28-23-50-50-50s-50 22-50 50v0c0 28 23 50 50 50z m67-100c0-37-30-67-67-67s-67 30-67 67c0 0 0 0 0 0 2-3 5-5 7-8 1-1 2-2 3-3 3-2 6-5 9-7 1-1 1-1 2-2 4-2 8-4 12-6 1 0 2-1 3-1 4-2 9-3 13-4 1-1 2-1 3-1 5-1 10-1 15-1s10 0 15 1c1 0 2 0 3 1 4 1 9 2 13 4 1 0 2 1 3 1 4 2 8 4 12 6 1 1 1 1 2 2 3 2 6 5 9 7 1 1 2 2 3 3 2 3 5 5 7 8 0 0 0 0 0 0z" horiz-adv-x="1000" />

<glyph glyph-name="game-controller-1" unicode="&#xe803;" d="M750 392h-225v195c0 33 27 59 60 59s59-26 59-59v-59c0-47 38-85 85-85s85 38 85 85v271c0 9-8 17-17 17s-17-8-17-17v-271c0-28-23-51-51-51s-51 23-51 51v59c0 51-42 93-93 93s-93-42-93-93v-195h-238c-140 0-254-114-254-254 0-121 88-252 220-254 1 0 2 0 3 0 35 0 97 6 159 23 74 21 166 21 239 0 67-18 139-23 163-23l0 0c104 2 216 100 216 254 0 140-112 254-250 254z m34-474c-22 0-91 5-154 22-79 22-177 22-257 0-61-17-120-22-153-22-90 1-186 90-186 220 0 121 99 220 220 220h496c119 0 216-99 216-220 0-104-73-218-182-220z m-214 389c0 10-8 17-17 17h-78c-10 0-17-7-17-17 0-9 7-17 17-17h78c9 0 17 8 17 17z m57-101c-37 0-68-31-68-68s31-68 68-68 68 30 68 68-30 68-68 68z m0-102c-19 0-34 15-34 34s15 34 34 34 34-16 34-34-15-34-34-34z m237 102c-37 0-67-31-67-68s30-68 67-68 68 30 68 68-30 68-68 68z m0-102c-18 0-33 15-33 34s15 34 33 34 34-16 34-34-15-34-34-34z m-118-17c-38 0-68-31-68-68s30-68 68-68 68 31 68 68-31 68-68 68z m0-102c-19 0-34 15-34 34s15 34 34 34 34-15 34-34-15-34-34-34z m0 204c37 0 68 30 68 67s-31 68-68 68-68-30-68-68 30-67 68-67z m0 101c19 0 34-15 34-34s-15-34-34-34-34 16-34 34 15 34 34 34z m-356-84h-51v50c0 10-8 17-17 17h-102c-9 0-17-7-17-17v-50h-50c-10 0-17-8-17-17v-102c0-10 7-17 17-17h50v-51c0-9 8-17 17-17h102c9 0 17 8 17 17v51h51c9 0 17 7 17 17v102c0 9-8 17-17 17z m-17-102h-51c-9 0-17-8-17-17v-51h-68v51c0 9-7 17-17 17h-50v68h50c10 0 17 7 17 17v50h68v-50c0-10 8-17 17-17h51v-68z" horiz-adv-x="1000" />

<glyph glyph-name="game-controller-2" unicode="&#xe804;" d="M466 443v178c0 33 27 60 59 60s60-27 60-60v-59c0-47 38-85 85-85s84 38 84 85v271c0 9-7 17-17 17s-17-8-17-17v-271c0-28-22-51-50-51s-51 23-51 51v59c0 52-42 93-94 93s-93-41-93-93v-178h-423v-593h983v593h-526z m492-559h-916v525h916v-525z m-865 475v-424h814v288l-424 0v136h-390z m780-170v-220h-746v356h322v-136l424 0z m-542 51h-102v-51h-51v-102h51v-51h102v51h50v102h-50v51z m17-85v-34h-51v-51h-34v51h-51v34h51v51h34v-51h51z m432-135c32 0 59 26 59 59s-27 59-59 59-60-26-60-59 27-59 60-59z m0 84c14 0 25-11 25-25s-11-26-25-26-26 12-26 26 12 25 26 25z m-153-84c33 0 59 26 59 59s-26 59-59 59-59-26-59-59 26-59 59-59z m0 84c14 0 26-11 26-25s-12-26-26-26-25 12-25 26 11 25 25 25z m-212-34c0-9 8-17 17-17h85c9 0 17 8 17 17s-8 17-17 17h-85c-9 0-17-7-17-17z" horiz-adv-x="1000" />

<glyph glyph-name="game-controller-3" unicode="&#xe805;" d="M924 375h-576v246c0 33 26 60 59 60s59-27 59-60v-110c0-47 38-85 85-85s85 38 85 85v322c0 9-8 17-17 17s-17-8-17-17v-322c0-28-23-51-51-51s-51 23-51 51v110c0 52-42 93-93 93s-93-41-93-93v-246h-238c-37 0-67-30-67-67v-391c0-37 30-67 67-67h848c37 0 68 30 68 67v391c0 37-31 67-68 67z m34-458c0-18-15-33-34-33h-848c-18 0-34 15-34 33v391c0 18 16 34 34 34h848c19 0 34-16 34-34l0-391 0 0z m-695 306h-119v-51h-51v-119h51v-50h119v50h51v119h-51v51z m17-85v-51h-51v-51h-51v51h-51v51h51v51h51v-51h51z m406-152h102v101h-102v-101z m34 67h34v-33h-34v33z m102-67h102v101h-102v-101z m34 67h34v-33h-34v33z m-492-67h272v118h-272v-118z m34 84h204v-50h-204v50z" horiz-adv-x="1000" />

<glyph glyph-name="game-controller-4" unicode="&#xe806;" d="M975 318c-33 122-90 241-107 275-1 2-2 8-4 13-7 27-11 42-24 47l-128 47c-16 6-34 3-48-6-15-9-31-19-37-20h-247c-6 1-26 12-40 20-15 9-33 12-49 6l-128-47c-13-5-17-20-24-46-1-5-3-12-4-14-7-14-73-141-110-276-44-161-29-266 45-313 17-11 40-9 56 5l152 130c18 16 42 25 66 25h315c24 0 48-9 66-25l152-130c10-8 21-12 32-12 9 0 17 3 25 8 71 47 85 153 41 313z m-484 322c4 0 8 0 10 0h29c0 0 0 0 0 0 0-10-5-19-12-26-8-6-17-9-28-7-12 2-23 13-26 26-1 2-1 5-1 7l28 0z m424-608c-4-3-11-2-16 2l-152 131c-24 21-56 32-88 32h-315c-32 0-63-11-88-32l-152-131c-5-4-12-5-17-1-74 47-57 176-30 275 36 132 101 256 108 270 2 4 4 10 6 21 2 6 5 19 8 24l124 45c6 3 13 2 19-3 45-25 54-25 57-25h51c0-5 0-10 1-14 6-27 27-47 54-52 4-1 8-1 11-1 16 0 31 6 43 16 15 12 24 31 24 51 0 0 0 0 0 0h66c3 0 13 0 53 26 5 4 12 5 19 2l123-45c3-6 6-18 8-25 3-10 4-16 6-20 23-46 220-450 77-546z m-285 382c-46 0-84-37-84-83s38-84 84-84 83 38 83 84-37 83-83 83z m0-133c-28 0-50 22-50 50 0 27 22 50 50 50s50-23 50-50c0-28-23-50-50-50z m-300 216c0 46-38 83-83 83s-84-37-84-83 38-83 84-83 83 37 83 83z m-83-50c-28 0-50 23-50 50s22 50 50 50 50-22 50-50-23-50-50-50z m224-61h-38v38c0 16-12 29-28 29h-43c-16 0-29-13-29-29v-38h-38c-15 0-28-12-28-28v-43c0-16 13-29 28-29h38v-38c0-15 13-28 29-28h43c16 0 28 13 28 28v38h38c16 0 29 13 29 29v43c0 16-13 28-29 28z m-4-66h-67v-67h-33v67h-67v33h67v67h33v-67h67v-33z" horiz-adv-x="1000" />

<glyph glyph-name="game-controller-5" unicode="&#xe807;" d="M1000 384c0 119-97 216-217 216-52 0-100-19-138-50h-112v208c0 33 26 59 58 59s58-26 58-59v-41c0-46 38-84 84-84s83 38 83 84v133h-33v-133c0-28-23-50-50-50s-50 22-50 50v41c0 51-41 92-92 92s-92-41-92-92v-208h-146c-37 31-84 49-136 49-119 0-216-97-216-216 0-41 11-80 32-113l-20-287c0-74 59-133 133-133 59 0 110 38 126 94l57 173c18-30 50-50 87-50 35 0 66 18 83 45 18-27 49-45 84-45 39 0 72 22 89 54l58-177c17-56 68-94 127-94 73 0 133 59 133 134l-20 291c19 32 30 69 30 109z m-34 0c0-30-7-59-20-84l-7-12c-8-13-18-25-29-35-2-2-4-4-6-6-2-2-4-4-7-6-31-25-71-40-114-40-100 0-182 82-182 183 0 37 11 72 31 101 0 1 0 1 0 1 3 4 5 8 8 11 2 2 4 4 6 7 1 1 3 3 5 5 3 4 7 8 12 12 0 0 0 0 0 0l6 5c31 25 71 41 114 41 101 0 183-82 183-183z m-467 133h34 80c-30-38-47-85-47-134 0-43 13-83 35-118 0 0 0 0-1 0-5 1-11 2-17 2-4 0-8-1-12-1-1 0-3 0-4-1-2 0-5 0-7-1-2 0-3-1-5-1-2-1-3-1-5-2-2-1-4-1-6-2-1 0-1-1-2-1-5-2-9-5-14-8 0 0-1 0-1-1-2-1-4-3-6-4-1-1-2-1-3-2-2-2-3-3-5-5-1-1-2-2-3-3-1-1-3-3-4-4-2-3-4-6-6-9 0 0 0 0-1 0 0 0 0 0 0 0-2 3-4 6-6 8-1 2-3 4-4 6-1 0-2 1-3 2-2 2-3 3-5 5-1 1-2 1-3 2-2 1-4 3-6 4 0 1-1 1-1 1-4 3-9 6-14 8-1 0-2 1-2 1-2 1-4 1-6 2-2 1-3 1-5 2-2 0-3 1-5 1-2 1-5 1-7 1-1 1-3 1-4 1-4 0-8 1-12 1-3 0-7 0-11-1 0 0 0 0 0 0 23 35 35 75 35 117 0 49-17 96-47 134h106z m-282 49c101 0 182-82 182-183 0-100-80-182-180-183-64 1-122 34-155 88l-18 31c-8 20-12 41-12 64 0 101 82 183 183 183z m24-612c-13-42-51-71-95-71-55 0-100 45-100 98l17 250c40-40 94-64 154-64 0 0 1 0 2 0 0 0 1 0 2 0 34 0 67 8 98 23l-78-236z m175 146c-37 0-67 30-67 67 0 16 7 31 17 43l4 4c9 9 21 16 33 18 4 1 9 1 13 1 5 0 9 0 14-1 0 0 0 0 0 0 4-1 8-2 12-4 0 0 0 0 0 0 4-2 8-4 11-6 1 0 1-1 2-1 3-2 5-4 8-7 1-1 2-3 4-4 1-2 3-3 4-5 2-3 4-6 5-10 0 0 1-1 1-1 3-8 5-16 6-25l0-4c0-4-1-8-2-12l0 0c-6-30-33-53-65-53z m167 0c-32 0-59 23-65 53l0 0c-1 4-2 8-2 12l0 4c1 9 3 17 6 25 0 0 1 1 1 1 1 4 3 7 5 10 1 1 3 3 4 4 1 2 3 4 4 5 2 2 5 5 8 6 0 1 1 2 2 2 3 2 6 4 10 6 0 0 1 0 1 0 4 2 7 3 11 4 1 0 1 0 1 0 5 1 9 1 14 1 4 0 8 0 12-1 1 0 2 0 3-1 3 0 6-1 8-2 1-1 3-1 4-1 3-2 6-4 9-6 1 0 3-1 4-2 2-2 3-3 5-4 1-2 3-3 4-4 1-2 2-3 3-5 2-1 3-3 4-4 1-2 1-3 2-5 1-1 2-3 3-4l1-2c3-8 5-16 5-25 0-37-30-67-67-67z m356 134l18-251c0-55-45-100-100-100-44 0-82 29-95 71l-78 236c30-15 64-23 98-23 57 0 110 22 149 60 3 2 5 4 7 6 0 1 1 1 1 1z m-456 199h50c9 0 17 8 17 17s-8 17-17 17h-50c-9 0-17-8-17-17s8-17 17-17z m408-100c32 0 59 27 59 59s-27 58-59 58-58-26-58-58 26-59 58-59z m0 84c14 0 25-12 25-25s-11-25-25-25-25 11-25 25 11 25 25 25z m-275-25c0-32 26-59 59-59s58 27 58 59-26 58-58 58-59-26-59-58z m84 0c0-14-12-25-25-25s-25 11-25 25 11 25 25 25 25-12 25-25z m-572-59h38v-38c0-15 13-28 29-28h43c15 0 28 13 28 28v38h38c16 0 29 13 29 29v43c0 16-13 28-29 28h-38v38c0 16-13 29-28 29h-43c-16 0-29-13-29-29v-38h-38c-16 0-28-12-28-28v-43c0-16 12-29 28-29z m5 67h67v67h33v-67h67v-33h-67v-67h-33v67h-67c0 0 0 33 0 33z m650-42c-32 0-58-26-58-58s26-58 58-58 58 26 58 58-26 58-58 58z m0-83c-14 0-25 11-25 25s11 25 25 25 25-11 25-25-11-25-25-25z m0 150c32 0 58 26 58 58s-26 59-58 59-58-26-58-59 26-58 58-58z m0 83c14 0 25-11 25-25s-11-25-25-25-25 12-25 25 11 25 25 25z" horiz-adv-x="1000" />

<glyph glyph-name="game-controller-6" unicode="&#xe808;" d="M750 417h-250v291c0 33 26 59 58 59s59-26 59-59v-41c0-46 37-84 83-84s83 38 83 84v133h-33v-133c0-28-22-50-50-50s-50 22-50 50v41c0 51-41 92-92 92s-91-41-91-92v-291h-212c-138-7-255-129-255-267 0-119 88-248 219-250 0 0 0 0 1 0 20 0 47 10 81 23 24 9 52 20 80 28 73 19 165 19 238 0 30-8 60-19 87-29 38-14 60-22 75-22 0 0 0 0 0 0 131 2 219 131 219 250 0 141-112 261-250 267z m31-484c0 0 0 0 0 0-9 0-38 11-64 20-27 10-58 21-89 30-39 10-84 16-128 16s-88-6-128-16c-29-8-58-19-83-29-28-10-55-21-69-21-1 0-1 0-1 0-89 1-186 89-186 217 0 121 103 228 223 233l494 0c117-5 217-112 217-233 0-103-75-215-186-217z m-464 284h-34v33c0 9-7 17-16 17h-84c-9 0-16-8-16-17v-33h-34c-9 0-16-8-16-17v-83c0-9 7-17 16-17h34v-33c0-9 7-17 16-17h84c9 0 16 8 16 17v33h34c9 0 16 8 16 17v83c0 9-7 17-16 17z m-17-84h-33c-10 0-17-7-17-16v-34h-50v34c0 9-7 16-17 16h-33v50h33c10 0 17 8 17 17v33h50v-33c0-9 7-17 17-17h33v-50z m195-38c-6 7-17 7-23 0l-34-33c-6-7-6-17 0-24 4-3 8-5 12-5s9 2 12 5l33 34c7 6 7 17 0 23z m43 0l-33-33c-7-7-7-17 0-24 3-3 7-5 12-5s8 2 12 5l33 34c6 6 6 17 0 23s-17 7-24 0z m262 147c0 32-26 58-58 58s-59-26-59-58 27-59 59-59 58 27 58 59z m-83 0c0 13 11 25 25 25s25-12 25-25-11-25-25-25-25 11-25 25z m158 8c-32 0-58-26-58-58s26-59 58-59 58 27 58 59-26 58-58 58z m0-83c-14 0-25 11-25 25s11 25 25 25 25-12 25-25-11-25-25-25z m-233 50c-32 0-59-26-59-59s27-58 59-58 58 26 58 58-26 59-58 59z m0-84c-14 0-25 12-25 25s11 25 25 25 25-11 25-25-11-25-25-25z m133 34c-32 0-58-26-58-59s26-58 58-58 58 26 58 58-26 59-58 59z m0-84c-14 0-25 12-25 25s11 25 25 25 25-11 25-25-11-25-25-25z m-158 234c0 9-8 16-17 16h-200c-9 0-17-7-17-16 0-10 8-17 17-17h200c9 0 17 7 17 17z" horiz-adv-x="1000" />

<glyph glyph-name="game-controller-7" unicode="&#xe809;" d="M350 339h-33v34c0 9-8 16-17 16h-83c-9 0-17-7-17-16v-34h-33c-9 0-17-7-17-16v-84c0-9 8-16 17-16h33v-34c0-9 8-16 17-16h83c9 0 17 7 17 16v34h33c9 0 17 7 17 16v84c0 9-8 16-17 16z m-17-83h-33c-9 0-17-7-17-17v-33h-50v33c0 10-7 17-16 17h-33v50h33c9 0 16 7 16 17v33h50v-33c0-10 8-17 17-17h33v-50z m367 92c0-33 26-59 58-59s59 26 59 59-27 58-59 58-58-26-58-58z m83 0c0-14-11-25-25-25s-25 11-25 25 12 25 25 25 25-12 25-25z m-25-109c-32 0-58-26-58-58s26-58 58-58 59 26 59 58-27 58-59 58z m0-83c-13 0-25 11-25 25s12 25 25 25 25-11 25-25-11-25-25-25z m-100 167c-32 0-58-27-58-59s26-58 58-58 59 26 59 58-27 59-59 59z m0-84c-13 0-25 12-25 25s12 25 25 25 25-11 25-25-11-25-25-25z m200 84c-32 0-58-27-58-59s26-58 58-58 59 26 59 58-27 59-59 59z m0-84c-14 0-25 12-25 25s11 25 25 25 25-11 25-25-11-25-25-25z m103 105c-9 55-18 106-25 154-16 115-50 186-103 213v30c0 27-21 48-48 48h-37c-26 0-48-21-48-48v-52c-96-51-164-45-165-45l-68 0-2 0c-1 0-68-7-165 45v52c0 27-21 48-48 48h-37c-27 0-48-21-48-48v-30c-52-27-87-98-103-213-7-48-15-99-25-154-41-240-61-389-2-425 8-6 17-8 27-8 20 0 44 10 72 30 23 17 45 39 67 68 68 90 161 135 276 135 2 0 4 0 6 0h30c118 2 213-44 282-135 22-29 44-51 67-68 42-30 75-38 99-22 59 36 39 185-2 425z m-228 397c0 8 7 15 15 15h37c8 0 15-7 15-15v-19c0 0-1 0-1 0-8 1-16 1-23 0-1 0-1 0-2 0-3-1-7-1-10-2 0 0 0 0-1 0-2-1-5-2-7-2-1 0-2-1-2-1-3-1-5-1-7-2-1 0-2-1-2-1-1 0-2-1-3-1-4-2-7-3-7-4l-1 0c0 0 0 0-1-1v33h0z m-533 0c0 8 7 15 15 15h37c8 0 15-7 15-15v-33c0 1-1 1-1 1 0 0 0 0 0 0l-1 0c0 0 0 1-1 1 0 0 0 0 0 0-1 1-2 1-2 1-1 0-1 1-1 1-2 0-3 1-5 2 0 0 0 0 0 0-2 1-4 1-5 2-1 0-1 0-2 0-2 1-4 2-7 2 0 0 0 0 0 0-2 1-5 2-8 2 0 0-1 1-1 1-3 0-5 0-8 1-1 0-1 0-2 0-7 1-14 1-22 0 0 0 0 0-1 0l0 19 0 0z m746-794c-12-7-34 0-62 21-21 15-40 35-60 61-95 125-221 150-309 149h-29c-90 1-215-24-310-149-19-26-39-46-60-61-28-21-50-28-62-21-44 28-8 238 18 392 9 54 18 106 25 154 18 130 57 175 86 189 2 1 5 2 7 3 3 1 7 2 10 3 0 0 1 0 1 0 3 1 6 1 10 1 0 0 0 0 0 0 20 1 35-7 37-8 6-4 12-7 17-11 3-2 6-3 10-5 0 0 0 0 0-1l25-14v1c92-45 158-41 168-40h65c9-1 75-5 167 40v-1l24 14c4 2 7 4 11 6 5 4 11 7 17 11 0 0 0 0 0 0 2 1 16 8 36 8 0 0 1 0 2 0 2 0 4 0 6-1 2 0 4 0 6-1 1 0 3-1 5-1 3-1 6-2 10-4 29-14 68-58 86-189 7-48 16-100 25-154 26-154 62-364 18-392z m-696 492c55 0 100 45 100 100s-45 100-100 100-100-45-100-100 45-100 100-100z m0 167c37 0 67-30 67-67s-30-66-67-66-66 29-66 66 29 67 66 67z m500-167c55 0 100 45 100 100s-45 100-100 100-100-45-100-100 45-100 100-100z m0 167c37 0 67-30 67-67s-30-66-67-66-67 29-67 66 30 67 67 67z" horiz-adv-x="1000" />

<glyph glyph-name="game-controller-8" unicode="&#xe80a;" d="M611 850h-222c-58 0-106-47-106-107l13-130c3-31 4-63 5-95l10-562c0-59 47-106 106-106h166c59 0 106 47 106 105l7 380c1 6 1 11 1 18v65l2 100c1 32 2 64 5 95l13 131c0 59-48 106-106 106z m-222-33h222c40 0 72-33 72-71l-12-130c-1-9-1-19-2-28-21 25-53 41-88 41h-160c-36 0-68-17-90-43-1 10-1 20-2 30l-12 128c0 40 32 73 72 73z m274-479c-7-39-41-69-82-69h-160c-46 0-83 38-83 84v159c0 46 37 83 83 83h160c46 0 83-37 83-83v-94l-1-80z m-7-382c0-40-33-73-73-73h-166c-40 0-73 33-73 73l-5 314c21-21 50-34 82-34h160c31 0 59 12 80 32l-5-312z m-215 244h-32c-23 0-42-19-42-42v-32c0-24 19-43 42-43h32c23 0 42 19 42 43v32c0 23-19 42-42 42z m9-74c0-5-4-9-9-9h-32c-5 0-9 4-9 9v32c0 5 4 9 9 9h32c5 0 9-4 9-9v-32z m141 74h-32c-23 0-42-19-42-42v-32c0-24 19-43 42-43h32c23 0 42 19 42 43v32c0 23-19 42-42 42z m9-74c0-5-4-9-9-9h-32c-5 0-9 4-9 9v32c0 5 4 9 9 9h32c5 0 9-4 9-9v-32z m-159-76h-32c-23 0-42-19-42-42v-33c0-23 19-42 42-42h32c23 0 42 19 42 42v33c0 23-19 42-42 42z m9-75c0-4-4-8-9-8h-32c-5 0-9 4-9 8v33c0 5 4 9 9 9h32c5 0 9-4 9-9v-33z m141 75h-32c-23 0-42-19-42-42v-33c0-23 19-42 42-42h32c23 0 42 19 42 42v33c0 23-19 42-42 42z m9-75c0-4-4-8-9-8h-32c-5 0-9 4-9 8v33c0 5 4 9 9 9h32c5 0 9-4 9-9v-33z m-100 692c57 0 100 25 100 58s-43 58-100 58-100-25-100-58 43-58 100-58z m0 83c41 0 67-16 67-25s-26-25-67-25-67 16-67 25 26 25 67 25z m88-267h-38v38c0 16-13 29-29 29h-42c-16 0-29-13-29-29v-38h-38c-16 0-29-12-29-28v-43c0-16 13-29 29-29h38v-38c0-15 13-28 29-28h42c16 0 29 13 29 28v38h38c16 0 29 13 29 29v43c0 16-13 28-29 28z m-5-66h-66v-67h-34v67h-66v33h66v67h34v-67h66v-33z" horiz-adv-x="1000" />

<glyph glyph-name="game-controller-9" unicode="&#xe80b;" d="M764 850h-146c-33 0-60-27-60-60v-541c-75-8-134-72-134-149v-33c0-79 64-142 142-142 73 0 132 55 141 125h30c-19-95-104-167-204-167-115 0-209 94-209 209v194c30 7 53 31 57 61l54 271c6 32 7 62 1 90-15 70-60 109-128 109s-114-39-128-109c-6-28-6-58 1-90l54-270c4-31 27-55 56-62v-203h0c5-129 111-233 242-233 133 0 241 108 241 242 0 8 0 17-1 26 29 4 51 29 51 59v613c0 33-26 60-60 60z m-497-497l-54 272c-5 27-5 53-1 76 12 55 44 82 96 82s84-27 95-82c5-23 5-49-1-76l-54-273c-3-20-20-35-40-35s-38 15-41 36z m299-395c-60 0-108 49-108 109v33c0 59 43 107 100 115v-38c0-33 27-60 60-60h6v-67h49c-8-52-53-92-107-92z m158 125h-66v34h66v-34z m67 94c0-15-12-27-27-27h-6-134-6c-15 0-27 12-27 27v613c0 15 12 27 27 27h146c15 0 27-12 27-27l0-613 0 0z m-400 490c0 46-37 83-83 83s-84-37-84-83 38-84 84-84 83 38 83 84z m-133 0c0 27 22 50 50 50s50-23 50-50-23-50-50-50-50 22-50 50z m433-84c-27 0-50-22-50-50s23-50 50-50 50 23 50 50-22 50-50 50z m0-66c-9 0-17 7-17 16s8 17 17 17 17-7 17-17-8-16-17-16z m0-84c-27 0-50-22-50-50s23-50 50-50 50 23 50 50-22 50-50 50z m0-66c-9 0-17 7-17 16s8 17 17 17 17-7 17-17-8-16-17-16z m0-84c-27 0-50-22-50-50s23-50 50-50 50 23 50 50-22 50-50 50z m0-66c-9 0-17 7-17 16s8 17 17 17 17-7 17-17-8-16-17-16z" horiz-adv-x="1000" />

<glyph glyph-name="hdmi" unicode="&#xe80c;" d="M983 578v48c0 32-26 57-57 57h-97c-31 0-57-25-57-57v-48h-18v-228h53v-53h53v-46c0-121-63-243-199-302 57 51 93 125 93 208 0 155-125 281-280 281s-281-126-281-281c0-57 17-110 47-154-61 58-100 141-100 232v203h53v52h53v228h-18v49c0 31-25 57-57 57h-96c-32 0-57-26-57-57v-49h-18v-228h53v-52h52v-220h1c9-190 166-342 358-342 3 0 5 0 7 0 1 0 2 0 3 0 2 0 4 1 5 1 246 6 416 158 416 374v46h52v53h53v228h-17z m-930 189c0 12 10 22 22 22h96c12 0 22-10 22-22v-49h-140v49z m-18-242v158h176v-158h-18-140-18z m53-52v17h70v-17h-70z m140-316c0 136 110 246 246 246s245-110 245-246c0-37-8-73-23-105 4 17 6 34 6 52 0 126-103 229-228 229s-228-103-228-229c0-18 2-35 6-52-15 32-24 68-24 105z m252-245c-3 0-6 0-9-1-105 2-190 88-190 193 0 107 86 193 193 193s193-86 193-193c0-104-84-189-187-192z m327 714c0 12 10 22 22 22h97c12 0 21-10 21-22v-48h-140v48z m105-293h-17-35-18v17h70v-17z m53 52h-18-140-17v158h175v-158z" horiz-adv-x="1000" />

<glyph glyph-name="headphones" unicode="&#xe80d;" d="M900 267v83h17v44c0 94-35 184-99 256 1 5 2 9 2 13 0 14-6 26-15 35-74 67-209 102-305 102s-231-35-304-102c-10-9-16-21-16-35 0-2 0-3 0-5-62-72-97-166-97-264v-44h17v-83c-55 0-100-45-100-100v-167c0-55 45-100 100-100h5 12 75c41 0 75 33 75 75v212c0 39-29 72-67 78v85h17v44c0 63 22 126 62 173 12 0 23 4 33 12 38 32 128 54 188 54s150-22 188-54c7-6 16-10 25-11 45-49 70-112 70-174v-44h17v-85c-38-6-67-39-67-78v-212c0-42 34-75 75-75h75 12 5c55 0 100 45 100 100v167c0 55-45 100-100 100z m-817-332c-28 8-50 34-50 65v167c0 31 22 57 50 64v-296z m148 265h-31c-9 0-17-7-17-17s8-16 17-16h33v-34h-33c-9 0-17-7-17-16s8-17 17-17h33v-33h-33c-9 0-17-8-17-17s8-17 17-17h33v-33h-33c-9 0-17-8-17-17s8-16 17-16h33c-4-19-21-34-41-34h-75v300h70c21 0 39-14 44-33z m-98 67v83h34v-83h-34z m50 127v-11h-66v11c0 86 28 167 80 232l49-46c-40-52-63-118-63-186z m547 210c0 0 0 0 0 0-2-1-3-2-5-3-1 0-2 0-3-1-1 0-1 0-2 0l0 0c-4 0-7 2-10 4-50 43-153 63-210 63s-160-20-210-63c-4-3-9-4-14-3-2 1-4 2-6 3l-52 48c0 0 0 0 0 0-2 1-3 3-4 6 0 2-1 3-1 5 0 4 2 8 5 11 67 60 195 93 282 93s215-33 282-93c3-3 5-7 5-11 0-2-1-4-1-6l-1-1c-1-1-2-3-3-4 0 0 0 0 0 0l-52-48 0 0z m153-671h-75c-20 0-37 15-40 34h32c9 0 17 7 17 16s-8 17-17 17h-33v33h33c9 0 17 8 17 17s-8 17-17 17h-33v33h33c9 0 17 8 17 17s-8 16-17 16h-33v34h33c9 0 17 7 17 16s-8 17-17 17h-31c6 19 23 33 44 33h70v-300z m-50 334v83h34v-83h-34z m50 116h-66v11c0 65-25 130-68 183 1 1 3 1 4 3l46 42c55-65 84-145 84-228v-11z m84-383c0-31-22-57-50-65v296c28-7 50-33 50-64v-167z" horiz-adv-x="1000" />

<glyph glyph-name="ibook" unicode="&#xe80e;" d="M200 475c4 0 9 2 12 5l67 67c6 6 6 17 0 23s-18 7-24 0l-67-67c-6-6-6-17 0-23 4-3 8-5 12-5z m0-83c4 0 9 1 12 5l33 33c7 6 7 17 0 23s-17 7-23 0l-34-33c-6-6-6-17 0-23 4-4 8-5 12-5z m55 95c-3-3-5-7-5-12s2-9 5-12c3-3 7-5 12-5s8 2 12 5c3 3 4 8 4 12s-1 9-4 12c-7 6-18 6-24 0z m33 10c4-4 8-5 12-5s9 1 12 5l50 50c6 6 6 17 0 23s-17 7-24 0l-50-50c-6-6-6-17 0-23z m-88-189c4 0 9 2 12 5l150 150c6 7 6 17 0 24s-17 6-24 0l-150-150c-6-7-6-17 0-24 4-3 8-5 12-5z m172 189c3-3 7-5 11-5s9 2 12 5c3 3 5 7 5 11s-2 9-5 12c-6 6-17 6-23 0-3-3-5-7-5-12s2-8 5-11z m45 28c4 0 8 2 12 5l16 17c7 6 7 17 0 23s-17 7-23 0l-17-17c-7-6-7-17 0-23 3-3 7-5 12-5z m466 133h-766v-466h766v466z m-33-433h-700v400h700v-400z m121-150h-138v17h134v650h-934v-650h134v-17h-138c-16 0-29-13-29-29v-59c0-16 13-29 29-29h942c16 0 29 13 29 29v59c0 16-13 29-29 29z m-904 50v583h866v-583h-100-666-100z m733-33v-17h-600v17h600z m167-100h-934v50h134 666 134v-50z m-734 166c0 10-7 17-16 17h-84c-9 0-16-7-16-17 0-9 7-16 16-16h84c9 0 16 7 16 16z m634 17c-9 0-17-7-17-17 0-9 8-16 17-16h16c10 0 17 7 17 16 0 10-7 17-17 17h-16z m-50 0h-17c-9 0-17-7-17-17 0-9 8-16 17-16h17c9 0 16 7 16 16 0 10-7 17-16 17z" horiz-adv-x="1000" />

<glyph glyph-name="imac" unicode="&#xe80f;" d="M925 825h-850c-41 0-75-34-75-75v-542-75c0-41 34-75 75-75h298c2-29-11-58-34-74l-30-21c-2-2-4-3-5-5-21-2-37-20-37-41 0-23 18-42 41-42h384c23 0 41 19 41 42 0 21-16 39-37 41-1 2-3 3-5 5l-30 21c-23 16-36 45-33 74h297c41 0 75 34 75 75v75 542c0 41-34 75-75 75z m-892-75c0 23 19 42 42 42h850c23 0 42-19 42-42v-508h-934v508z m659-842h-384c-4 0-8 4-8 9s4 8 8 8h12 360 12c4 0 8-4 8-8s-4-9-8-9z m-98 150c-2-38 15-77 46-100h-279c30 23 47 62 45 100l188 0z m373 75c0-23-19-41-42-41h-291-268-291c-23 0-42 18-42 41v75h934v-75z m-884 525c5 0 9 2 12 5l67 67c6 6 6 17 0 23s-17 7-24 0l-66-66c-7-7-7-17 0-24 3-3 7-5 11-5z m0-83c5 0 9 2 12 5l34 33c6 7 6 17 0 24s-18 6-24 0l-33-34c-7-6-7-17 0-23 3-3 7-5 11-5z m55 95c-3-3-5-7-5-12s2-8 5-11c3-3 8-5 12-5 4 0 9 2 12 5 3 3 5 7 5 11s-2 9-5 12c-6 6-17 6-24 0z m34 10c3-3 7-5 11-5s9 2 12 5l50 50c7 6 7 17 0 23s-17 7-23 0l-50-50c-7-6-7-17 0-23z m50-10l-150-150c-7-6-7-17 0-23 3-4 7-5 11-5s9 1 12 5l150 150c7 6 7 17 0 23s-17 7-23 0z m33 34c-3-4-5-8-5-12s2-9 5-12c3-3 7-5 12-5 4 0 8 2 12 5 3 3 4 7 4 12s-1 8-4 12c-7 6-18 6-24 0z m50 49l-17-16c-6-7-6-17 0-24 4-3 8-5 12-5s9 2 12 5l17 17c6 6 6 17 0 23s-18 7-24 0z" horiz-adv-x="1000" />

<glyph glyph-name="imac-1" unicode="&#xe810;" d="M851 850h-702c-43 0-79-35-79-79v-570-79c0-44 36-79 79-79h226c2-31-11-61-36-79l-31-22c-2-1-4-3-5-5-23-2-40-21-40-43 0-24 20-44 44-44h404c24 0 43 20 43 44 0 22-17 41-39 43-1 2-3 4-5 5l-31 22c-25 18-39 48-36 79h208c43 0 79 35 79 79v79 570c0 44-36 79-79 79z m-746-79c0 24 20 44 44 44h702c24 0 44-20 44-44v-535h-790v535z m606-886h-404c-5 0-9 4-9 9s4 9 9 9h13 378 13c4 0 8-4 8-9s-4-9-8-9z m-55 53h-294c32 24 50 64 48 105h198c-3-41 15-81 48-105z m239 184c0-24-20-44-44-44h-201-283-218c-24 0-44 20-44 44v79h790v-79z m-737 553c4 0 9 1 12 5l71 70c6 7 6 18 0 25s-18 7-25 0l-70-70c-7-7-7-18 0-25 3-4 7-5 12-5z m0-88c4 0 9 2 12 5l35 35c7 7 7 18 0 25s-18 7-24 0l-35-35c-7-7-7-18 0-25 3-3 7-5 12-5z m58 100c-3-3-5-8-5-12s2-10 5-13c3-3 7-5 12-5s9 2 13 5c3 3 5 8 5 13s-2 9-5 12c-7 7-19 7-25 0z m35 10c3-3 8-5 12-5s9 2 13 5l52 53c7 7 7 18 0 25s-18 7-25 0l-52-53c-7-7-7-18 0-25z m52-10l-157-158c-7-7-7-18 0-25 3-3 7-5 12-5s9 2 12 5l158 158c7 7 7 18 0 25s-18 7-25 0z m35 35c-3-3-5-8-5-12s2-9 5-13c4-3 8-5 13-5s9 2 12 5c4 4 5 8 5 13s-1 9-5 12c-6 7-18 7-25 0z m53 53l-17-18c-7-7-7-18 0-25 3-3 8-5 12-5s9 2 12 5l18 18c7 7 7 18 0 25s-18 7-25 0z" horiz-adv-x="1000" />

<glyph glyph-name="imac-2" unicode="&#xe811;" d="M117 650c4 0 8 2 12 5l66 67c7 6 7 17 0 23s-17 7-23 0l-67-67c-7-6-7-17 0-23 3-3 7-5 12-5z m0-83c4 0 8 1 12 5l33 33c6 6 6 17 0 23s-17 7-24 0l-33-33c-7-6-7-17 0-23 3-4 7-5 12-5z m55 95c-3-3-5-8-5-12s2-9 5-12c3-3 7-5 11-5s9 2 12 5c3 3 5 8 5 12s-2 9-5 12c-6 6-17 6-23 0z m33 10c3-4 7-5 12-5s8 1 12 5l50 50c6 6 6 17 0 23s-18 7-24 0l-50-50c-7-6-7-17 0-23z m50-10l-150-150c-7-7-7-17 0-24 3-3 7-5 12-5s8 2 12 5l150 150c6 7 6 17 0 24s-18 6-24 0z m33 33c-3-3-5-7-5-12s2-8 5-11c3-3 8-5 12-5s9 2 12 5c3 3 5 7 5 11s-2 9-5 12c-6 6-18 6-24 0z m50 50l-16-17c-7-6-7-17 0-23 3-3 7-5 11-5s9 2 12 5l17 17c6 6 6 17 0 23s-17 7-24 0z m587 105h-850c-41 0-75-34-75-75v-550c0-41 34-75 75-75h375v-50h-17c-128 0-233-105-233-233v-17h600v17c0 128-105 233-233 233h-17v50h375c41 0 75 34 75 75v550c0 41-34 75-75 75z m-358-783c104 0 191-81 199-184h-532c9 103 95 184 199 184h17 100 17z m-50 33h-34v50h34v-50z m450 125c0-23-19-42-42-42h-375-100-375c-23 0-42 19-42 42v550c0 23 19 42 42 42h850c23 0 42-19 42-42v-550z m-50 575h-834c-18 0-33-15-33-33v-534c0-18 15-33 33-33h834c18 0 33 15 33 33v534c0 18-15 33-33 33z m-834-567v534h834l0-534h-834z" horiz-adv-x="1000" />

<glyph glyph-name="imac-3" unicode="&#xe812;" d="M162 594c4 0 9 1 12 5l68 67c6 7 6 18 0 24s-18 7-24 0l-68-67c-7-7-7-18 0-24 3-4 8-5 12-5z m0-85c4 0 9 2 12 5l34 34c6 7 6 17 0 24s-18 6-24 0l-34-34c-7-7-7-17 0-24 3-3 8-5 12-5z m56 97c-3-3-5-8-5-12s2-9 5-12c3-3 7-5 12-5s8 2 12 5c3 3 5 7 5 12s-2 9-5 12c-7 6-18 6-24 0z m33 10c4-4 8-5 12-5s9 1 12 5l51 50c7 7 7 18 0 24s-17 7-24 0l-51-51c-6-6-6-17 0-23z m51-10l-152-152c-7-7-7-18 0-24 3-4 8-5 12-5s9 1 12 5l152 152c7 6 7 17 0 24s-17 6-24 0z m34 34c-3-4-5-8-5-12s2-9 5-12c3-4 7-5 12-5 4 0 9 1 12 5 3 3 5 7 5 12s-2 8-5 12c-6 6-18 6-24 0z m51 50l-17-17c-7-6-7-17 0-24 3-3 7-5 12-5s8 2 12 5l17 17c6 7 6 18 0 24s-18 7-24 0z m549 133c-143 36-729 36-872 0-32-8-54-36-54-69v-804c0-55 45-100 100-100h780c55 0 100 45 100 100v804c0 33-22 61-54 69z m20-873c0-37-29-66-66-66h-780c-37 0-66 29-66 66v804c0 17 11 32 28 37 68 17 248 25 428 25 180 0 360-8 428-25 17-5 28-20 28-37l0-804 0 0z m-769 170c-60 0-109-49-109-109s49-110 109-110 110 49 110 110-49 109-110 109z m71-137c-3 3-7 5-11 5-10 0-17-8-17-17 0-7 4-13 9-16-3-3-8-6-12-9-3 4-8 8-14 8-10 0-17-8-17-17 0-1 0-1 0-2-3 0-6-1-9-1-9 0-17 2-25 5-2 8-8 15-17 15-2 0-4-1-6-1-5 3-9 7-12 12 1 2 1 4 1 6 0 8-5 14-13 16-2 7-4 15-4 24 0 3 1 7 1 11 9 0 16 7 16 16 0 5-2 10-5 13 3 4 5 8 9 11 3-4 8-7 13-7 9 0 17 8 17 17 0 4-1 6-3 9 9 4 18 6 28 6 5 0 10-1 15-2-4-3-6-7-6-13 0-9 7-17 17-17s17 8 17 17c0 1-1 1-1 2 8-5 15-12 20-19-1 0-2 0-2 0-10 0-17-7-17-17s7-16 17-16c6 0 11 3 14 8 1-6 2-13 2-19 0-10-2-19-5-28z m555 137c-61 0-110-49-110-109s49-110 110-110 110 49 110 110-50 109-110 109z m72-133c-8-2-13-8-13-16 0-2 0-4 1-6-3-5-7-9-12-12-2 0-4 1-6 1-9 0-15-7-16-15-9-3-17-5-26-5-3 0-6 1-9 1 0 1 0 1 0 2 0 9-7 17-17 17-6 0-11-3-14-8-4 3-9 6-12 9 5 3 9 9 9 16 0 9-7 17-16 17-5 0-9-2-12-5-3 9-5 18-5 28 0 6 1 13 2 19 3-5 8-8 15-8 9 0 16 7 16 16s-7 17-16 17c-1 0-2 0-3 0 5 7 12 14 20 19 0-1-1-1-1-2 0-9 8-17 17-17s17 8 17 17c0 6-2 10-6 13 5 1 10 2 15 2 10 0 19-2 28-6-2-2-3-5-3-9 0-9 8-17 17-17 6 0 10 3 13 7 4-3 7-7 9-11-3-3-5-8-5-13 0-9 7-16 16-16 0-4 1-8 1-11 0-9-2-17-4-24z m2 776h-774c-20 0-35-16-35-35v-540c0-19 15-35 35-35h774c20 0 36 16 36 35v540c0 19-16 35-36 35z m2-575c0-1-1-1-2-1h-774c-1 0-2 0-2 1v540c0 0 1 1 2 1h774c1 0 2-1 2-1v-540z m-254-186h-270c-9 0-17-7-17-17s8-17 17-17h270c10 0 17 8 17 17s-7 17-17 17z m-101 51c9 0 17 7 17 17s-8 17-17 17h-85c-9 0-17-8-17-17s8-17 17-17h85z" horiz-adv-x="1000" />

<glyph glyph-name="imac-4" unicode="&#xe813;" d="M925 850h-850c-41 0-75-34-75-75v-667c0-41 34-75 75-75h298c2-29-11-58-34-74l-30-21c-2-2-4-3-5-5-11-1-21-11-21-23 0-33 27-60 60-60h314c33 0 60 27 60 60 0 12-9 22-21 23-1 2-3 3-5 5l-30 21c-23 16-36 45-34 74h298c41 0 75 34 75 75v667c0 41-34 75-75 75z m-850-33h850c23 0 42-19 42-42v-575h-934v575c0 23 19 42 42 42z m582-934h-314c-11 0-20 7-24 17h1 360 1c-3-10-13-17-24-17z m-17 50h-279c30 23 47 61 45 100h188c-2-39 15-77 46-100z m285 134h-290-269-291c-23 0-42 18-42 41v59h934v-59c0-23-19-41-42-41z m-608 216h49c19 0 34 16 34 34v49c0 19-15 34-34 34h-49c-18 0-34-15-34-34v-49c0-18 16-34 34-34z m0 84l50-1v-49c0 0-1 0-1 0l-49 0 0 50z m150-84h49c19 0 34 16 34 34v49c0 19-15 34-34 34h-49c-18 0-34-15-34-34v-49c0-18 16-34 34-34z m0 84l50-1v-49c0 0-1 0-1 0l-49 0 0 50z m150-84h49c19 0 34 16 34 34v49c0 19-15 34-34 34h-49c-18 0-34-15-34-34v-49c0-18 16-34 34-34z m0 84l50-1v-49c0 0-1 0-1 0l-49 0 0 50z m150-84h49c19 0 34 16 34 34v49c0 19-15 34-34 34h-49c-18 0-34-15-34-34v-49c0-18 16-34 34-34z m0 84l50-1v-49c0 0-1 0-1 0l-49 0 0 50z m-600-84h49c19 0 34 16 34 34v49c0 19-15 34-34 34h-49c-18 0-34-15-34-34v-49c0-18 16-34 34-34z m0 84l50-1v-49c0 0-1 0-1 0l-49 0 0 50z m466 150c10 0 17 7 17 16v10l38-38c4-3 8-5 12-5s9 2 12 5c6 6 6 17 0 23l-38 39h9c10 0 17 7 17 16s-7 17-17 17h-50c-9 0-16-7-16-17v-50c0-9 7-16 16-16z" horiz-adv-x="1000" />

<glyph glyph-name="ipad" unicode="&#xe814;" d="M930 700h-860c-39 0-70-31-70-70v-560c0-39 31-70 70-70h860c39 0 70 31 70 70v560c0 39-31 70-70 70z m0-667h-860c-20 0-37 17-37 37v560c0 20 17 37 37 37h860c20 0 37-17 37-37v-223c-10 6-21 10-34 10s-23-4-33-10v210h-800v-534h800v210c10-6 21-10 33-10s24 4 34 10v-223c0-20-17-37-37-37z m-63 84h-734v466h734v-466z m100 233c0-18-15-33-34-33s-33 15-33 33 15 33 33 33 34-15 34-33z m-784 100c5 0 9 2 12 5l67 67c6 6 6 17 0 23s-17 7-24 0l-66-67c-7-6-7-17 0-23 3-3 7-5 11-5z m0-83c5 0 9 1 12 5l34 33c6 6 6 17 0 23s-18 7-24 0l-33-33c-7-6-7-17 0-23 3-4 7-5 11-5z m55 95c-3-3-5-7-5-12s2-9 5-12c3-3 8-5 12-5s9 2 12 5c3 3 5 8 5 12s-2 9-5 12c-6 6-18 6-24 0z m34 10c3-4 7-5 11-5s9 1 12 5l50 50c7 6 7 17 0 23s-17 7-23 0l-50-50c-7-6-7-17 0-23z m-89-189c5 0 9 2 12 5l150 150c7 7 7 17 0 24s-17 6-23 0l-150-150c-7-7-7-17 0-24 3-3 7-5 11-5z m172 189c3-3 7-5 12-5s8 2 12 5c3 3 4 7 4 11s-1 9-4 12c-7 6-18 6-24 0-3-3-5-7-5-12s2-8 5-11z m45 28c4 0 9 2 12 5l17 17c6 6 6 17 0 23s-18 7-24 0l-17-17c-6-6-6-17 0-23 4-3 8-5 12-5z" horiz-adv-x="1000" />

<glyph glyph-name="ipad-1" unicode="&#xe815;" d="M955 717h-910c-25 0-45-20-45-45v-644c0-24 20-45 45-45h910c25 0 45 21 45 45v644c0 25-20 45-45 45z m12-45v-265c-10 6-21 10-34 10s-23-4-33-10v276h55c7 0 12-5 12-11z m-100-655h-734v666h734v-666z m100 333c0-18-15-33-34-33s-33 15-33 33 15 33 33 33 34-15 34-33z m-934-322v644c0 6 6 11 12 11h55v-666h-55c-6 0-12 5-12 11z m922-11h-55v276c10-6 21-10 33-10s24 4 34 10v-265c0-6-5-11-12-11z m-888 366c-9 0-17-7-17-16v-34c0-9 8-16 17-16s16 7 16 16v34c0 9-7 16-16 16z m133 167c4 0 9 2 12 5l67 67c6 6 6 17 0 23s-18 7-24 0l-67-67c-6-6-6-17 0-23 4-3 8-5 12-5z m0-83c4 0 9 1 12 5l33 33c7 6 7 17 0 23s-17 7-23 0l-34-33c-6-6-6-17 0-23 4-4 8-5 12-5z m55 95c-3-3-5-8-5-12s2-9 5-12c3-3 7-5 12-5s8 2 12 5c3 3 4 8 4 12s-1 9-4 12c-7 6-18 6-24 0z m33 10c4-4 8-5 12-5s9 1 12 5l50 50c6 6 6 17 0 23s-17 7-24 0l-50-50c-6-6-6-17 0-23z m50-10l-150-150c-6-7-6-17 0-24 4-3 8-5 12-5s9 2 12 5l150 150c6 7 6 17 0 24s-17 6-24 0z m34 33c-3-3-5-7-5-12s2-8 5-11c3-3 7-5 11-5s9 2 12 5c3 3 5 7 5 11s-2 9-5 12c-6 6-17 6-23 0z m50 50l-17-17c-7-6-7-17 0-23 3-3 7-5 12-5s8 2 12 5l16 17c7 6 7 17 0 23s-17 7-23 0z" horiz-adv-x="1000" />

<glyph glyph-name="ipad-2" unicode="&#xe816;" d="M217 583c4 0 8 2 12 5l66 67c7 6 7 17 0 23s-17 7-23 0l-67-66c-7-7-7-17 0-24 3-3 7-5 12-5z m0-83c4 0 8 2 12 5l33 33c6 7 6 17 0 24s-17 6-24 0l-33-34c-7-6-7-17 0-23 3-3 7-5 12-5z m55 95c-3-3-5-7-5-12s2-8 5-11c3-3 7-5 11-5s9 2 12 5c3 3 5 7 5 11s-2 9-5 12c-6 6-17 6-23 0z m33 10c3-3 7-5 12-5s8 2 12 5l50 50c6 6 6 17 0 23s-18 7-24 0l-50-50c-7-6-7-17 0-23z m50-10l-150-150c-7-6-7-17 0-23 3-4 7-5 12-5s8 1 12 5l150 150c6 6 6 17 0 23s-18 7-24 0z m33 34c-3-4-5-8-5-12s2-9 5-12c3-3 8-5 12-5s9 2 12 5c3 3 5 7 5 12s-2 8-5 12c-6 6-18 6-24 0z m50 49l-16-16c-7-7-7-17 0-24 3-3 7-5 11-5s9 2 12 5l17 17c6 6 6 17 0 23s-17 7-24 0z m95 122h-16c-9 0-17-7-17-17s8-16 17-16h16c10 0 17 7 17 16s-7 17-17 17z m269 50h-604c-35 0-65-30-65-66v-34-767-67c0-36 30-66 65-66h604c36 0 65 30 65 66v67 767 34c0 36-29 66-65 66z m-285-950c-19 0-34 15-34 33s15 34 34 34 33-15 33-34-15-33-33-33z m-350 817h666v-700h-666v700z m0-801v67h306c-14-12-23-30-23-50s9-37 23-50h-275c-17 0-31 15-31 33z m666 0c0-18-14-33-31-33h-242c14 13 23 30 23 50s-9 38-23 50h273v-67z m-666 834v34c0 18 14 33 31 33h604c17 0 31-15 31-33v-34h-666z" horiz-adv-x="1000" />

<glyph glyph-name="ipad-3" unicode="&#xe817;" d="M267 583c4 0 8 2 12 5l66 67c7 6 7 17 0 23s-17 7-23 0l-67-66c-7-7-7-17 0-24 3-3 7-5 12-5z m0-83c4 0 8 2 12 5l33 33c6 7 6 17 0 24s-17 6-24 0l-33-34c-7-6-7-17 0-23 3-3 7-5 12-5z m55 95c-3-3-5-7-5-12 0-4 2-8 5-11 3-4 7-5 11-5s9 2 12 5c3 3 5 7 5 11 0 5-2 9-5 12-6 6-17 6-23 0z m33 10c3-3 7-5 12-5s8 2 12 5l50 50c6 6 6 17 0 23s-18 7-24 0l-50-50c-7-6-7-17 0-23z m-88-188c4 0 8 1 12 5l150 150c6 6 6 17 0 23s-18 7-24 0l-150-150c-7-6-7-17 0-23 3-4 7-5 12-5z m171 188c3-3 8-5 12-5 4 0 9 2 12 5 3 3 5 7 5 12s-2 8-5 12c-6 6-18 6-24 0-3-4-5-8-5-12s2-9 5-12z m45 28c5 0 9 2 12 5l17 17c6 6 6 17 0 23s-17 7-24 0l-16-16c-7-7-7-17 0-24 3-3 7-5 11-5z m34 167h-17c-9 0-17-7-17-17s8-16 17-16h17c9 0 16 7 16 16s-7 17-16 17z m285 50h-604c-35 0-65-30-65-66v-868c0-36 30-66 65-66h604c36 0 65 30 65 66v868c0 36-29 66-65 66z m31-934c0-18-14-33-31-33h-302-302c-17 0-31 15-31 33v868c0 18 14 33 31 33h604c17 0 31-15 31-33v-868z m-16 834h-634v-733h317 317v733z m-34-700h-566v667h566v-667z m-216-100c0 37-30 67-67 67s-67-30-67-67 30-67 67-67 67 30 67 67z m-67-33c-18 0-33 15-33 33s15 33 33 33 33-15 33-33-15-33-33-33z" horiz-adv-x="1000" />

<glyph glyph-name="iphone" unicode="&#xe818;" d="M292 600c4 0 8 2 12 5l66 67c7 6 7 17 0 23s-17 7-23 0l-67-67c-7-6-7-17 0-23 3-3 7-5 12-5z m0-83c4 0 8 1 12 5l33 33c6 6 6 17 0 23s-17 7-24 0l-33-33c-7-6-7-17 0-23 3-4 7-5 12-5z m55 95c-3-3-5-8-5-12s2-9 5-12c3-3 7-5 11-5s9 2 12 5c3 3 5 8 5 12 0 5-2 9-5 12-6 6-17 6-23 0z m33 10c3-4 7-5 12-5s8 1 12 5l50 50c6 6 6 17 0 23s-18 7-24 0l-50-50c-7-6-7-17 0-23z m50-10l-150-150c-7-7-7-17 0-24 3-3 7-5 12-5s8 2 12 5l150 150c6 7 6 17 0 24s-18 6-24 0z m33 33c-3-3-5-7-5-12 0-4 2-8 5-11 3-3 8-5 12-5s9 2 12 5c3 3 5 7 5 11 0 5-2 9-5 12-6 6-18 6-24 0z m50 50l-16-17c-7-6-7-17 0-23 3-3 7-5 11-5s9 2 12 5l17 17c6 6 6 17 0 23s-17 7-24 0z m213 155h-435c-36 0-66-30-66-66v-34-50c-9 0-17-7-17-17v-16c0-10 8-17 17-17v-17c-9 0-17-7-17-16v-17c0-9 8-17 17-17v-16c-9 0-17-8-17-17v-17c0-9 8-16 17-16v-534-67c0-36 30-66 66-66h435c36 0 66 30 66 66v67 767 34c0 36-30 66-66 66z m-218-950c-18 0-33 15-33 33s15 34 33 34 34-15 34-34-15-33-34-33z m-250 817h500v-700h-500v700z m0-801v67h207c-14-12-23-30-23-50s9-37 23-50h-174c-18 0-33 15-33 33z m500 0c0-18-14-33-32-33h-174c14 13 23 30 23 50s-9 38-23 50h206v-67z m-500 834v34c0 18 15 33 33 33h435c18 0 32-15 32-33v-34h-500z m317 50h-83c-9 0-17-7-17-17s8-16 17-16h83c9 0 17 7 17 16s-8 17-17 17z m-133 0h-17c-9 0-17-7-17-17s8-16 17-16h17c9 0 16 7 16 16s-7 17-16 17z" horiz-adv-x="1000" />

<glyph glyph-name="iphone-1" unicode="&#xe819;" d="M689 150h-61c-11 0-20-9-20-19v-62c0-10 9-19 20-19h61c11 0 19 9 19 19v62c0 10-8 19-19 19z m-14-67h-33v34h33v-34z m-136 67h-61c-11 0-20-9-20-19v-62c0-10 9-19 20-19h61c11 0 19 9 19 19v62c0 10-8 19-19 19z m-14-67h-33v34h33v-34z m-136 67h-61c-11 0-20-9-20-19v-62c0-10 9-19 20-19h61c11 0 19 9 19 19v62c0 10-8 19-19 19z m-14-67h-33v34h33v-34z m351 767h-435c-36 0-66-30-66-66v-34-50c-9 0-17-7-17-17v-16c0-10 8-17 17-17v-17c-9 0-17-7-17-16v-17c0-9 8-17 17-17v-16c-9 0-17-8-17-17v-17c0-9 8-16 17-16v-534-67c0-36 30-66 66-66h435c36 0 66 30 66 66v67 767 34c0 36-30 66-66 66z m-218-950c-18 0-33 15-33 33s15 34 33 34 34-15 34-34-15-33-34-33z m-250 817h500v-700h-500v700z m0-801v67h207c-14-12-23-30-23-50s9-37 23-50h-174c-18 0-33 15-33 33z m500 0c0-18-14-33-32-33h-174c14 13 23 30 23 50s-9 38-23 50h206v-67z m-500 834v34c0 18 15 33 33 33h435c18 0 32-15 32-33v-34h-500z m317 50h-83c-9 0-17-7-17-17s8-16 17-16h83c9 0 17 7 17 16s-8 17-17 17z m-133 0h-17c-9 0-17-7-17-17s8-16 17-16h17c9 0 16 7 16 16s-7 17-16 17z" horiz-adv-x="1000" />

<glyph glyph-name="iphone-2" unicode="&#xe81a;" d="M342 600c4 0 8 2 12 5l66 67c7 6 7 17 0 23s-17 7-23 0l-67-67c-7-6-7-17 0-23 3-3 7-5 12-5z m0-83c4 0 8 1 12 5l33 33c6 6 6 17 0 23s-17 7-24 0l-33-33c-7-6-7-17 0-23 3-4 7-5 12-5z m55 95c-3-3-5-8-5-12s2-9 5-12c3-3 7-5 11-5s9 2 12 5c3 3 5 8 5 12 0 5-2 9-5 12-6 6-17 6-23 0z m33 10c3-4 7-5 12-5s8 1 12 5l50 50c6 6 6 17 0 23s-18 7-24 0l-50-50c-7-6-7-17 0-23z m50-10l-150-150c-7-7-7-17 0-24 3-3 7-5 12-5s8 2 12 5l150 150c6 7 6 17 0 24s-18 6-24 0z m33 33c-3-3-5-7-5-12s2-8 5-11c3-3 8-5 12-5s9 2 12 5c3 3 5 7 5 11s-2 9-5 12c-6 6-18 6-24 0z m50 50l-16-17c-7-6-7-17 0-23 3-3 7-5 11-5s9 2 12 5l17 17c6 6 6 17 0 23s-17 7-24 0z m180 155h-469c-27 0-49-22-49-49v-101c-9 0-17-7-17-17v-16c0-10 8-17 17-17v-17c-9 0-17-7-17-16v-17c0-9 8-17 17-17v-16c-9 0-17-8-17-17v-17c0-9 8-16 17-16v-618c0-27 22-49 49-49h469c27 0 49 22 49 49v902c0 27-22 49-49 49z m-235-883c19 0 34-15 34-34s-15-33-34-33-33 15-33 33 15 34 33 34z m250-68c0-9-7-16-15-16h-191c14 13 23 30 23 50s-9 38-23 50h190v767h-467v-767h190c-14-12-23-30-23-50s9-37 23-50h-191c-9 0-16 7-16 16v902c0 9 7 16 16 16h469c8 0 15-7 15-16v-902z m-450 118v700h400v-700h-400z m234 783h-84c-9 0-16-7-16-17s7-16 16-16h84c9 0 16 7 16 16s-7 17-16 17z" horiz-adv-x="1000" />

<glyph glyph-name="iphone-3" unicode="&#xe81b;" d="M339 564c5 0 9 2 13 6l71 71c7 7 7 18 0 25s-18 7-25 0l-71-71c-7-7-7-18 0-25 3-4 8-6 12-6z m0-89c5 0 9 2 13 5l36 36c7 7 7 18 0 25s-19 7-26 0l-35-35c-7-7-7-19 0-26 3-3 8-5 12-5z m59 102c-3-3-5-8-5-13s2-9 5-12c3-4 8-6 13-6s9 2 12 6c4 3 6 8 6 12s-2 10-6 13c-6 7-18 7-25 0z m36 10c3-3 8-5 12-5s10 2 13 5l54 54c7 7 7 18 0 25s-19 7-26 0l-53-53c-7-7-7-19 0-26z m53-10l-160-161c-7-7-7-18 0-25 3-3 8-5 12-5s9 2 13 5l161 161c7 7 7 18 0 25s-19 7-26 0z m36 36c-3-4-5-8-5-13 0-5 2-9 5-13 3-3 8-5 13-5s9 2 12 5c4 4 6 8 6 13s-2 9-6 13c-6 6-18 6-25 0z m54 53l-18-18c-7-7-7-18 0-25 3-3 8-5 12-5s10 2 13 5l18 18c7 7 7 18 0 25s-18 7-25 0z m131 184h-398c-53 0-96-43-96-96v-29c-10 0-18-8-18-18v-18c0-10 8-18 18-18v-17c-10 0-18-8-18-18v-18c0-10 8-18 18-18v-18c-10 0-18-8-18-18v-18c0-9 8-17 18-17v-583c0-53 43-96 96-96h398c53 0 96 43 96 96v808c0 53-43 96-96 96z m60-904c0-33-27-60-60-60h-398c-33 0-60 27-60 60v808c0 33 27 60 60 60h398c33 0 60-27 60-60v-808z m-500 65h482v714h-482v-714z m36 678h410v-643h-410v643z m214 54h53c10 0 18 8 18 18s-8 18-18 18h-53c-10 0-18-8-18-18s8-18 18-18z m-72 0c5 0 10 2 13 5 3 3 5 8 5 13s-2 9-5 12c-7 7-18 7-25 0-3-3-5-7-5-12 0-5 2-10 5-13 3-3 8-5 12-5z" horiz-adv-x="1000" />

<glyph glyph-name="iphone-4" unicode="&#xe81c;" d="M330 548c5 0 10 2 14 6l75 75c7 8 7 19 0 27s-19 7-27 0l-75-76c-7-7-7-19 0-26 4-4 8-6 13-6z m0-94c5 0 10 2 14 5l37 38c8 7 8 19 0 27s-19 7-26 0l-38-38c-7-7-7-19 0-27 4-3 8-5 13-5z m62 108c-3-4-5-9-5-14s2-10 5-13c4-4 9-6 14-6s10 2 13 6c4 3 6 8 6 13s-2 10-6 14c-7 7-20 7-27 0z m38 11c4-4 9-6 13-6s10 2 14 6l56 56c8 8 8 19 0 27s-19 7-26 0l-57-57c-7-7-7-19 0-26z m57-11l-170-170c-7-8-7-20 0-27 4-4 8-6 13-6s10 2 14 6l169 170c8 7 8 19 0 27s-19 7-26 0z m37 37c-3-3-5-8-5-13s2-10 5-13c4-4 9-6 14-6s10 2 13 6c4 3 6 8 6 13s-2 10-6 13c-7 7-19 7-27 0z m57 57l-19-19c-7-7-7-19 0-27 4-3 9-5 14-5s9 2 13 5l19 19c7 8 7 19 0 27s-20 7-27 0z m86 194h-315c-78 0-142-58-152-132-1 0-1 0-2 0-10 0-19-8-19-19v-19c0-10 9-19 19-19v-18c-10 0-19-9-19-19v-19c0-11 9-19 19-19v-19c-10 0-19-8-19-19v-19c0-10 9-19 19-19v-506c0-85 69-154 154-154h315c85 0 154 69 154 154v693c0 84-69 153-154 153z m116-846c0-64-52-116-116-116h-315c-64 0-116 52-116 116v693c0 63 52 115 116 115h315c64 0 116-52 116-115v-693z m-481 714c-26 0-47-21-47-47v-604c0-26 21-47 47-47h415c26 0 47 21 47 47v604c0 26-21 47-47 47h-415z m424-47v-604c0-5-4-9-9-9h-415c-5 0-9 4-9 9v604c0 5 4 9 9 9h415c5 0 9-4 9-9z m-207 66h57c10 0 18 8 18 19s-8 19-18 19h-57c-10 0-19-9-19-19s9-19 19-19z m-76 0c5 0 10 2 14 5 3 4 5 9 5 14s-2 10-5 13c-7 7-20 7-27 0-3-3-5-8-5-13 0-5 2-10 5-14 4-3 9-5 13-5z" horiz-adv-x="1000" />

<glyph glyph-name="iphones" unicode="&#xe81d;" d="M583 800h-83c-9 0-17-7-17-17s8-16 17-16h83c10 0 17 7 17 16s-7 17-17 17z m-133 0h-17c-9 0-16-7-16-17s7-16 16-16h17c9 0 17 7 17 16s-8 17-17 17z m-265-183h15c9 0 16 7 16 16s-7 17-16 17h-15c-9 0-16-7-16-17s7-16 16-16z m757 83h-159v50 34c0 36-29 66-66 66h-418c-36 0-66-30-66-66v-34-51h-161c-32 0-58-26-58-58v-69c-8-1-14-8-14-16v-14c0-9 6-15 14-16v-10c-8-2-14-8-14-16v-15c0-8 6-14 14-16v-10c-8-1-14-7-14-16v-14c0-8 6-15 14-16v-505c0-32 26-58 58-58h227 418 225c32 0 58 26 58 58v59 633 42c0 32-26 58-58 58z m-159-133h184v-567h-184v567z m-516 217c0 18 14 33 32 33h418c18 0 33-15 33-33v-34h-483v34z m0-67h483v-17-100-567h-483v567 99 18z m-195-51h161v-66h-186v41c0 13 12 25 25 25z m161-666h-183v567h183v-567z m-161-117c-13 0-25 11-25 25v59h186v-51c0-4 1-8 2-12 0-1 0-2 0-3 1-3 2-7 4-11 0 0 0 0 0 0 1-3 2-5 3-7h-170z m227 0c-18 0-32 15-32 33v51 33h483v-33-51c0-18-15-33-33-33h-418z m668 25c0-13-11-25-25-25h-167c1 2 2 4 3 7 0 0 0 0 0 0 2 4 3 8 4 11 0 1 0 2 0 3 1 4 1 8 1 12v51h184v-59z m-184 692v17h50c10 0 17 7 17 16s-7 17-17 17h-50v17h159c14 0 25-12 25-25v-42h-184z m-450-33c5 0 9 1 12 5l67 66c6 7 6 17 0 24s-17 6-24 0l-66-67c-7-6-7-17 0-23 3-4 7-5 11-5z m0-84c5 0 9 2 12 5l34 34c6 6 6 17 0 23s-18 7-24 0l-33-33c-7-7-7-17 0-24 3-3 7-5 11-5z m55 96c-3-4-5-8-5-12s2-9 5-12c3-3 8-5 12-5s9 2 12 5c3 3 5 7 5 12s-2 8-5 12c-6 6-17 6-24 0z m34 9c3-3 7-5 11-5s9 2 12 5l50 50c7 7 7 17 0 24s-17 6-23 0l-50-50c-7-7-7-17 0-24z m-89-188c5 0 9 2 12 5l150 150c7 6 7 17 0 23s-17 7-23 0l-150-150c-7-6-7-17 0-23 3-3 7-5 11-5z m172 188c3-3 7-5 12-5s8 2 12 5c3 3 4 8 4 12s-1 9-4 12c-7 6-18 6-24 0-3-3-5-8-5-12s2-9 5-12z m45 29c4 0 9 1 12 5l17 16c6 7 6 17 0 24s-18 6-24 0l-17-17c-6-6-6-17 0-23 4-4 8-5 12-5z" horiz-adv-x="1000" />

<glyph glyph-name="ipod" unicode="&#xe81e;" d="M317 617c4 0 8 1 12 5l66 66c7 7 7 17 0 24-6 6-17 6-23 0l-67-67c-7-6-7-17 0-23 3-4 7-5 12-5z m21-22l-33-33c-7-7-7-17 0-24 3-3 7-5 12-5s8 2 12 5l33 34c6 6 6 17 0 23-7 7-17 7-24 0z m34 34c-3-4-5-8-5-12 0-5 2-9 5-12 3-3 7-5 11-5s9 2 12 5c3 3 5 7 5 12 0 4-2 8-5 11-6 7-17 7-23 1z m83 83l-50-50c-7-7-7-17 0-24 3-3 7-5 12-5s8 2 12 5l50 50c6 7 6 17 0 24-7 6-18 6-24 0z m312 138h-533c-37 0-67-30-67-67v-866c0-37 30-67 67-67h533c36 0 66 30 66 67v866c0 37-30 67-66 67z m33-933c0-19-15-34-33-34h-533c-19 0-34 15-34 34v866c0 19 15 34 34 34h533c18 0 33-15 33-34 0 0 0-866 0-866z m-550 500h500v350h-500c0 0 0-350 0-350z m33 316h434v-283h-434c0 0 0 283 0 283z m217-350c-129 0-233-104-233-233s104-233 233-233 233 104 233 233-104 233-233 233z m0-433c-110 0-200 90-200 200s90 200 200 200 200-90 200-200-90-200-200-200z m0 283c-46 0-83-37-83-83s37-83 83-83c46 0 83 37 83 83s-37 83-83 83z m0-133c-28 0-50 22-50 50s22 50 50 50 50-22 50-50-22-50-50-50z m-17 167h34c9 0 16 7 16 16s-7 17-16 17h-34c-9 0-16-7-16-17s7-16 16-16z m34-234h-34c-9 0-16-7-16-16s7-17 16-17h34c9 0 16 8 16 17s-7 16-16 16z m100 117c0-9 7-17 16-17h17c9 0 17 8 17 17s-8 17-17 17h-17c-9 0-16-8-16-17z m-250 17h-17c-9 0-17-8-17-17s8-17 17-17h17c9 0 16 8 16 17s-7 17-16 17z" horiz-adv-x="1000" />

<glyph glyph-name="ipod-1" unicode="&#xe81f;" d="M317 617c4 0 8 1 12 5l66 66c7 7 7 17 0 24-6 6-17 6-23 0l-67-67c-7-6-7-17 0-23 3-4 7-5 12-5z m21-22l-33-33c-7-7-7-17 0-24 3-3 7-5 12-5s8 2 12 5l33 34c6 6 6 17 0 23-7 7-17 7-24 0z m34 34c-3-4-5-8-5-12 0-5 2-9 5-12 3-3 7-5 11-5s9 2 12 5c3 3 5 7 5 12 0 4-2 8-5 12-6 6-17 6-23 0z m83 83l-50-50c-7-7-7-17 0-24 3-3 7-5 12-5s8 2 12 5l50 50c6 7 6 17 0 24-7 6-18 6-24 0z m312 138h-533c-37 0-67-30-67-67v-866c0-37 30-67 67-67h533c36 0 66 30 66 67v866c0 37-30 67-66 67z m33-933c0-19-15-34-33-34h-533c-19 0-34 15-34 34v866c0 19 15 34 34 34h533c18 0 33-15 33-34 0 0 0-866 0-866z m-550 500h500v350h-500c0 0 0-350 0-350z m33 316h434v-283h-434c0 0 0 283 0 283z m382-418c0 0 0 0-1 0-42 42-100 68-164 68s-122-26-164-68c-1 0-1 0-1 0 0 0 0 0 0-1-42-42-68-100-68-164 0-64 26-122 67-164 1 0 1-1 1-1 0-1 1-1 1-1 43-42 100-67 164-67 64 0 122 25 164 67 0 0 1 0 1 1 0 0 0 1 1 1 41 42 67 100 67 164 0 64-26 122-68 164 0 1 0 1 0 1z m-165 35c49 0 94-18 129-47l-35-36c-26 21-59 33-94 33-35 0-68-12-93-33l-36 36c35 29 80 47 129 47z m117-200c0-64-53-117-117-117s-117 53-117 117 53 117 117 117 117-53 117-117z m-317 0c0 49 18 94 47 129l36-35c-21-26-33-59-33-94 0-35 12-68 33-94l-35-35c-30 35-48 80-48 129z m200-200c-49 0-94 18-129 47l36 36c25-21 58-33 93-33 35 0 68 12 93 33l36-36c-35-29-80-47-129-47z m153 71l-36 35c21 26 33 59 33 94 0 35-12 68-33 94l36 35c29-35 47-80 47-129 0-49-18-94-47-129z" horiz-adv-x="1000" />

<glyph glyph-name="jack" unicode="&#xe820;" d="M979 815c-17 21-42 34-69 35-27 1-52-9-71-28l-14-13c-7-7-11-17-11-27s4-19 11-27l-26-26c-15 14-40 14-54 0l-201-201-40 40-322-322c-28-28-44-66-44-107 0-20 4-40 12-59l-133-133c-11-11-17-25-17-40 0-15 6-30 17-40 11-12 26-17 40-17 15 0 29 5 40 17l134 133c18-8 38-12 59-12 38 0 77 15 107 44l321 322-40 40 201 201c15 14 15 38 0 53l27 27c15-15 39-15 53 0l11 11c36 36 40 92 9 129z m-782-795l-126-127c-8-7-20-7-27 0-4 4-6 9-6 14 0 5 2 10 6 13l126 126c0 0 1 0 1-1 3-4 7-9 11-13 0 0 0 0 1 0 0 0 0 0 0 0 4-4 8-8 13-12 0 0 0 0 1 0z m173 39c-38-38-96-43-139-17-2 2-4 3-6 4-5 4-11 8-16 13 0 0 0 0 0 0l0 0c-3 3-6 7-10 11 0 1-1 2-1 2-3 4-6 9-8 13l-1 2c-9 16-13 34-13 52 0 31 12 59 33 81l228 227 161-160-228-228z m295 295l-41-41-160 161 40 40 161-160z m-94 147l134 134 80-81-134-134-80 81z m308 147l-13 14 13-14c0 0 0 0 0 0z m65 65l-11-11c-15 15-39 15-54 0l-27-27c-7-7-11-17-11-27 0-10 4-19 11-27l-40-40-80 81 40 40c15-15 39-15 53 0l27 27c15 14 15 38 0 53l14 14c11 11 27 17 43 16 16-1 30-8 41-21 18-22 15-56-6-78z" horiz-adv-x="1000" />

<glyph glyph-name="joystick" unicode="&#xe821;" d="M275 63c-36 0-64-29-64-64s28-64 64-64c35 0 64 29 64 64s-29 64-64 64z m0-94c-17 0-30 13-30 30s13 30 30 30 30-13 30-30-14-30-30-30z m505 119c-9 0-17-8-17-17 0-66-53-119-118-119-10 0-17-8-17-17s7-17 17-17c84 0 152 69 152 153 0 9-7 17-17 17z m-390 561c9 0 17 7 17 17 0 37 30 68 68 68 9 0 17 7 17 17s-8 17-17 17c-57 0-102-46-102-102 0-10 7-17 17-17z m368-68h-94c11 24 17 51 17 79 0 105-85 190-189 190s-190-85-190-190c0-28 6-55 17-79h-77c-59 0-107-48-107-108v-516c0-59 48-107 107-107h516c59 0 107 48 107 107v516c0 60-48 108-107 108z m-266 235c85 0 155-70 155-156 0-33-11-64-29-90-2-3-5-7-7-10-2-2-4-4-6-6-2-2-4-4-6-6-2-2-4-4-6-6-3-2-5-4-8-6-2-1-4-3-6-4-4-3-9-6-14-9-1-1-3-1-4-2-4-2-8-4-11-5-2-1-4-1-6-2-3-1-7-2-10-3-5-2-10-3-15-4-1 0-3 0-4-1-1 0-2 0-2 0-14-2-29-2-42 0-1 0-2 0-3 0-1 1-3 1-4 1-5 1-10 2-15 4-3 1-6 2-10 3-2 1-4 1-6 2-3 1-7 3-11 5-1 1-3 1-4 2-5 3-10 6-14 9-2 1-4 3-6 4-3 2-5 4-8 6-2 2-4 4-6 6-2 2-4 4-6 6-2 2-4 4-5 6-3 3-6 7-8 10-18 26-29 57-29 90 0 86 70 156 156 156z m0-646c37 0 68 31 68 68v136c45-25 75-73 75-126 0-79-65-143-143-143s-144 64-144 143c0 53 30 101 76 126v-136c0-37 30-68 68-68z m34 253v-185c0-19-16-34-34-34s-34 15-34 34v185 51c2-1 5-1 7-1 2-1 4-1 5-1 1 0 2 0 3 0 6-1 11-1 16-1 1 0 2 0 3 0s1 0 2 0c5 0 11 0 16 1 1 0 2 0 3 0 1 0 3 0 5 1 2 0 5 0 8 1v-51z m-102-12c-66-27-110-91-110-163 0-98 80-177 178-177s177 79 177 177c0 72-44 136-109 163v22c81-28 135-105 135-192 0-113-91-204-203-204s-204 91-204 204c0 87 54 164 136 192v-22z m407-454c0-40-32-73-73-73h-516c-40 0-73 33-73 73v516c0 41 33 74 73 74h97c1-1 3-3 4-4 2-3 4-5 6-8 3-2 5-5 7-7 3-3 5-5 7-7 4-4 8-7 12-10 4-3 7-6 11-8 2-2 5-3 8-5 3-2 6-4 10-6 2-1 5-2 7-3 4-2 8-4 12-5 0 0 0-1 1-1v-14c-101-30-170-122-170-228 0-131 106-238 238-238s237 107 237 238c0 106-69 198-169 228v14c0 0 0 1 0 1 4 1 8 3 12 5 2 1 5 2 7 3 4 2 7 4 10 6 3 2 6 3 8 5 4 2 7 5 11 8 4 3 8 6 12 10 2 2 4 4 7 7 2 2 4 5 7 7 2 3 4 5 6 8 1 1 3 3 4 4h114c40 0 73-33 73-74v-516h0z" horiz-adv-x="1000" />

<glyph glyph-name="joystick-1" unicode="&#xe822;" d="M1000 208h-36c-11 58-62 100-122 100h-9v20c0 26-21 47-47 47h-72c-26 0-47-21-47-47v-20h-50v20c0 26-21 47-47 47h-73c-26 0-47-21-47-47v-20h-150v162c59 23 100 80 100 147 0 87-71 158-158 158s-159-71-159-158c0-67 42-124 100-147v-162h-25c-60 0-111-42-122-100h-36v-166h167v-17h1c8-38 42-67 82-67h167c18 0 33-15 33-33h33c0 37-30 67-66 67h-167c-28 0-50 22-50 50h800v166z m-300 120c0 8 6 14 14 14h72c8 0 14-6 14-14v-20h-100v20z m-217 0c0 8 7 14 14 14h73c7 0 13-6 13-14v-20h-100v20z m-366 289c0 69 56 125 125 125s125-56 125-125c0-56-37-104-88-120l0 0c0 0-1 0-1 0-5-1-10-3-16-3-1-1-2-1-3-1-12-2-23-2-34 0-1 0-3 0-4 1-5 0-10 2-16 3 0 0 0 0 0 0l0 0c-51 16-88 64-88 120z m100-157c2 0 4 0 5 0 2-1 4-1 5-1 5 0 9-1 13-1 1 0 1 0 2 0s1 0 1 0c4 0 9 1 13 1 2 0 3 0 5 1 2 0 4 0 6 0v-152h-50v152h0z m-59-185h25 117 150 167 50 166 9c41 0 77-28 88-67h-860c11 39 47 67 88 67z m809-200h-767v17h-33v-17h-134v100h934v-100z m-717 600c9 0 17 7 17 17s-8 16-17 16c-55 0-100-44-100-100 0-9 8-16 17-16s16 7 16 16c0 37 30 67 67 67z" horiz-adv-x="1000" />

<glyph glyph-name="joystick-2" unicode="&#xe823;" d="M653 626c0 37 30 67 67 67 9 0 16 8 16 17s-7 17-16 17c-56 0-101-45-101-101 0-9 8-16 17-16s17 7 17 16z m347-600l-22 64c-8 39-41 67-81 67h-18c-10 30-33 52-62 62-5 41-40 72-82 72h-51l44 135c105 0 191 86 191 192 0 106-87 193-193 193s-192-87-192-193c0-65 32-123 82-158l-56-169h-77c-42 0-77-31-82-72-29-10-52-32-62-62h-42c-7 39-41 67-82 67h-33c-41 0-75-29-82-67-39-2-71-29-78-67l-21-61-1-3c-1-8 1-17 7-24 5-7 14-12 24-12h137 1c8-38 42-67 82-67h168c18 0 33-15 33-34h34c0 37-30 67-67 67h-168c-21 0-40 14-47 34h766l1 0c9 0 17 5 22 12 6 7 8 16 7 24z m-433 592c0 88 71 159 159 159s159-71 159-159-71-159-159-159c-2 0-5 0-7 0l-2 0c-26 2-50 9-72 22-47 28-78 79-78 137z m79-175c0 0 0 0 0 0 15-7 31-12 47-15l-44-137h-53l50 152z m-163-185h66 124 62c22 0 41-14 47-34h-346c7 20 25 34 47 34z m-62-68c4 0 8 1 12 1h352c4 0 8-1 12-1 1 0 2-1 3-1l4-1c17-5 30-16 39-31h-468c10 17 27 29 46 33z m-239 1h33c22 0 41-14 48-34h-129c7 20 26 34 48 34z m19-168v34h-33v-34h-133l19 57 1 3c4 24 24 41 49 41h195 31 557 10c24 0 44-17 48-41l20-60c0 0-764 0-764 0z" horiz-adv-x="1000" />

<glyph glyph-name="lisa" unicode="&#xe824;" d="M263 613c4 0 8 1 12 5l68 68c6 6 6 17 0 23s-18 7-24 0l-68-67c-7-7-7-18 0-24 3-4 7-5 12-5z m22-22l-34-34c-7-7-7-17 0-24 3-3 7-5 12-5s8 2 12 5l34 34c6 7 6 17 0 24s-18 6-24 0z m34 34c-4-3-5-8-5-12s1-9 5-12c3-3 7-5 12-5 4 0 8 2 12 5 3 3 5 7 5 12s-2 9-5 12c-7 6-18 6-24 0z m84 84l-51-50c-6-7-6-18 0-24 4-4 8-5 12-5s9 1 12 5l51 51c7 6 7 17 0 23s-17 7-24 0z m415 141h-636c-40 0-72-32-72-72v-680c0-31 22-56 51-60v-117c0-39 32-71 71-71h536c39 0 71 32 71 71v117c29 4 51 29 51 60v680c0 40-32 72-72 72z m-13-929c0-20-17-37-37-37h-48v136h-34v-136h-33v136h-34v-136h-34v136h-34v-136h-34v136h-34v-136h-34v136h-34v-136h-34v136h-33v-136h-34v136h-34v-136h-48c-20 0-37 17-37 37v115h610v-115z m51 177c0-15-12-28-27-28h-658c-15 0-27 13-27 28v680c0 21 17 38 38 38h636c21 0 38-17 38-38v-680z m-81 684h-550c-26 0-47-21-47-46v-367c0-34 27-61 61-61h522c34 0 61 27 61 61v367c0 25-21 46-47 46z m13-413c0-15-12-27-27-27h-522c-15 0-27 12-27 27v367c0 7 6 12 13 12h550c7 0 13-5 13-12v-367z m-610-265h153v85h-153v-85z m34 51h85v-17h-85v17z m508-51h102v85h-102v-85z m34 51h34v-17h-34v17z" horiz-adv-x="1000" />

<glyph glyph-name="macbook" unicode="&#xe825;" d="M200 467c4 0 9 1 12 5l67 66c6 7 6 17 0 24s-18 6-24 0l-67-67c-6-6-6-17 0-23 4-4 8-5 12-5z m0-84c4 0 9 2 12 5l33 34c7 6 7 17 0 23s-17 7-23 0l-34-33c-6-7-6-17 0-24 4-3 8-5 12-5z m55 96c-3-4-5-8-5-12s2-9 5-12c3-3 7-5 12-5s8 2 12 5c3 3 4 7 4 12s-1 8-4 12c-7 6-18 6-24 0z m33 9c4-3 8-5 12-5s9 2 12 5l50 50c6 7 6 17 0 24s-17 6-24 0l-50-50c-6-7-6-17 0-24z m-88-188c4 0 9 2 12 5l150 150c6 6 6 17 0 23s-17 7-24 0l-150-150c-6-6-6-17 0-23 4-3 8-5 12-5z m172 188c3-3 7-5 11-5s9 2 12 5c3 3 5 8 5 12 0 5-2 9-5 12-6 6-17 6-23 0-3-3-5-8-5-12s2-9 5-12z m45 29c4 0 8 1 12 5l16 16c7 7 7 17 0 24s-17 6-23 0l-17-17c-7-6-7-17 0-23 3-4 7-5 12-5z m557-417h-24v532c0 38-30 68-68 68h-764c-38 0-68-30-68-68v-532h-24c-14 0-26-12-26-26v-48c0-14 12-26 26-26h948c14 0 26 12 26 26v48c0 14-12 26-26 26z m-891 532c0 19 16 35 35 35h764c19 0 35-16 35-35v-532h-330l-4-11c-1-3-4-6-8-6h-133c-4 0-7 3-8 6l-4 11h-347v532z m884-599h-934v34h17 359c7-11 20-17 33-17h133c13 0 26 6 33 17h342 17v-34z m-67 617h-800v-533h800v533z m-33-500h-734v467h734v-467z" horiz-adv-x="1000" />

<glyph glyph-name="macbook-1" unicode="&#xe826;" d="M200 483c4 0 9 2 12 5l67 67c6 6 6 17 0 23s-18 7-24 0l-67-66c-6-7-6-17 0-24 4-3 8-5 12-5z m0-83c4 0 9 2 12 5l33 33c7 7 7 17 0 24s-17 6-23 0l-34-34c-6-6-6-17 0-23 4-3 8-5 12-5z m55 95c-3-3-5-7-5-12s2-8 5-11c3-3 7-5 12-5s8 2 12 5c3 3 4 7 4 11s-1 9-4 12c-7 6-18 6-24 0z m33 10c4-3 8-5 12-5s9 2 12 5l50 50c6 6 6 17 0 23s-17 7-24 0l-50-50c-6-6-6-17 0-23z m50-10l-150-150c-6-6-6-17 0-23 4-4 8-5 12-5s9 1 12 5l150 150c6 6 6 17 0 23s-17 7-24 0z m34 34c-3-4-5-8-5-12s2-9 5-12c3-3 7-5 11-5s9 2 12 5c3 3 5 7 5 12s-2 8-5 12c-6 6-17 6-23 0z m50 49l-17-16c-7-7-7-17 0-24 3-3 7-5 12-5s8 2 12 5l16 17c7 6 7 17 0 23s-17 7-23 0z m-322-428h800v517h-800v-517z m33 483h734v-450h-734v450z m400-500h-66c-9 0-17-7-17-16s8-17 17-17h66c10 0 17 8 17 17s-7 16-17 16z m417-66v582c0 37-30 68-68 68h-764c-38 0-68-31-68-68v-582h-50v-84h1000v84h-50z m-867 582c0 19 16 34 35 34h764c19 0 35-15 35-34v-582h-834v582z m884-632h-934v16h17 900 17v-16z" horiz-adv-x="1000" />

<glyph glyph-name="macintosh" unicode="&#xe827;" d="M233 583c5 0 9 2 12 5l67 67c6 6 6 17 0 23s-17 7-24 0l-66-66c-7-7-7-17 0-24 3-3 7-5 11-5z m0-83c5 0 9 2 12 5l34 33c6 7 6 17 0 24s-18 6-24 0l-33-34c-7-6-7-17 0-23 3-3 7-5 11-5z m55 95c-3-3-5-7-5-12s2-8 5-11c3-3 8-5 12-5s9 2 12 5c3 3 5 7 5 11s-2 9-5 12c-6 6-18 6-24 0z m34 10c3-3 7-5 11-5s9 2 12 5l50 50c7 6 7 17 0 23s-17 7-23 0l-50-50c-7-6-7-17 0-23z m50-10l-150-150c-7-6-7-17 0-23 3-4 7-5 11-5s9 1 12 5l150 150c7 6 7 17 0 23s-17 7-23 0z m33 34c-3-4-5-8-5-12s2-9 5-12c3-3 7-5 12-5s8 2 12 5c3 3 4 7 4 12s-1 8-4 12c-7 6-18 6-24 0z m50 49l-17-16c-6-7-6-17 0-24 4-3 8-5 12-5s9 2 12 5l17 17c6 6 6 17 0 23s-18 7-24 0z m409 172h-728c-38 0-69-31-69-69v-695c0-38 29-68 66-69v-167h734v167c37 1 66 32 66 69v695c0 38-31 69-69 69z m-31-967h-666v134h666v-134z m67 203c0-20-16-36-36-36h-728c-20 0-36 16-36 36v695c0 20 16 36 36 36h728c20 0 36-16 36-36v-695z m-83-186v100h-100-117v-100h117 100z m-34 67v-34h-33v34h33z m-150-34v34h84v-34h-84z m153 834h-571c-45 0-82-37-82-81v-355c0-45 37-81 82-81h571c44 0 81 36 81 81v355c0 44-37 81-81 81z m47-436c0-26-21-48-47-48h-571c-27 0-48 22-48 48v355c0 26 21 47 48 47h571c26 0 47-21 47-47v-355z m-666-264h100v83h-100v-83z m33 50h33v-17h-33v17z m617 83h-150v-33h-150v-34h150v-33h150v33h33v34h-33v33z m-34-67h-83v34h83v-34z" horiz-adv-x="1000" />

<glyph glyph-name="mac-mini" unicode="&#xe828;" d="M588 467c-6 1-12 4-18 9-12 8-19 20-21 33 0 3 0 7 0 11 3 16-4 32-17 43-13 10-30 13-45 7-18-7-36-19-54-38-20-21-31-47-31-74 1-65 54-117 118-117 40 0 77 20 98 54 8 12 10 28 4 42-5 15-18 26-34 30z m0-53c-15-23-41-37-68-37-45 0-81 36-81 81-1 18 7 35 20 49 15 15 28 24 41 29 1 1 2 1 3 1 3 0 5-2 6-3 1-1 5-4 4-10 0-6 0-13 0-19 3-23 16-44 36-59h0c10-7 20-12 30-14 4-1 8-5 10-8 1-4 1-7-1-10z m221 436h-618c-70 0-127-57-127-127v-509-237c0-70 57-127 127-127h618c70 0 127 57 127 127v237 509c0 70-57 127-127 127z m91-725v-148c0-50-41-91-91-91h-618c-50 0-91 41-91 91v148c0 0 0-1 1-1 1-1 3-3 4-4 2-1 3-3 5-4 1-1 3-3 5-4s3-2 4-4c2-1 4-2 6-3 2-1 3-2 5-3 2-1 4-2 6-3 2-1 3-2 5-2 2-1 4-2 7-3 1 0 3-1 5-2 2 0 5-1 7-2 2 0 3-1 5-1 3-1 6-1 9-1 1 0 2-1 4-1 4 0 9-1 13-1h618c5 0 9 1 13 1 2 0 3 1 4 1 3 0 6 0 9 1 2 0 3 1 5 1 2 1 5 2 7 2 2 1 4 2 6 2 2 1 4 2 6 3 2 0 3 1 5 2 2 1 4 2 6 3 2 1 4 2 5 3 2 1 4 2 6 3 1 2 3 3 5 4s3 3 4 4c2 1 4 3 5 4 2 1 3 3 5 4 0 0 0 1 0 1z m-91-2h-618c-50 0-91 41-91 91v509c0 50 41 91 91 91h618c50 0 91-41 91-91v-509c0-50-41-91-91-91z m-36-109h-546c-10 0-18-8-18-19s8-18 18-18h546c10 0 18 8 18 18s-8 19-18 19z" horiz-adv-x="1000" />

<glyph glyph-name="magsafe" unicode="&#xe829;" d="M959 771h-211-11v53c0 9-8 17-18 17s-17-8-17-17v-53h-35v53c0 9-8 17-18 17s-17-8-17-17v-53h-12c-22 0-41-18-41-41v-93-228c0-23 19-41 41-41h117v-88h35v-47c0-120-63-242-198-302 57 52 93 126 93 209 0 154-126 280-281 280s-281-126-281-280c0-58 18-111 47-155-61 59-99 141-99 233v255h52v35h53v158h-53v35h-105v-228h18v-272h0c9-190 166-342 359-342 2 0 4 0 6 0 1 0 2 0 3 0 2 0 4 0 6 0 245 6 415 158 415 374v47h35v88h117c23 0 41 18 41 41v321c0 23-18 41-41 41z m-836-140v-88h-18v88h18z m-88 35h35v-158h-17-18v158z m357-772c-3 0-6 0-9 0-105 1-190 87-190 193 0 106 87 193 193 193s193-87 193-193c0-105-83-190-187-193z m-6 491c135 0 246-110 246-245 0-38-9-73-24-105 4 17 6 34 6 52 0 126-102 228-228 228s-228-102-228-228c0-18 2-35 6-52-15 32-24 67-24 105 0 135 111 245 246 245z m228 345c0 3 3 6 6 6h128c4 0 6-3 6-6v-93c0-3-2-6-6-6h-128c-3 0-6 3-6 6v93z m193-415h-35v53h35v-53z m158 94c0-4-3-6-6-6h-117-105-117c-3 0-6 2-6 6v187c2 0 4 0 6 0h128c23 0 42 18 42 41v93c0 2-1 4-1 6h170c3 0 6-3 6-6v-321z" horiz-adv-x="1000" />

<glyph glyph-name="microphone" unicode="&#xe82a;" d="M583 467c0 46-37 83-83 83s-83-37-83-83 37-84 83-84 83 38 83 84z m-133 0c0 27 22 50 50 50s50-23 50-50-22-50-50-50-50 22-50 50z m133-394v27c23 10 44 23 62 39 0 0 0 1 0 1 44 40 72 97 72 160v333c0 64-28 121-72 161 0 0 0 0 0 0-21 19-45 33-71 43-1 0-1 0-2 0-22 8-47 13-72 13-24 0-48-4-69-12-2 0-4-1-6-2-26-9-49-24-70-42 0 0 0 0 0 0-44-40-72-97-72-161v-333c0-63 28-120 72-160 0 0 0-1 0-1 18-16 39-29 62-39v-27c0-20 14-36 33-39v-84h-83c-28 0-50-22-50-50s22-50 50-50h266c28 0 50 22 50 50s-22 50-50 50h-83v84c19 3 33 19 33 39z m-150 144c-9 0-16-8-16-17v-63c-12 6-23 13-34 22v74c0 10-7 17-16 17s-17-7-17-17v-38c-21 30-33 66-33 105v50h34c10 0 17 7 17 17s-7 16-17 16h-34v34h34c10 0 17 7 17 16s-7 17-17 17h-34v33h34c10 0 17 8 17 17s-7 17-17 17h-34v33h34c10 0 17 7 17 17s-7 16-17 16h-34v50c0 39 12 76 33 105v-21c0-10 8-17 17-17s16 7 16 17v58c11 8 22 15 34 21v-63c0-9 7-16 16-16s17 7 17 16v77c11 3 22 5 33 6v-66c0-9 8-17 17-17s17 8 17 17v66c11-1 22-3 33-6v-77c0-9 8-16 17-16s16 7 16 16v63c12-6 24-13 34-21v-58c0-10 7-17 16-17s17 7 17 17v21c21-29 33-66 33-105v-50h-34c-10 0-17-7-17-16s7-17 17-17h34v-33h-34c-10 0-17-8-17-17s7-17 17-17h34v-33h-34c-10 0-17-7-17-17s7-16 17-16h34v-34h-34c-10 0-17-7-17-16s7-17 17-17h34v-50c0-39-12-75-33-105v38c0 10-7 17-17 17s-16-7-16-17v-74c-10-9-22-16-34-22v63c0 9-7 17-16 17s-17-8-17-17v-76c-6-2-12-3-19-4 0-1-1-1-2-1-4 0-8-1-12-1v65c0 10-8 17-17 17s-17-7-17-17v-65c-4 0-8 1-11 1-1 0-2 0-3 1-7 1-13 2-19 4v76c0 9-7 17-17 17z m200-300c10 0 17-8 17-17s-7-17-17-17h-266c-9 0-17 8-17 17s8 17 17 17h83 100 83z m-150 33v83h34v-83h-34z m61 117h-88c-3 0-6 3-6 6v16c0 0 0 0 0 0 8-1 15-3 23-4 1 0 2 0 3 0 8-1 16-2 24-2s16 1 25 2c0 0 1 0 2 0 8 1 15 3 23 4 0 0 0 0 0 0v-16c0-3-3-6-6-6z" horiz-adv-x="1000" />

<glyph glyph-name="microphone-1" unicode="&#xe82b;" d="M646 850h-292c-78 0-142-64-142-142v-486c0-46 38-84 84-84h119v-61c0-20 15-37 34-40v-85h-85c-28 0-50-23-50-51s22-51 50-51h272c28 0 50 23 50 51s-22 51-50 51h-85v85c19 3 34 20 34 40v61h119c47 0 84 38 84 84v486c0 78-64 142-142 142z m-10-932c9 0 17-8 17-17s-8-17-17-17h-272c-9 0-16 7-16 17s7 17 16 17h85 102 85z m-153 34v84h34v-84h-34z m68 125c0-4-3-7-7-7h-88c-4 0-7 3-7 7v61h102v-61z m203 570h-135c-10 0-17-8-17-17s7-17 17-17h135v-34h-84c-10 0-17-8-17-17s7-17 17-17h84v-34h-68c-9 0-16-8-16-17s7-17 16-17h68v-34h-84c-10 0-17-7-17-17s7-17 17-17h84v-34h-135c-10 0-17-7-17-16s7-17 17-17h135v-120c0-22-14-40-34-47v65c0 9-7 17-17 17s-17-8-17-17v-68h-33v68c0 9-8 17-17 17s-17-8-17-17v-68h-34v68c0 9-8 17-17 17s-17-8-17-17v-68h-34v68c0 9-8 17-17 17s-17-8-17-17v-68h-34v68c0 9-7 17-17 17s-17-8-17-17v-68h-34v68c0 9-7 17-17 17s-16-8-16-17v-68h-34v68c0 9-8 17-17 17s-17-8-17-17v-65c-20 7-34 25-34 47v120h118c10 0 17 7 17 17s-7 16-17 16h-118v34h85c9 0 17 8 17 17s-8 17-17 17h-85v34h68c9 0 17 8 17 17s-8 17-17 17h-68v34h85c9 0 17 8 17 17s-8 17-17 17h-85v34h135c10 0 17 7 17 17s-7 17-17 17h-135v61c0 31 13 59 34 78v-55c0-9 7-17 17-17s17 8 17 17v77c10 5 22 7 34 8v-68c0-9 7-17 16-17s17 8 17 17v68h34v-51c0-9 8-17 17-17s17 8 17 17v51h34v-34c0-9 8-17 17-17s17 8 17 17v34h34v-51c0-9 7-17 17-17s17 8 17 17v51h34v-68c0-9 7-17 17-17s17 8 17 17v68c12-1 23-3 33-8v-77c0-9 8-17 17-17s17 8 17 17v55c21-19 34-47 34-78v-61z m-254-51c-56 0-102-46-102-102s46-102 102-102 102 46 102 102-46 102-102 102z m0-170c-37 0-68 31-68 68s31 68 68 68 68-30 68-68-31-68-68-68z" horiz-adv-x="1000" />

<glyph glyph-name="monitor" unicode="&#xe82c;" d="M167 583c4 0 8 2 12 5l66 67c7 6 7 17 0 23s-17 7-23 0l-67-66c-7-7-7-17 0-24 3-3 7-5 12-5z m0-83c4 0 8 2 12 5l33 33c6 7 6 17 0 24s-17 6-24 0l-33-34c-7-6-7-17 0-23 3-3 7-5 12-5z m55 95c-3-3-5-7-5-12s2-8 5-11c3-3 7-5 11-5 5 0 9 2 12 5 3 3 5 7 5 11s-2 9-5 12c-6 6-17 6-23 0z m33 10c3-3 7-5 12-5 4 0 8 2 12 5l50 50c6 6 6 17 0 23s-18 7-24 0l-50-50c-7-6-7-17 0-23z m-88-188c4 0 8 1 12 5l150 150c6 6 6 17 0 23s-18 7-24 0l-150-150c-7-6-7-17 0-23 3-4 7-5 12-5z m171 188c3-3 8-5 12-5s9 2 12 5c3 3 5 7 5 12 0 4-2 8-5 12-6 6-17 6-24 0-3-4-5-8-5-12 0-5 2-9 5-12z m45 28c5 0 9 2 12 5l17 17c6 6 6 17 0 23s-17 7-24 0l-16-16c-7-7-7-17 0-24 3-3 7-5 11-5z m617-500v700h-1000v-700h433v-102c-59-4-216-20-216-81 0-66 185-83 283-83s283 17 283 83c0 61-157 77-216 81v102h433z m-967 34v633h934v-633h-400-134-400z m717-217c0-15-88-50-250-50s-250 35-250 50c0 11 55 39 183 48v-34c0-17 14-31 32-31h71c17 0 31 14 31 31v34c128-9 183-37 183-48z m-217 83v-66h-66v66 100h66v-100z m400 734h-866v-567h866v567z m-33-534h-800v500h800v-500z" horiz-adv-x="1000" />

<glyph glyph-name="monitor-1" unicode="&#xe82d;" d="M83 600c5 0 9 2 12 5l67 67c6 6 6 17 0 23s-17 7-24 0l-66-67c-7-6-7-17 0-23 3-3 7-5 11-5z m0-83c5 0 9 1 12 5l34 33c6 6 6 17 0 23s-18 7-24 0l-33-33c-7-6-7-17 0-23 3-4 7-5 11-5z m55 95c-3-3-5-8-5-12 0-4 2-9 5-12 3-3 8-5 12-5 4 0 9 2 12 5 3 3 5 8 5 12s-2 9-5 12c-6 6-18 6-24 0z m34 10c3-4 7-5 11-5s9 1 12 5l50 50c7 6 7 17 0 23s-17 7-23 0l-50-50c-7-6-7-17 0-23z m50-10l-150-150c-7-7-7-17 0-24 3-3 7-5 11-5s9 2 12 5l150 150c7 7 7 17 0 24s-17 6-23 0z m33 33c-3-3-5-7-5-12s2-8 5-11c3-3 7-5 12-5s8 2 12 5c3 3 4 7 4 11 0 5-1 9-4 12-7 6-18 6-24 0z m74 50c-7 7-18 7-24 0l-17-17c-6-6-6-17 0-23 4-3 8-5 12-5s9 2 12 5l17 17c6 6 6 17 0 23z m-329 138v-700h433v-102c-59-4-216-20-216-81 0-66 185-83 283-83s283 17 283 83c0 61-157 77-216 81v102h433v700h-1000z m33-100h934v-500h-934v500z m934 67v-33h-934v33h934z m-217-850c0-15-88-50-250-50s-250 35-250 50c0 11 55 39 183 48v-34c0-17 14-31 32-31h71c17 0 31 14 31 31v34c128-9 183-37 183-48z m-217 83v-66h-66v66 100h66v-100z m34 134h-134-400v33h934v-33h-400z" horiz-adv-x="1000" />

<glyph glyph-name="monitor-2" unicode="&#xe82e;" d="M133 469c5 0 9 1 12 5l67 66c6 7 6 17 0 24s-17 6-24 0l-66-67c-7-6-7-17 0-23 3-4 7-5 11-5z m0-84c5 0 9 2 12 5l34 34c6 6 6 17 0 23s-18 7-24 0l-33-33c-7-7-7-17 0-24 3-3 7-5 11-5z m55 96c-3-4-5-8-5-12 0-5 2-9 5-12 3-3 8-5 12-5s9 2 12 5c3 3 5 7 5 12 0 4-2 8-5 12-6 6-18 6-24 0z m34 9c3-3 7-5 11-5s9 2 12 5l50 50c7 7 7 17 0 24s-17 6-23 0l-50-50c-7-7-7-17 0-24z m50-9l-150-150c-7-7-7-17 0-24 3-3 7-5 11-5 5 0 9 2 12 5l150 150c7 7 7 17 0 24s-17 6-23 0z m33 33c-3-3-5-8-5-12 0-4 2-9 5-12 3-3 7-5 12-5 4 0 8 2 12 5 3 3 4 8 4 12 0 4-1 9-4 12-7 6-18 6-24 0z m50 50l-17-17c-6-6-6-17 0-23 4-4 8-5 12-5s9 1 12 5l17 16c6 7 6 17 0 24s-18 6-24 0z m631 142c-8 7-20 10-31 8l-261-45c-129-22-259-22-388 0l-261 45c-11 2-22-1-31-8-9-8-14-18-14-30v-581c0-12 5-22 14-30 7-6 16-9 25-9 2 0 4 0 6 1l261 45c59 10 118 15 177 16v-49h-233v-84h500v84h-233v49c59-1 118-6 177-16l261-45c11-2 23 1 31 8 9 8 14 18 14 30v581c0 12-5 22-14 30z m-269-687h-434v16h434v-16z m250 76c0-2-1-4-2-4s-2-2-4-1l-261 45c-65 11-132 17-198 17 0 0-1 0-2 0s-1 0-2 0c-66 0-132-6-198-17l-260-45c-3-1-4 0-5 1s-2 2-2 4v581c0 2 2 4 2 4s2 2 5 1l260-45c133-23 267-23 400 0l261 45c2 1 3 0 4-1s2-2 2-4v-581z" horiz-adv-x="1000" />

<glyph glyph-name="motherboard" unicode="&#xe82f;" d="M950 742v16c0 10-7 17-17 17s-16-7-16-17v-16h-17v50h-67-33-33-34-33-33-34-33-67v-50h-16v16c0 10-8 17-17 17s-17-7-17-17v-16h-16v16c0 10-8 17-17 17s-17-7-17-17v-16h-66-100-34-100-133v-834h1000v834h-50z m-117 16h34v-16h-34v16z m-66 0h33v-16h-33v16z m-67 0h33v-16h-33v16z m-67 0h34v-16h-34v16z m-66 0h33v-16h-33v16z m-234-50v-350h-33v350h33z m-133 0v-250h-33v250h33z m767-766h-934v16h34c9 0 16 8 16 17s-7 17-16 17h-34v16h34c9 0 16 8 16 17s-7 17-16 17h-34v16h34c9 0 16 8 16 17s-7 17-16 17h-34v16h34c9 0 16 8 16 17s-7 17-16 17h-34v16h34c9 0 16 8 16 17s-7 17-16 17h-34v333h34c9 0 16 7 16 17s-7 16-16 16h-34v17h34c9 0 16 7 16 17s-7 16-16 16h-34v17h34c9 0 16 7 16 17s-7 16-16 16h-34v50h100v-283h34v-17c0-9 7-16 16-16s17 7 17 16v17h33v283h34v-383h33v-17c0-9 8-16 17-16s16 7 16 16v17h34v383h166 67 33 34 33 33 34 33 33 67 67v-766z m-350 450h33v-34h33v34h17v-34h33v34h17v-34h33v34h34v33h33v33h-33v17h33v33h-33v17h33v33h-33v34h-34v33h-33v-33h-17v33h-33v-33h-17v33h-33v-33h-33v-34h-34v-33h34v-17h-34v-33h34v-17h-34v-33h34v-33z m33 166h133v-133h-133v133z m-71-250h276c25 0 45 21 45 46v276c0 25-20 45-45 45h-276c-25 0-46-20-46-45v-276c0-25 21-46 46-46z m-12 322c0 6 5 12 12 12h276c6 0 12-6 12-12v-276c0-7-6-12-12-12h-276c-7 0-12 5-12 12v276z m350-422c9 0 16 8 16 17s-7 17-16 17h-17v33h-467v-33h-16c-9 0-17-8-17-17s8-17 17-17h16v-33h-16c-9 0-17-7-17-17s8-16 17-16h16v-34h-16c-9 0-17-7-17-16s8-17 17-17h16v-33h-16c-9 0-17-8-17-17s8-17 17-17h16v-33h467v33h17c9 0 16 8 16 17s-7 17-16 17h-17v33h17c9 0 16 8 16 17s-7 16-16 16h-17v34h17c9 0 16 7 16 16s-7 17-16 17h-17v33h17z m-50 0h-17v34h17v-34z m0-66h-17v33h17v-33z m0-67h-17v33h17v-33z m-350 0v33h300v-33h-300z m300-33v-34h-300v34h300z m-350 66h16v-33h-16v33z m0 67h16v-33h-16v33z m350 0v-33h-300v33h300z m-300 33v34h300v-34h-300z m-50 34h16v-34h-16v34z m0-200h16v-34h-16v34z m400-34h-17v34h17v-34z m-517 67c9 0 17 8 17 17s-8 16-17 16h-17v34h-133v-34h-17c-9 0-16-7-16-16s7-17 16-17h17v-17h-17c-9 0-16-7-16-16s7-17 16-17h17v-33h133v33h17c9 0 17 7 17 17s-8 16-17 16h-17v17h17z m-50-50h-67v83h67v-83z m-67 333h-116v-116h116v116z m-33-83h-50v50h50v-50z" horiz-adv-x="1000" />

<glyph glyph-name="mouse" unicode="&#xe830;" d="M500 133c-46 0-83-37-83-83s37-83 83-83 83 37 83 83-37 83-83 83z m0-133c-28 0-50 22-50 50s22 50 50 50 50-22 50-50-22-50-50-50z m283 742c1 4 0 9-2 13-3 4-7 6-11 7l-217 38c-5 1-10-1-14-4-3-3-6-8-6-13v-50h-16v100c0 10-8 17-17 17s-17-7-17-17v-100h-16v50c0 5-2 10-6 13-4 3-9 5-14 4l-216-38c-5-1-9-3-12-7-2-4-3-9-2-13 1-2 45-185 49-276 0-13 1-43 1-58 0-65-7-110-23-155-20-56-27-112-23-166 1-15 2-21 3-24 30-124 146-213 276-213s246 89 276 213c1 3 2 9 3 24 4 54-3 110-23 166-16 45-23 90-23 155 0 15 1 45 1 58 4 91 48 274 49 276z m-216 22l179-32c-10-45-38-168-44-249h-135v34 200 47z m-100-281v17h66v-17h-66z m66 100h-66v17h66v-17z m-66-33h66v-17h-66v17z m66 83h-66v17h66v-17z m0 67v-17h-66v17h66z m-279 32l179 32v-47-200-34h-135c-6 81-34 204-44 249z m492-642c-1-13-2-18-2-19-27-109-129-188-244-188s-217 79-244 188c0 1-1 5-2 19-4 49 3 100 22 152 17 49 24 97 24 166 0 10 0 27 0 42h150 33v-83c0-10 8-17 17-17s17 7 17 17v83h33 150c0-15 0-32 0-42 0-69 7-117 24-166 19-52 26-103 22-152z" horiz-adv-x="1000" />

<glyph glyph-name="mouse-1" unicode="&#xe831;" d="M500 850c-161 0-292-131-292-292v-420c0-161 125-288 284-288 165 0 300 129 300 288v420c0 161-131 292-292 292z m258-712c0-138-122-255-266-255-140 0-250 112-250 255v420c0 143 116 259 258 259s258-116 258-259v-420z m-258 662c-117 0-215-84-237-195l0 0-2-15c0 0 0 0 0 0-1-4-1-9-2-13 0-6-1-13-1-19v-226-194c0-133 103-238 234-238 135 0 250 109 250 238v194 226c0 6-1 13-1 19-1 4-1 9-2 13 0 0 0 0 0 0l-2 15 0 0c-22 111-120 195-237 195z m208-242v-190c-32 10-56 51-56 100 0 48 24 90 56 101 0-4 0-7 0-11z m-416 11c32-11 56-53 56-101 0-49-24-90-56-100v190c0 4 0 7 0 11z m200-636c-114 0-200 89-200 205v196c51 10 90 66 90 134 0 67-37 122-86 134 21 94 104 165 204 165s184-71 204-165c-49-12-86-67-86-134 0-68 39-124 90-134v-196c0-111-99-205-216-205z m16 579c29 0 54 24 54 54s-25 54-54 54-55-24-55-54 25-54 55-54z m0 75c11 0 20-10 20-21s-9-21-20-21-21 9-21 21 9 21 21 21z m32-455c-3 1-5 2-8 4l0 0c-6 4-9 10-10 15 0 2 0 3 0 5 2 12-3 23-12 30-9 8-21 10-32 6-11-5-22-12-33-24-13-13-20-30-20-47 0-41 34-73 74-73 25 0 48 12 62 33 6 9 7 20 3 30-4 11-13 18-24 21z m-41-51c-22 0-40 18-41 40 0 9 4 17 11 24 7 8 14 13 20 15 0-4 0-8 0-13 2-14 10-28 23-38 6-4 13-7 19-9 1 0 2-1 2-1h0c-8-11-20-18-34-18z" horiz-adv-x="1000" />

<glyph glyph-name="mouse-2" unicode="&#xe832;" d="M739 544l-2 15-1 0c-21 101-107 180-213 190-7 38-41 68-81 68-19 0-34 15-34 33h-33c0-37 30-67 67-67 22 0 40-14 47-34-111-5-203-85-225-190l-1 0-2-15c-2-12-3-22-3-32v-4-223-193c0-134 109-242 242-242s242 108 242 242v193 223 4c0 10-1 20-3 32z m-31-36v-187c-32 11-56 52-56 101 0 48 24 89 56 100 0-5 0-9 0-14z m-416 14c32-11 56-52 56-100 0-49-24-90-56-101v187c0 5 0 9 0 14z m208-639c-115 0-208 94-208 209v195c51 10 90 67 90 135 0 66-36 120-85 133 22 93 104 162 203 162s182-69 203-162c-49-13-85-67-85-133 0-68 39-125 90-135v-195c0-115-93-209-208-209z m4 592c30 0 54 24 54 54s-24 54-54 54-54-24-54-54 24-54 54-54z m0 75c12 0 21-9 21-21s-9-21-21-21-21 10-21 21 10 21 21 21z m52-515c-2 0-5 2-8 4l0 0c-5 4-9 9-9 14 0 2 0 4 0 5 1 12-3 23-13 31-9 7-21 9-31 5-12-4-22-12-34-23-12-13-19-30-19-48 0-40 33-73 74-73 25 0 48 13 62 34 5 9 6 20 3 30-5 10-14 18-25 21z m-40-52c-23 0-41 18-41 41 0 8 4 17 10 24 8 7 15 12 21 15-1-4-1-9 0-13 1-15 10-29 23-38 6-5 13-8 19-10 1 0 1 0 1 0h0c-7-12-20-19-33-19z" horiz-adv-x="1000" />

<glyph glyph-name="mouse-3" unicode="&#xe833;" d="M532 35c-2 0-5 2-8 4l0 0c-5 4-9 9-9 14-1 2-1 4 0 5 1 12-3 23-13 31-9 7-21 9-32 5-11-4-22-12-33-23-13-13-20-30-19-48 0-40 33-73 73-73 26 0 49 13 62 34 6 9 7 20 3 30-4 10-13 18-24 21z m-41-52c-22 0-40 18-40 41 0 8 3 17 10 24 8 7 15 12 21 15-1-4-1-9-1-13 2-15 10-29 24-38 6-5 12-8 19-10 1 0 1 0 1 0 0 0 0 0 0 0-7-12-20-19-34-19z m285 696c-5 61-42 115-96 143-38 18-79 28-121 28h-118c-42 0-83-10-121-28-54-28-91-82-96-143-17-218-17-440 0-658l1-6c4-57 37-109 87-138l8-4c26-15 56-23 87-23h186c31 0 61 8 87 23l8 4 0 0c50 29 83 81 87 138l1 6c17 218 17 440 0 658z m-33-655l-1-6c-4-47-30-89-71-112l-7-4c-22-12-46-19-71-19h-186c-25 0-49 7-71 19l-7 4c-41 24-67 65-71 112l0 6c-18 216-18 436 0 652 3 49 33 94 77 116 33 16 70 25 106 25h118c36 0 73-9 106-25 44-22 74-67 78-116 17-216 17-436 0-652z" horiz-adv-x="1000" />

<glyph glyph-name="mouse-4" unicode="&#xe834;" d="M802 113c3 12 6 24 8 36 0 1 0 1 0 1 2 12 4 24 5 37 0 0 0 0 0 1 1 12 2 24 2 37 0 46-8 91-22 135l10 55c0 2 1 4 1 6l1 4c0 0 0 0 0 0 16 96 13 197-12 291-8 58-54 104-112 112-53 15-109 22-166 22 0 0 0 0 0 0-1 0-1 0-1 0-54-1-109-8-165-22-58-8-105-54-113-112-11-44-4-97 3-153 4-29 8-60 9-88 1-51-4-101-18-148-4-16-11-33-19-51-14-35-30-71-30-109 0-196 118-317 309-317 133 0 249 94 298 227 0 0 0 1 0 1 0 0 1 0 1 0 4 11 7 23 11 35 0 0 0 0 0 0z m-20 78c-1-4-1-8-2-12 0-7-1-14-2-21-1-5-3-10-4-16-1-5-2-11-3-16-2-6-4-12-6-18-1-4-2-8-3-11-19-6-44-10-55 1-28 32 22 155 60 238 1-3 2-5 2-8 1-4 2-8 3-12 2-6 3-12 4-18 1-4 2-8 2-12 1-7 2-13 3-20 0-4 1-7 1-10 1-10 1-21 1-31 0-11 0-23-1-34z m-265 326c-10 0-17 7-17 16v134c0 9 7 16 17 16s16-7 16-16v-134c0-9-7-16-16-16z m-240-145c17-77 30-168 0-192-13-12-38-6-59 3 4 26 15 54 26 80 8 19 16 37 21 55 3 11 5 23 8 34 0 3 1 6 1 10 1 3 2 7 3 10z m215-489c-166 0-268 99-275 265 15-5 28-8 40-8 17 0 30 5 42 14 54 45 24 185-16 328-2 28-5 57-9 85-7 54-14 104-4 142 0 0 1 1 1 2 6 43 41 78 85 84 1 0 1 0 2 1 48 12 96 18 142 20v-102c-19-7-33-26-33-47v-134c0-21 14-40 33-47v-86c0-9 7-17 17-17s16 8 16 17v86c20 7 34 26 34 47v134c0 21-14 40-34 47v102c49-1 96-7 142-20 1-1 1-1 2-1 44-6 79-40 86-84 0-1 0-2 0-2 23-90 27-185 11-277-5-12-12-27-20-45-63-136-116-262-72-311 11-12 27-18 47-18 5 0 11 0 17 1-49-105-145-176-254-176z m8 317c-46 0-83-37-83-83s37-84 83-84 83 38 83 84-37 83-83 83z m0-133c-28 0-50 22-50 50s22 50 50 50 50-23 50-50-23-50-50-50z" horiz-adv-x="1000" />

<glyph glyph-name="photo-camera" unicode="&#xe835;" d="M212 189c0-159 129-288 288-288s288 129 288 288-129 288-288 288-288-129-288-288z m542 0c0-140-114-254-254-254s-254 114-254 254 114 254 254 254 254-114 254-254z m-495-249c7 14 5 30-6 42-48 58-75 132-75 207 0 90 38 177 105 237 12 11 16 28 10 43-6 15-20 25-36 25h-181c-28 0-51-22-51-50v-476c0-28 23-50 51-50h148c15 0 29 8 35 22z m-31 14c0-1-2-2-4-2h-148c-9 0-17 7-17 16v476c0 9 8 16 17 16h181c3 0 4-2 4-3 1-1 1-4-1-6-74-67-116-162-116-262 0-83 30-165 84-229 2-2 1-4 0-6z m696 540h-181c-16 0-30-10-36-25-6-15-2-32 10-43 67-60 105-147 105-237 0-75-27-149-75-207-10-12-13-28-6-42 6-14 20-22 35-22h148c28 0 51 22 51 50v476c0 28-23 50-51 50z m17-526c0-9-8-16-17-16h-148c-2 0-3 1-4 2-1 2-2 4 1 6 53 64 83 146 83 229 0 100-42 195-116 262-2 2-2 4-1 6 0 1 2 3 4 3h181c9 0 17-7 17-16 0 0 0-476 0-476z m-577 221c0-75 61-136 136-136s136 61 136 136-61 136-136 136-136-61-136-136z m238 0c0-56-46-102-102-102s-102 46-102 102 46 102 102 102 102-46 102-102z m-390 407h-136v-85h136v85z m-34-51h-68v17h68v-17z m610-34h119c9 0 17 8 17 17s-8 17-17 17h-119c-9 0-17-8-17-17s8-17 17-17z m-491-17c9 0 17 8 17 17h135 102 135c0-9 8-17 17-17s17 8 17 17v17c0 9-7 17-17 17h-152v44c50 20 85 69 85 125 0 75-61 136-136 136s-136-61-136-136c0-56 36-105 85-125v-44h-152c-10 0-17-8-17-17v-17c0-9 7-17 17-17z m220 51h-34v35c0 0 1 0 1 0 5-1 11-1 16-1s11 0 16 1c0 0 1 0 1 0v-35z m-119 169c0 57 46 102 102 102s102-45 102-102c0-45-30-83-71-96l-2-1c0 0 0 0 0 0-4-1-9-2-13-3-1 0-2 0-2 0-9-1-18-1-27 0-1 0-2 0-3 0-4 1-9 2-13 3 0 0 0 0 0 0l-2 1c-41 13-71 51-71 96z m339-796c-9 0-17-8-17-17v-17h-440v17c0 9-8 17-17 17s-17-8-17-17v-34c0-9 7-17 17-17h474c10 0 17 8 17 17v34c0 9-7 17-17 17z m-169 796c0 38-31 68-68 68s-68-30-68-68 31-67 68-67 68 30 68 67z m-102 0c0 19 15 34 34 34s34-15 34-34-15-33-34-33-34 15-34 33z" horiz-adv-x="1000" />

<glyph glyph-name="plug" unicode="&#xe836;" d="M276 602c0 23-18 41-41 41h-22c-22 0-41-18-41-41v-108c0-22 19-41 41-41h22c23 0 41 19 41 41v108z m-35-108c0-3-3-6-6-6h-22c-3 0-6 3-6 6v108c0 4 3 7 6 7h22c3 0 6-3 6-7v-108z m201 149h-22c-22 0-41-18-41-41v-108c0-22 19-41 41-41h22c22 0 41 19 41 41v108c0 23-19 41-41 41z m6-149c0-3-3-6-6-6h-22c-3 0-6 3-6 6v108c0 4 3 7 6 7h22c3 0 6-3 6-7v-108z m-97-41h-46c-16 0-29-12-29-28v-46c0-16 13-29 29-29h46c15 0 28 13 28 29v46c0 16-13 28-28 28z m-6-68h-35v34h35v-34z m606-18h-20v147c0 24-19 43-43 43s-43-19-43-43v-147h-35v86h-86v-86h-34v147c0 21-15 38-35 42v260h-655v-621h535v-65c0-59 48-108 107-108h65v-69h31c-7-20-26-34-48-34h-87c-28 0-51 23-51 52v17c0 67-54 121-121 121h-17c-67 0-121-54-121-121 0-10 8-17 17-17s18 7 18 17c0 48 38 86 86 86h17c48 0 86-38 86-86v-17c0-48 39-87 86-87h87c41 0 76 30 84 69h54v69h65c59 0 107 49 107 108v188c0 27-22 49-49 49z m-72 147c0 5 4 8 9 8s9-3 9-8v-147-34h-18v34 147z m-120-95h17v-52-34h-17v34 52z m-35-86v-35h86v35h35v-35h86v35h20c8 0 15-7 15-15v-37h-397v37c0 8 7 15 15 15h19v-35h87v35h34z m-198 28c-6-17-22-28-39-28h-314c-17 0-33 11-39 28-34 93-34 196 0 289 6 16 22 28 39 28h314c17 0 33-12 39-28 34-93 34-196 0-289z m129-28h-17v34 147c0 1 0 2 1 3 0 0 0 1 0 1 0 0 1 1 1 1 1 1 1 1 1 2 1 0 1 0 1 0 1 0 1 1 2 1l0 0c1 0 2 0 3 0 4 0 8-3 8-8v-147-34z m-620-104v552h586v-233c-1 0-1 0-1-1-2-1-4-3-6-5 0 0-1-1-1-2-2-2-3-3-4-6 0 0-1-1-1-2-1-2-2-4-3-6 0-1 0-2 0-3-1-3-2-6-2-9v-147h-19c-7 0-15-2-21-5 32 98 31 203-4 300-11 30-40 50-72 50h-314c-32 0-61-20-72-50-36-101-36-212 0-313 11-30 40-51 72-51h314c17 0 34 7 48 17v-86h-500z m758-241h-52v34h52v-34z m100 69h-65-121-65c-40 0-73 33-73 73v65 52h397v-117c0-40-33-73-73-73z" horiz-adv-x="1000" />

<glyph glyph-name="plug-1" unicode="&#xe837;" d="M327 768c-140 0-254-114-254-254s114-255 254-255 255 114 255 255-114 254-255 254z m19-472v36c0 10-9 18-19 18s-18-8-18-18v-36c-112 10-200 104-200 218s88 208 200 217v-35c0-11 8-19 18-19s19 8 19 19v35c111-9 200-103 200-217s-89-208-200-218z m-110 290c-40 0-72-32-72-72s32-73 72-73 73 33 73 73-32 72-73 72z m0-109c-20 0-36 17-36 37s16 36 36 36 37-16 37-36-17-37-37-37z m182 109c-40 0-72-32-72-72s32-73 72-73 73 33 73 73-33 72-73 72z m0-109c-20 0-36 17-36 37s16 36 36 36 37-16 37-36-17-37-37-37z m530-109h-39v155c0 25-20 45-45 45s-46-20-46-45v-155h-54v155c0 25-21 45-46 45s-45-20-45-45v-155h-18v473h-655v-655h582v-68c0-63 51-113 113-113h32v-73h33c-7-21-27-37-51-37h-91c-30 0-54 25-54 55v18c0 70-57 128-128 128h-18c-70 0-127-58-127-128 0-10 8-18 18-18s18 8 18 18c0 50 41 91 91 91h18c51 0 91-41 91-91v-18c0-50 41-91 91-91h91c44 0 81 31 89 73h57v73h32c62 0 113 50 113 113v198c0 29-23 52-52 52z m-93 155c0 5 4 9 9 9s9-4 9-9v-155-36h-18v36 155z m-146 0c0 5 4 9 9 9s9-4 9-9v-155-36h-18v36 155z m-36-191v-36h91v36h54v-36h91v36h39c9 0 16-7 16-16v-39h-346v39c0 9 7 16 16 16h21 18z m-637-109v582h582v-439c-1-1-1-1-2-1-1-1-2-1-3-2-2-1-4-2-6-3-1 0-2-1-3-1-2-2-4-4-7-6 0 0 0-1 0-1-2-2-4-4-6-6 0-1-1-2-1-3-1-1-2-3-3-5-1-1-1-2-1-3-1-2-2-4-2-7-1-1-1-1-1-2-1-4-1-7-1-10v-93h-546z m782-255h-54v37h54v-37z m69 73h-32-128-32c-42 0-77 35-77 77v68 55h346v-123c0-42-35-77-77-77z" horiz-adv-x="1000" />

<glyph glyph-name="projector" unicode="&#xe838;" d="M988 455c-1 1-1 2-1 2-30 83-110 143-204 143h-566c-120 0-217-97-217-217 0-113 88-207 200-215v-22c0-25 21-46 46-46h41c26 0 46 21 46 46v21h350v-21c0-25 21-46 46-46h42c25 0 46 21 46 46v24c78 12 143 66 170 140 0 0 0 1 1 2 8 22 12 46 12 71s-4 50-12 72z m-688-309c0-7-6-13-13-13h-41c-7 0-13 6-13 13v21h67v-21z m33 54h-116c-71 0-133 41-163 100h96c9 0 17 8 17 17s-8 16-17 16h-110c-3 11-5 22-6 34h116c9 0 17 7 17 16s-8 17-17 17h-116c1 12 3 23 7 33h109c9 0 17 8 17 17s-8 17-17 17h-96c30 59 92 100 163 100h168c-61-39-102-106-102-184s41-145 102-183h-52z m-16 183c0 101 82 184 183 184s183-83 183-184-82-183-183-183-183 82-183 183z m466-237c0-7-5-13-12-13h-42c-7 0-12 6-12 13v21h66v-21z m67 221h116c-1-12-3-23-6-34h-110c-9 0-17-7-17-16 0-9 8-17 17-17h96c-30-59-92-100-163-100h-100-68c61 38 102 106 102 183s-41 145-102 184h168c71 0 133-41 163-100h-96c-9 0-17-8-17-17s8-17 17-17h110c3-10 5-22 6-33h-116c-9 0-17-7-17-17s8-16 17-16z m-350 166c-83 0-150-67-150-150s67-150 150-150 150 68 150 150-67 150-150 150z m0-266c-64 0-117 52-117 116s53 117 117 117 117-52 117-117-53-116-117-116z m-50 150c4 0 9 2 12 5 3 3 5 7 5 11s-2 9-5 12c-6 6-17 6-24 0-3-3-5-7-5-12s2-8 5-11c3-3 8-5 12-5z m129-22c-7 7-18 7-24 0l-67-67c-6-6-6-17 0-23 4-3 8-5 12-5s9 2 12 5l67 67c6 6 6 17 0 23z m-17 67c-7 6-17 6-24 0l-116-117c-7-6-7-17 0-23 3-4 7-5 11-5s9 1 12 5l117 116c6 7 6 17 0 24z" horiz-adv-x="1000" />

<glyph glyph-name="projector-1" unicode="&#xe839;" d="M567 567c-83 0-150-68-150-150s67-150 150-150 150 67 150 150-68 150-150 150z m0-267c-65 0-117 52-117 117s52 116 117 116 116-52 116-116-52-117-116-117z m2 333c-120 0-217-97-217-216s97-217 217-217 216 97 216 217-97 216-216 216z m0-400c-101 0-184 83-184 184s83 183 184 183 183-82 183-183-82-184-183-184z m387 300h-123c-4 0-7 2-9 6-47 98-147 161-255 161s-209-63-256-161c-2-4-5-6-9-6h-37v24c0 14-12 26-27 26h-47c-14 0-26-12-26-26v-24h-17v24c0 14-12 26-27 26h-46c-15 0-27-12-27-26v-24h-6c-24 0-44-19-44-44v-445c0-24 20-44 44-44h912c24 0 44 20 44 44v445c0 25-20 44-44 44z m-756 17h33v-17h-33v17z m-117 0h34v-17h-34v17z m884-506c0-6-5-11-11-11h-912c-6 0-11 5-11 11v56h84c9 0 16 8 16 17s-7 16-16 16h-84v67h84c9 0 16 8 16 17s-7 16-16 16h-84v67h84c9 0 16 8 16 17s-7 16-16 16h-84v67h84c9 0 16 7 16 17s-7 16-16 16h-84v56c0 6 5 11 11 11h6 100 17 100 37c17 0 32 10 39 24 41 87 130 143 226 143s184-56 225-143c7-14 23-24 39-24h123c6 0 11-5 11-11v-445z m-784 23h134v100h-134v-100z m34 66h66v-33h-66v33z m133-66h133v100h-133v-100z m33 66h67v-33h-67v33z m222 229c-3-3-5-8-5-12s2-9 5-12c3-3 7-5 12-5s8 2 12 5c3 3 4 8 4 12s-1 9-4 12c-7 6-18 6-24 0z m-83 133c-3-3-5-7-5-12s2-8 5-11c3-3 7-5 11-5 5 0 9 2 12 5 3 3 5 7 5 11s-2 9-5 12c-6 6-17 6-23 0z m61 5c-9 0-16-7-16-17s7-16 16-16c18 0 34-23 34-50 0-10 7-17 16-17s17 7 17 17c0 46-30 83-67 83z" horiz-adv-x="1000" />

<glyph glyph-name="ram-memory" unicode="&#xe83a;" d="M652 798c-20-5-37-21-42-42-5-20 1-41 15-56 12-11 26-17 42-17 4 0 9 1 14 2 21 5 37 22 42 42 5 21-1 41-15 56-15 14-35 20-56 15z m39-63c-2-8-9-15-18-18-9-2-18 1-24 7-6 6-9 15-6 24 2 9 9 16 17 18 2 0 5 1 7 1 6 0 13-3 17-8 7-6 9-15 7-24z m-81-762c-5-21 1-41 15-56 12-11 26-17 42-17 4 0 9 1 14 2 21 5 37 21 42 42 5 20-1 41-15 56-15 14-35 20-56 15-20-5-37-22-42-42z m57 10c6 0 13-2 17-7 7-6 9-15 7-24-2-9-9-16-18-18-9-2-18 0-24 7-6 6-9 15-6 24 2 8 9 15 17 17 2 1 5 1 7 1z m56 867h-265v-17c0-18-15-33-33-33s-33 15-33 33v17h-50-34-83v-83h33v-834h-33v-83h83 34 50v17c0 18 15 33 33 33s33-15 33-33v-17h265c29 0 52 23 52 52v896c0 29-23 52-52 52z m-415-967h-50v17h34v900h-34v17h50v-934z m434 784h-84v-34h84v-16h-84v-34h84v-16h-84v-34h84v-16h-84v-34h84v-16h-84v-34h84v-16h-84v-34h84v-16h-84v-34h84v-16h-84v-34h84v-16h-84v-34h84v-16h-84v-34h84v-16h-84v-34h84v-16h-84v-34h84v-16h-84v-34h84v-131c0-11-8-19-19-19h-233c-8 29-34 50-65 50s-57-21-65-50h-18v934h18c8-29 34-50 65-50s57 21 65 50h233c11 0 19-8 19-19v-131z m-200 83h-34v-33h-16v33h-34v-33h-16v33h-34v-33h-33v-134h33v-33h34v33h16v-33h34v33h16v-33h34v33h33v134h-33v33z m0-133h-134v66h134v-66z m0-467h-34v-33h-16v33h-34v-33h-16v33h-34v-33h-33v-134h33v-33h34v33h16v-33h34v33h16v-33h34v33h33v134h-33v33z m0-133h-134v66h134v-66z m0 433h-34v-33h-16v33h-34v-33h-16v33h-34v-33h-33v-134h33v-33h34v33h16v-33h34v33h16v-33h34v33h33v134h-33v33z m0-133h-134v66h134v-66z" horiz-adv-x="1000" />

<glyph glyph-name="router" unicode="&#xe83b;" d="M100 233h50c9 0 17 8 17 17s-8 17-17 17h-50c-9 0-17-8-17-17s8-17 17-17z m0-66h50c9 0 17 7 17 16s-8 17-17 17h-50c-9 0-17-7-17-17s8-16 17-16z m117 66h50c9 0 16 8 16 17s-7 17-16 17h-50c-9 0-17-8-17-17s8-17 17-17z m0-66h50c9 0 16 7 16 16s-7 17-16 17h-50c-9 0-17-7-17-17s8-16 17-16z m666-17c37 0 67 30 67 67s-30 66-67 66-66-30-66-66 30-67 66-67z m0 100c19 0 34-15 34-33s-15-34-34-34-33 15-33 34 15 33 33 33z m-550-17h50c10 0 17 8 17 17s-7 17-17 17h-50c-9 0-16-8-16-17s7-17 16-17z m0-66h50c10 0 17 7 17 16s-7 17-17 17h-50c-9 0-16-7-16-17s7-16 16-16z m607 267c34 4 60 32 60 66v100c0 34-26 62-60 66l-72 58c-8 6-18 9-28 9h-680c-10 0-20-3-28-9l-72-58c-34-4-60-32-60-66v-100c0-34 26-62 60-66l63-51-63-50c-34-4-60-32-60-67v-99c0-34 26-63 60-66l72-58c5-4 12-7 18-8v-37c0-17 14-31 32-31h103c18 0 32 14 32 31v35h366v-35c0-17 15-31 32-31h104c17 0 31 14 31 31v37c7 1 13 4 18 8l72 58c34 3 60 32 60 66v99c0 35-26 63-60 67l-63 50 63 51z m-907 66v100c0 18 16 33 34 33h866c19 0 34-15 34-33v-100c0-18-15-33-34-33h-866c-18 0-34 15-34 33z m120 198c2 1 4 2 7 2h680c3 0 5-1 7-2l39-31h-772l39 31z m733-265l-39-31c-2-1-4-2-7-2h-680c-3 0-5 1-7 2l-39 31h772z m81-167v-99c0-18-15-34-34-34h-866c-18 0-34 16-34 34v99c0 19 16 34 34 34h866c19 0 34-15 34-34z m-684-266h-100v33h100v-33z m534 0h-100v33h100v-33z m30 69c-2-1-4-2-7-2h-157-366-157c-3 0-5 1-7 2l-39 31h772l-39-31z m-733 264l39 31c2 2 4 3 7 3h680c3 0 5-1 7-3l39-31h-772z m36 267h-50c-9 0-17-7-17-17 0-9 8-16 17-16h50c9 0 17 7 17 16s-8 17-17 17z m0-67h-50c-9 0-17-7-17-16s8-17 17-17h50c9 0 17 7 17 17s-8 16-17 16z m117 67h-50c-9 0-17-7-17-17 0-9 8-16 17-16h50c9 0 16 7 16 16s-7 17-16 17z m0-67h-50c-9 0-17-7-17-16s8-17 17-17h50c9 0 16 7 16 17s-7 16-16 16z m616 84c-36 0-66-30-66-67s30-67 66-67 67 30 67 67-30 67-67 67z m0-100c-18 0-33 15-33 33s15 33 33 33 34-15 34-33-15-33-34-33z m-500 83h-50c-9 0-16-7-16-17 0-9 7-16 16-16h50c10 0 17 7 17 16s-7 17-17 17z m0-67h-50c-9 0-16-7-16-16s7-17 16-17h50c10 0 17 7 17 17s-7 16-17 16z" horiz-adv-x="1000" />

<glyph glyph-name="sata" unicode="&#xe83c;" d="M350 717h-167c-9 0-16-8-16-17s7-17 16-17h167c9 0 17 8 17 17s-8 17-17 17z m0-50h-167c-9 0-16-8-16-17s7-17 16-17h167c9 0 17 8 17 17s-8 17-17 17z m530-50h-13v83h-267v-83h-13c-21 0-37-17-37-37v-110c0-20 16-37 37-37h13v-341c0-73-38-140-100-178-60 37-100 103-100 178v491h13c21 0 37 17 37 37v110c0 20-16 37-37 37h-13v83h-267v-83h-13c-20 0-37-17-37-37v-110c0-20 17-37 37-37h13v-491c0-134 109-242 242-242h95 67 63 8 17 8c1 0 2 0 3 1 128 5 231 111 231 241v341h13c20 0 37 17 37 37v110c0 20-17 37-37 37z m-247 50h34v-17c0-9 7-17 16-17s17 8 17 17v17h133v-50h-200v50z m-466 150h33v-17c0-9 7-17 17-17s16 8 16 17v17h134v-50h-200v50z m-47-200c-2 0-3 1-3 3v110c0 2 1 3 3 3h13 267 13c2 0 4-1 4-3v-110c0-2-2-3-4-3h-13-267-13z m47-525v491h200v-491c0-81 39-152 100-196l-1-1c-86 30-149 112-149 209v346c0 9-8 17-17 17s-17-8-17-17v-346c0-84 41-158 103-204-80 33-136 112-136 204v346c0 9-7 17-17 17s-16-8-16-17v-346c0-92 49-173 123-218-98 17-173 103-173 206z m666 0c0-115-93-209-208-209h-17c-6 0-13 1-19 1-4 1-7 1-11 2-3 0-6 1-8 1-5 1-9 2-14 3-1 1-3 1-5 1-5 2-9 3-14 5-1 0-2 1-2 1 61 45 98 118 98 195v341h200v-341z m50 378c0-2-1-3-3-3h-13-267-13c-2 0-4 1-4 3v110c0 2 2 3 4 3h13 267 13c2 0 3-1 3-3v-110z m-66 97h-167c-9 0-17-8-17-17s8-17 17-17h167c9 0 16 8 16 17s-7 17-16 17z m0-50h-167c-9 0-17-8-17-17s8-17 17-17h167c9 0 16 8 16 17s-7 17-16 17z m-118-580c4-2 7-4 11-4 5 0 10 2 13 6 39 46 60 104 60 165v129c0 10-7 17-16 17s-17-7-17-17v-129c0-53-19-103-52-143-6-7-6-18 1-24z m-66 0c3-2 7-4 11-4 4 0 9 2 12 6 39 46 61 104 61 165v129c0 10-8 17-17 17s-17-7-17-17v-129c0-53-18-103-52-143-6-7-5-18 2-24z" horiz-adv-x="1000" />

<glyph glyph-name="server" unicode="&#xe83d;" d="M167 54c41 0 74 33 74 74s-33 74-74 74-74-33-74-74 33-74 74-74z m0 111c20 0 37-17 37-37s-17-37-37-37-37 16-37 37 16 37 37 37z m722-111c10 0 18 8 18 18v111c0 11-8 19-18 19s-19-8-19-19v-111c0-10 9-18 19-18z m-74 0c10 0 18 8 18 18v111c0 11-8 19-18 19s-19-8-19-19v-111c0-10 9-18 19-18z m-74 0c10 0 18 8 18 18v111c0 11-8 19-18 19s-19-8-19-19v-111c0-10 9-18 19-18z m-74 0c10 0 18 8 18 18v111c0 11-8 19-18 19s-19-8-19-19v-111c0-10 8-18 19-18z m-74 0c10 0 18 8 18 18v111c0 11-8 19-18 19s-19-8-19-19v-111c0-10 8-18 19-18z m-74 0c10 0 18 8 18 18v111c0 11-8 19-18 19s-19-8-19-19v-111c0-10 8-18 19-18z m-352 259c41 0 74 33 74 74s-33 74-74 74-74-33-74-74 33-74 74-74z m0 111c20 0 37-16 37-37s-17-37-37-37-37 17-37 37 16 37 37 37z m722-111c10 0 18 8 18 19v111c0 10-8 18-18 18s-19-8-19-18v-111c0-11 9-19 19-19z m-74 0c10 0 18 8 18 19v111c0 10-8 18-18 18s-19-8-19-18v-111c0-11 9-19 19-19z m-74 0c10 0 18 8 18 19v111c0 10-8 18-18 18s-19-8-19-18v-111c0-11 9-19 19-19z m-74 0c10 0 18 8 18 19v111c0 10-8 18-18 18s-19-8-19-18v-111c0-11 8-19 19-19z m-74 0c10 0 18 8 18 19v111c0 10-8 18-18 18s-19-8-19-18v-111c0-11 8-19 19-19z m-74 0c10 0 18 8 18 19v111c0 10-8 18-18 18s-19-8-19-18v-111c0-11 8-19 19-19z m-519 481v-259-37-222-37-259h56v-74h148v74h592v-74h148v74h56v259 37 222 37 259h-1000z m167-851h-74v37h74v-37z m740 0h-74v37h74v-37z m56 74h-19-148-592-148-19v222h926v-222z m0 259h-926v222h926v-222z m-926 259v222h926v-222h-926z m130 185c-41 0-74-33-74-74s33-74 74-74 74 33 74 74-33 74-74 74z m0-111c-21 0-37 17-37 37s16 37 37 37 37-16 37-37-17-37-37-37z m722 111c-10 0-19-8-19-18v-111c0-10 9-19 19-19s18 9 18 19v111c0 10-8 18-18 18z m-74 0c-10 0-19-8-19-18v-111c0-10 9-19 19-19s18 9 18 19v111c0 10-8 18-18 18z m-74 0c-10 0-19-8-19-18v-111c0-10 9-19 19-19s18 9 18 19v111c0 10-8 18-18 18z m-74 0c-11 0-19-8-19-18v-111c0-10 8-19 19-19s18 9 18 19v111c0 10-8 18-18 18z m-74 0c-11 0-19-8-19-18v-111c0-10 8-19 19-19 10 0 18 9 18 19v111c0 10-8 18-18 18z m-74 0c-11 0-19-8-19-18v-111c0-10 8-19 19-19s18 9 18 19v111c0 10-8 18-18 18z" horiz-adv-x="1000" />

<glyph glyph-name="server-1" unicode="&#xe83e;" d="M317-33h66 34 66 34 66 34 100v333h-100-34-66-34-66-34-66-34-100v-333h100 34z m300 300h66v-267h-66v267z m-100 0h66v-267h-66v267z m-100 0h66v-267h-66v267z m-100 0h66v-267h-66v267z m-100-267v267h66v-267h-66z m600 167c36 0 66 30 66 66s-30 67-66 67-67-30-67-67 30-66 67-66z m0 100c18 0 33-15 33-34s-15-33-33-33-34 15-34 33 15 34 34 34z m-734-317c10 0 17 7 17 17v333c0 9-7 17-17 17s-16-8-16-17v-333c0-10 7-17 16-17z m850 0c10 0 17 7 17 17v333c0 9-7 17-17 17s-16-8-16-17v-333c0-10 7-17 16-17z m-83 167h-67c-9 0-16-8-16-17s7-17 16-17h67c9 0 17 8 17 17s-8 17-17 17z m0-50h-67c-9 0-16-8-16-17s7-17 16-17h67c9 0 17 8 17 17s-8 17-17 17z m0-50h-67c-9 0-16-8-16-17s7-17 16-17h67c9 0 17 8 17 17s-8 17-17 17z m-850 783v-433-34-433h1000v433 34 433h-1000z m967-867h-934v400h934v-400z m-934 434v400h934v-400h-934z m550 366h-66-34-66-34-66-34-100v-333h100 34 66 34 66 34 66 34 100v333h-100-34z m-300-300h-66v267h66v-267z m100 0h-66v267h66v-267z m100 0h-66v267h66v-267z m100 0h-66v267h66v-267z m100 267v-267h-66v267h66z m134 33c-37 0-67-30-67-66s30-67 67-67 66 30 66 67-30 66-66 66z m0-100c-19 0-34 15-34 34s15 33 34 33 33-15 33-33-15-34-33-34z m-734 117c-9 0-16-7-16-17v-333c0-9 7-17 16-17s17 8 17 17v333c0 10-7 17-17 17z m850 0c-9 0-16-7-16-17v-333c0-9 7-17 16-17s17 8 17 17v333c0 10-7 17-17 17z m-83-200h-67c-9 0-16-7-16-17s7-16 16-16h67c9 0 17 7 17 16s-8 17-17 17z m0-50h-67c-9 0-16-7-16-17s7-16 16-16h67c9 0 17 7 17 16s-8 17-17 17z m0-50h-67c-9 0-16-7-16-17s7-16 16-16h67c9 0 17 7 17 16s-8 17-17 17z" horiz-adv-x="1000" />

<glyph glyph-name="servers" unicode="&#xe83f;" d="M167 202c-41 0-74-33-74-74s33-74 74-74 74 33 74 74-33 74-74 74z m0-111c-21 0-37 16-37 37s16 37 37 37 37-17 37-37-17-37-37-37z m0 222c41 0 74 33 74 74s-33 74-74 74-74-33-74-74 33-74 74-74z m0 111c20 0 37-16 37-37s-17-37-37-37-37 17-37 37 16 37 37 37z m833 326c0 25-20 44-45 44h-910c-25 0-45-19-45-44v-207c0-10 3-19 9-26-6-8-9-17-9-26v-208c0-9 3-18 9-26-6-7-9-16-9-26v-207c0-24 20-44 45-44h11c0-41 33-74 74-74s74 33 74 74h592c0-41 34-74 74-74s74 33 74 74h11c25 0 45 20 45 44v207c0 10-3 19-9 26 6 8 9 17 9 26v208c0 9-3 18-9 26 6 7 9 16 9 26v207z m-963 0c0 4 3 7 8 7h910c5 0 8-3 8-7v-207c0-4-3-8-8-8h-910c-5 0-8 4-8 8v207z m926-259v-208c0-4-3-7-8-7h-910c-5 0-8 3-8 7v208c0 4 3 7 8 7h910c5 0 8-3 8-7z m-833-548c-21 0-37 16-37 37h74c0-21-17-37-37-37z m740 0c-20 0-37 16-37 37h74c0-21-16-37-37-37z m93 81c0-4-3-7-8-7h-11-148-592-148-11c-5 0-8 3-8 7v207c0 5 3 8 8 8h910c5 0 8-3 8-8v-207z m-796 548c41 0 74 33 74 74s-33 74-74 74-74-33-74-74 33-74 74-74z m0 111c20 0 37-16 37-37s-17-37-37-37-37 17-37 37 16 37 37 37z" horiz-adv-x="1000" />

<glyph glyph-name="smartphone" unicode="&#xe840;" d="M317 600c4 0 8 2 12 5l66 67c7 6 7 17 0 23s-17 7-23 0l-67-67c-7-6-7-17 0-23 3-3 7-5 12-5z m0-83c4 0 8 1 12 5l33 33c6 6 6 17 0 23s-17 7-24 0l-33-33c-7-6-7-17 0-23 3-4 7-5 12-5z m55 95c-3-3-5-7-5-12 0-4 2-9 5-12 3-3 7-5 11-5s9 2 12 5c3 3 5 8 5 12s-2 9-5 12c-6 6-17 6-23 0z m33 10c3-4 7-5 12-5s8 1 12 5l50 50c6 6 6 17 0 23s-18 7-24 0l-50-50c-7-6-7-17 0-23z m50-10l-150-150c-7-7-7-17 0-24 3-3 7-5 12-5s8 2 12 5l150 150c6 7 6 17 0 24s-18 6-24 0z m33 33c-3-3-5-7-5-12s2-8 5-11c3-3 8-5 12-5s9 2 12 5c3 3 5 7 5 11s-2 9-5 12c-6 6-18 6-24 0z m50 50l-16-17c-7-6-7-17 0-23 3-3 7-5 11-5s9 2 12 5l17 17c6 6 6 17 0 23s-17 7-24 0z m150 155h-376c-62 0-112-50-112-112v-776c0-62 50-112 112-112h376c62 0 112 50 112 112v776c0 62-50 112-112 112z m79-888c0-43-36-79-79-79h-376c-43 0-79 36-79 79v776c0 43 36 79 79 79h376c43 0 79-36 79-79v-776z m-517 38h500v750h-500v-750z m33 717h434v-684h-434v684z m167 50h100c9 0 17 7 17 16s-8 17-17 17h-100c-9 0-17-7-17-17s8-16 17-16z m233 0h17c9 0 17 7 17 16s-8 17-17 17h-17c-9 0-16-7-16-17s7-16 16-16z m-66 0h16c10 0 17 7 17 16s-7 17-17 17h-16c-9 0-17-7-17-17s8-16 17-16z m-75-784h-84c-23 0-41-18-41-41s18-42 41-42h84c23 0 41 19 41 42s-18 41-41 41z m0-50h-84c-4 0-8 4-8 9s4 8 8 8h84c4 0 8-4 8-8s-4-9-8-9z" horiz-adv-x="1000" />

<glyph glyph-name="smartphone-1" unicode="&#xe841;" d="M267 600c4 0 8 2 12 5l66 67c7 6 7 17 0 23s-17 7-23 0l-67-67c-7-6-7-17 0-23 3-3 7-5 12-5z m0-83c4 0 8 1 12 5l33 33c6 6 6 17 0 23s-17 7-24 0l-33-33c-7-6-7-17 0-23 3-4 7-5 12-5z m55 95c-3-3-5-7-5-12 0-4 2-9 5-12 3-3 7-5 11-5s9 2 12 5c3 3 5 8 5 12s-2 9-5 12c-6 6-17 6-23 0z m33 10c3-4 7-5 12-5s8 1 12 5l50 50c6 6 6 17 0 23s-18 7-24 0l-50-50c-7-6-7-17 0-23z m50-10l-150-150c-7-7-7-17 0-24 3-3 7-5 12-5 4 0 8 2 12 5l150 150c6 7 6 17 0 24s-18 6-24 0z m33 33c-3-3-5-7-5-12 0-4 2-8 5-11 3-3 8-5 12-5s9 2 12 5c3 3 5 7 5 11 0 5-2 9-5 12-6 6-18 6-24 0z m-166 150c-3-3-5-7-5-12 0-4 2-8 5-11 3-3 7-5 11-5s9 1 12 5c3 3 5 7 5 11s-2 9-5 12c-6 6-17 6-23 0z m216-100l-16-17c-7-6-7-17 0-23 3-3 7-5 11-5s9 2 12 5l17 17c6 6 6 17 0 23s-17 7-24 0z m261 155h-497c-29 0-52-23-52-51v-49-750-99c0-28 23-51 52-51h497c28 0 51 23 51 51v99 750 49c0 28-23 51-51 51z m-516-133h534v-684h-534v684z m534-816c0-10-8-18-18-18h-497c-10 0-19 8-19 18v99h534v-99z m-534 849v49c0 10 9 18 19 18h497c10 0 18-8 18-18v-49h-534z m317 50h-100c-9 0-17-7-17-17s8-16 17-16h100c9 0 17 7 17 16s-8 17-17 17z m150 0h-17c-9 0-16-7-16-17s7-16 16-16h17c9 0 17 7 17 16s-8 17-17 17z m-67 0h-16c-9 0-17-7-17-17s8-16 17-16h16c10 0 17 7 17 16s-7 17-17 17z m-175-900h84c23 0 41 19 41 42s-18 41-41 41h-84c-23 0-41-18-41-41s18-42 41-42z m0 50h84c4 0 8-4 8-8s-4-9-8-9h-84c-4 0-8 4-8 9s4 8 8 8z" horiz-adv-x="1000" />

<glyph glyph-name="smartphone-2" unicode="&#xe842;" d="M267 700c4 0 8 2 12 5l66 67c7 6 7 17 0 23s-17 7-23 0l-67-67c-7-6-7-17 0-23 3-3 7-5 12-5z m0-83c4 0 8 1 12 5l33 33c6 6 6 17 0 23s-17 7-24 0l-33-33c-7-6-7-17 0-23 3-4 7-5 12-5z m55 95c-3-3-5-8-5-12s2-9 5-12c3-3 7-5 11-5 5 0 9 2 12 5 3 3 5 8 5 12s-2 9-5 12c-6 6-17 6-23 0z m33 10c3-4 7-5 12-5s8 1 12 5l50 50c6 6 6 17 0 23s-18 7-24 0l-50-50c-7-6-7-17 0-23z m-88-189c4 0 8 2 12 5l150 150c6 7 6 17 0 24s-18 6-24 0l-150-150c-7-7-7-17 0-24 3-3 7-5 12-5z m171 189c3-3 8-5 12-5s9 2 12 5c3 3 5 7 5 11s-2 9-5 12c-6 6-18 6-24 0-3-3-5-7-5-12 0-4 2-8 5-11z m45 28c5 0 9 2 12 5l17 17c6 6 6 17 0 23s-17 7-24 0l-16-17c-7-6-7-17 0-23 3-3 7-5 11-5z m-283 100v-833-167h600v167 833h-600z m567-967h-534v134h534v-134z m0 167h-534v767h534v-767z m-317-117h100c9 0 17 8 17 17s-8 17-17 17h-100c-9 0-17-8-17-17s8-17 17-17z m167 0h16c10 0 17 8 17 17s-7 17-17 17h-16c-9 0-17-8-17-17s8-17 17-17z" horiz-adv-x="1000" />

<glyph glyph-name="smartphone-3" unicode="&#xe843;" d="M267 600c4 0 8 2 12 5l66 67c7 6 7 17 0 23s-17 7-23 0l-67-67c-7-6-7-17 0-23 3-3 7-5 12-5z m0-83c4 0 8 1 12 5l33 33c6 6 6 17 0 23s-17 7-24 0l-33-33c-7-6-7-17 0-23 3-4 7-5 12-5z m55 95c-3-3-5-8-5-12s2-9 5-12c3-3 7-5 11-5s9 2 12 5c3 3 5 8 5 12 0 5-2 9-5 12-6 6-17 6-23 0z m33 10c3-4 7-5 12-5s8 1 12 5l50 50c6 6 6 17 0 23s-18 7-24 0l-50-50c-7-6-7-17 0-23z m-88-189c4 0 8 2 12 5l150 150c6 7 6 17 0 24s-18 6-24 0l-150-150c-7-7-7-17 0-24 3-3 7-5 12-5z m171 189c3-3 8-5 12-5s9 2 12 5c3 3 5 7 5 11s-2 9-5 12c-6 6-18 6-24 0-3-3-5-7-5-12s2-8 5-11z m250 173c-3-3-5-7-5-12s2-8 5-11c3-3 8-5 12-5 4 0 9 2 12 5 3 3 5 7 5 11s-2 9-5 12c-6 6-17 6-24 0z m-205-145c5 0 9 2 12 5l17 17c6 6 6 17 0 23s-17 7-24 0l-16-17c-7-6-7-17 0-23 3-3 7-5 11-5z m266 200h-497c-29 0-52-23-52-51v-49-800-49c0-28 23-51 52-51h497c28 0 51 23 51 51v49 800 49c0 28-23 51-51 51z m18-949c0-10-8-18-18-18h-497c-10 0-19 8-19 18v49h534v-49z m0 82h-534v734h534v-734z m0 767h-534v49c0 10 9 18 19 18h497c10 0 18-8 18-18v-49z m-217 50h-100c-9 0-17-7-17-17s8-16 17-16h100c9 0 17 7 17 16s-8 17-17 17z m-100-900h100c9 0 17 7 17 17s-8 16-17 16h-100c-9 0-17-7-17-16s8-17 17-17z" horiz-adv-x="1000" />

<glyph glyph-name="smartphone-4" unicode="&#xe844;" d="M267 600c4 0 8 2 12 5l66 67c7 6 7 17 0 23s-17 7-23 0l-67-67c-7-6-7-17 0-23 3-3 7-5 12-5z m0-83c4 0 8 1 12 5l33 33c6 6 6 17 0 23s-17 7-24 0l-33-33c-7-6-7-17 0-23 3-4 7-5 12-5z m55 95c-3-3-5-7-5-12 0-4 2-9 5-12 3-3 7-5 11-5s9 2 12 5c3 3 5 8 5 12s-2 9-5 12c-6 6-17 6-23 0z m33 10c3-4 7-5 12-5s8 1 12 5l50 50c6 6 6 17 0 23s-18 7-24 0l-50-50c-7-6-7-17 0-23z m50-10l-150-150c-7-7-7-17 0-24 3-3 7-5 12-5 4 0 8 2 12 5l150 150c6 7 6 17 0 24s-18 6-24 0z m33 33c-3-3-5-7-5-12 0-4 2-8 5-11 3-3 8-5 12-5s9 2 12 5c3 3 5 7 5 11s-2 9-5 12c-6 6-18 6-24 0z m-50 150c-3-3-5-7-5-12s2-8 5-11c3-3 8-5 12-5s9 2 12 5c3 3 5 7 5 11s-2 9-5 12c-6 6-17 6-24 0z m-133 0c-3-3-5-7-5-12 0-4 2-8 5-11 3-3 7-5 12-5 4 0 8 2 12 5 3 3 4 7 4 11s-1 9-4 12c-7 6-18 6-24 0z m467 0c-3-3-5-7-5-12s2-8 5-11c3-3 7-5 11-5 5 0 9 2 12 5 3 3 5 7 5 11s-2 9-5 12c-6 6-17 6-23 0z m-284 0c-3-3-5-7-5-12s2-8 5-11c3-3 8-5 12-5s9 2 12 5c3 3 5 7 5 11s-2 9-5 12c-6 6-18 6-24 0z m50 0c-3-3-5-7-5-12 0-4 2-8 5-11 3-4 8-5 12-5s9 1 12 5c3 3 5 7 5 11s-2 9-5 12c-6 6-18 6-24 0z m50 0c-3-3-5-7-5-12s2-8 5-11c3-3 8-5 12-5s9 2 12 5c3 3 5 7 5 11s-2 9-5 12c-6 6-18 6-24 0z m50 0c-3-3-5-7-5-12 0-4 2-8 5-11 3-3 8-5 12-5s9 2 12 5c3 3 5 7 5 11s-2 9-5 12c-6 6-17 6-24 0z m-188-895c4 0 9 2 12 5 3 3 5 7 5 12 0 4-2 8-5 11-6 7-18 7-24 0-3-3-5-7-5-11s2-9 5-12c3-3 8-5 12-5z m50 0c4 0 9 2 12 5 3 3 5 7 5 12s-2 8-5 11c-6 7-18 7-24 0-3-3-5-7-5-11 0-5 2-9 5-12 3-3 8-5 12-5z m50 0c4 0 9 2 12 5 3 3 5 7 5 12s-2 8-5 11c-6 7-18 7-24 0-3-3-5-7-5-11s2-9 5-12c3-3 8-5 12-5z m50 0c4 0 9 2 12 5 3 3 5 7 5 12s-2 8-5 11c-6 7-17 7-24 0-3-3-5-7-5-11s2-9 5-12c3-3 8-5 12-5z m50 0c4 0 9 2 12 5 3 3 5 7 5 12s-2 8-5 11c-6 7-18 7-24 0-3-3-5-7-5-11 0-5 2-9 5-12 3-3 8-5 12-5z m-112 795l-16-17c-7-6-7-17 0-23 3-3 7-5 11-5s9 2 12 5l17 17c6 6 6 17 0 23s-17 7-24 0z m234 155h-444c-43 0-78-35-78-78v-22-800-22c0-43 35-78 78-78h444c43 0 78 35 78 78v22 800 22c0 43-35 78-78 78z m-489-133h534v-734h-534v734z m534-789c0-25-20-45-45-45h-444c-25 0-45 20-45 45v22h534v-22z m-534 822v22c0 25 20 45 45 45h444c25 0 45-20 45-45v-22h-534z" horiz-adv-x="1000" />

<glyph glyph-name="smart-tv" unicode="&#xe845;" d="M249 575h-48c-19 0-34-15-34-34v-49c0-18 15-34 34-34h48c19 0 34 16 34 34v49c0 19-15 34-34 34z m1-83c0 0 0 0-1 0l-49 0 1 50 49-1v-49z m183 83h-49c-19 0-34-15-34-34v-49c0-18 15-34 34-34h49c18 0 34 16 34 34v49c0 19-16 34-34 34z m0-83c0 0 0 0 0 0l-50 0 1 50 49-1v-49z m134-34h49c19 0 34 16 34 34v49c0 19-15 34-34 34h-49c-18 0-34-15-34-34v-49c0-18 16-34 34-34z m0 84l50-1v-49c0 0-1 0-1 0l-49 0 0 50z m184-84h48c19 0 34 16 34 34v49c0 19-15 34-34 34h-48c-19 0-34-15-34-34v-49c0-18 15-34 34-34z m0 84l49-1v-49c0 0 0 0-1 0l-49 0 1 50z m-502-150h-48c-19 0-34-16-34-34v-49c0-19 15-34 34-34h48c19 0 34 15 34 34v49c0 18-15 34-34 34z m1-83c0 0 0-1-1-1l-49 1 1 49 49 0v-49z m183 83h-49c-19 0-34-16-34-34v-49c0-19 15-34 34-34h49c18 0 34 15 34 34v49c0 18-16 34-34 34z m0-83c0 0 0-1 0-1l-50 1 1 49 49 0v-49z m134-34h49c19 0 34 15 34 34v49c0 18-15 34-34 34h-49c-18 0-34-16-34-34v-49c0-19 16-34 34-34z m0 83l50 0v-49c0 0-1-1-1-1l-49 1 0 49z m184-83h48c19 0 34 15 34 34v49c0 18-15 34-34 34h-48c-19 0-34-16-34-34v-49c0-19 15-34 34-34z m0 83l49 0v-49c0 0 0-1-1-1l-49 1 1 49z m249-266v666h-1000v-666h483v-67h-233v-83h500v83h-233v67h483z m-283-100v-17h-434v17h434z m-684 733h934v-600h-934v600z" horiz-adv-x="1000" />

</font>
</defs>
</svg>
