<?xml version="1.0" standalone="no"?>
<!DOCTYPE svg PUBLIC "-//W3C//DTD SVG 1.1//EN" "http://www.w3.org/Graphics/SVG/1.1/DTD/svg11.dtd" >
<svg xmlns="http://www.w3.org/2000/svg">
<metadata></metadata>
<defs>
<font id="cocogooseregular" horiz-adv-x="730" >
<font-face units-per-em="2048" ascent="1638" descent="-410" />
<missing-glyph horiz-adv-x="642" />
<glyph horiz-adv-x="0" />
<glyph unicode="&#xd;" horiz-adv-x="642" />
<glyph horiz-adv-x="0" />
<glyph horiz-adv-x="0" />
<glyph unicode=" "  horiz-adv-x="642" />
<glyph unicode="&#x09;" horiz-adv-x="642" />
<glyph unicode="&#xa0;" horiz-adv-x="642" />
<glyph unicode="!" horiz-adv-x="697" d="M167 46v248q0 20 11.5 32.5t33.5 12.5h270q17 0 32 -12.5t15 -32.5v-248q0 -18 -12 -32.5t-35 -14.5h-270q-45 0 -45 47zM167 537v1103q0 45 50 46h266q45 0 45 -46v-1103q0 -19 -11 -32t-34 -13h-266q-15 0 -32.5 12t-17.5 33z" />
<glyph unicode="&#x22;" horiz-adv-x="778" d="M97 1077v400q0 45 45 45h153q45 0 45 -45v-400q0 -45 -45 -45h-153q-45 0 -45 45zM435 1077v400q0 45 45 45h153q45 0 45 -45v-400q0 -45 -45 -45h-153q-45 0 -45 45z" />
<glyph unicode="#" horiz-adv-x="1291" d="M115 410v185q0 45 45 45h126v239h-126q-45 0 -45 49v185q0 45 45 45h126v318q0 18 11.5 31.5t33.5 13.5h185q15 0 32 -12.5t17 -32.5v-318h149v318q0 18 11.5 31.5t33.5 13.5h185q15 0 32 -12.5t17 -32.5v-318h147q18 0 31.5 -11.5t13.5 -33.5v-185q0 -7 -3 -16t-9.5 -16 t-14.5 -12t-18 -5h-147v-239h147q18 0 31.5 -12t13.5 -33v-185q0 -7 -3 -16t-9.5 -16t-14.5 -12.5t-18 -5.5h-147v-315q0 -45 -49 -45h-185q-45 0 -45 45v315h-149v-315q0 -45 -49 -45h-185q-45 0 -45 45v315h-126q-45 0 -45 50zM565 640h149v239h-149v-239z" />
<glyph unicode="$" horiz-adv-x="1317" d="M67 292q0 17 23 39l177 169q22 15 35 15q9 0 19.5 -6.5t24.5 -18.5q17 -14 44.5 -38t62.5 -48q52 -35 103 -54t108 -19q52 0 87 11.5t55.5 31t29.5 45t9 54.5q0 32 -24 57t-59 44.5t-73 33.5t-65 23q-123 43 -215.5 92.5t-153.5 110.5t-92 134t-31 164q0 79 26.5 145 t76 118.5t120.5 89t160 53.5v142q0 18 11.5 31.5t33.5 13.5h193q15 0 32 -12t17 -33v-137q57 -10 112 -29t109 -49q35 -20 66 -42t54.5 -42.5t37.5 -39t14 -31.5t-6.5 -24.5t-20.5 -25.5l-156 -167q-17 -17 -35 -18q-14 0 -26 8.5t-26 20.5l-10 8q-20 17 -45 35.5t-54 33.5 t-60.5 24.5t-64.5 9.5q-34 0 -63.5 -5.5t-52 -17.5t-36 -32t-13.5 -49t14.5 -50t43 -38.5t71 -33.5t99.5 -35q109 -36 200.5 -75t158 -93t103.5 -128.5t37 -181.5q0 -96 -33.5 -176.5t-94 -143t-143 -104t-180.5 -58.5v-147q0 -45 -49 -45h-193q-45 0 -45 45v150 q-81 17 -156.5 53t-143.5 85q-41 30 -69 58.5t-45 46.5l-3 3q-1 2 -2 2.5t-2 1.5q-1 2 -2 2.5t-2 1.5q-24 26 -23 41z" />
<glyph unicode="%" horiz-adv-x="1907" d="M47 1169q0 82 31 154t84 125.5t125 84.5t154 31t154 -31t125.5 -84.5t84.5 -125.5t31 -154t-31 -154t-84.5 -125t-125.5 -84t-154 -31t-154 31t-125 84t-84 125t-31 154zM322 1169q0 -52 33.5 -85.5t85.5 -33.5q25 0 47 9t38 25t25 38t9 47q0 26 -9 47.5t-25 37.5t-38 25 t-47 9q-27 0 -48 -8.5t-37.5 -24.5t-25 -38t-8.5 -48zM461 27l2 4l3 14l646 1431q8 18 24 31.5t42 13.5h222q20 0 36 -8.5t16 -23.5q0 -11 -2 -13l-647 -1431q-11 -26 -21.5 -35.5t-32.5 -9.5h-245q-43 0 -43 27zM1071 374q0 82 31 153.5t84 125.5t125 84.5t154 30.5 t154 -30.5t125.5 -84.5t84.5 -125.5t31 -153.5t-31 -154.5t-84.5 -125.5t-125.5 -83.5t-154 -30.5t-154 30.5t-125 83.5t-84 125.5t-31 154.5zM1346 374q0 -52 33.5 -86t85.5 -34q25 0 47 9t38 25t25 38t9 48t-9 47t-25 37t-38 25.5t-47 9.5q-27 0 -48 -9t-37.5 -25 t-25 -37.5t-8.5 -47.5z" />
<glyph unicode="&#x26;" horiz-adv-x="1838" d="M109 466q0 77 14.5 135.5t42.5 105.5t66 83.5t85 69.5q-47 49 -77 116.5t-30 147.5q0 88 36.5 164t96.5 132t139 87.5t164 31.5t164 -22.5t139.5 -72.5t96 -130.5t35.5 -197.5q0 -24 -13.5 -36t-32.5 -12q-52 0 -104.5 -0.5t-105.5 -0.5q-44 0 -44 39q0 26 -5.5 47 t-19 36t-35.5 24t-54 9q-37 0 -60 -13t-36 -32t-17.5 -41t-4.5 -40q0 -10 5.5 -32t18.5 -45t34.5 -42.5t52.5 -25.5q36 -6 36 -41q0 -8 -1 -11l-40 -192q-2 -19 -13.5 -27t-25.5 -8q-8 0 -15 1t-14 1q-33 0 -54 -17.5t-33.5 -41t-17 -48.5t-4.5 -42q0 -31 9 -67t31.5 -67.5 t62 -52.5t99.5 -21q40 0 77 12t65.5 35t46.5 57t20 79l-61 12q-14 3 -22.5 15t-8.5 26q0 8 1 10q10 56 21 111.5t23 113.5q3 16 13.5 25.5t25.5 9.5q7 0 9 -1l444 -86q3 -1 13 -1q30 0 55 16.5t38 46.5q8 6 11.5 15.5t3.5 17.5q5 18 15 29t24 11q7 0 9 -1l229 -45 q14 0 25.5 -16t11.5 -32q0 -8 -1 -11q-13 -80 -50 -145t-90 -111t-119.5 -71.5t-138.5 -25.5q-33 0 -66 6l-68 12q-7 -96 -34 -166.5t-69.5 -121t-97.5 -81.5t-117 -48.5t-128.5 -24t-132.5 -6.5q-111 0 -210.5 35.5t-174.5 100t-119 153t-44 194.5z" />
<glyph unicode="'" horiz-adv-x="625" d="M151 1079v397q0 45 45 45h200q45 0 45 -45v-397q0 -45 -45 -45h-200q-45 0 -45 45z" />
<glyph unicode="(" horiz-adv-x="824" d="M126 757q0 282 74.5 537t216.5 479q10 17 26.5 20t31.5 -9l244 -152q16 -11 18 -27.5t-8 -29.5q-118 -187 -175 -391.5t-57 -426.5q0 -224 56 -427q60 -206 176 -390q10 -14 8 -31t-18 -28l-244 -151q-15 -11 -31.5 -8.5t-26.5 19.5q-141 223 -216 478.5t-75 537.5z" />
<glyph unicode=")" horiz-adv-x="826" d="M80 -91.5q-2 16.5 8 31.5q116 184 176 390q56 203 57 427q0 222 -57.5 426.5t-175.5 391.5q-10 13 -8 29.5t18 27.5l244 152q15 12 31.5 9t26.5 -20q141 -223 216 -479t75 -537q0 -282 -75 -537.5t-216 -478.5q-10 -17 -26.5 -20t-31.5 9l-244 151q-16 11 -18 27.5z" />
<glyph unicode="*" horiz-adv-x="1006" d="M103 523v189q0 22 11.5 34t35.5 12l163 -33l-109 126q-3 4 -5 11t-2 12q3 26 27 44l164 94q9 6 25 6q8 0 18 -6t19 -20l55 -144l55 144q8 24 38 24q11 0 24 -4l162 -98q25 -12 25 -46q-3 -5 -3 -17l-112 -126l166 33q17 0 31.5 -12.5t14.5 -33.5v-189q0 -16 -12.5 -33 t-33.5 -17l-166 32l112 -126q2 -5 4.5 -12t2.5 -15q0 -25 -23 -38l-164 -94q-7 -7 -25 -7q-31 0 -41 23l-55 143l-55 -143q-5 -11 -16 -17t-22 -6q-15 0 -29 7l-163 96q-25 13 -24 36q0 8 1.5 15t6.5 12l109 126l-163 -32q-46 0 -47 50z" />
<glyph unicode="+" horiz-adv-x="921" d="M63 515v208q0 45 46 45h187v198q0 45 49 45h229q45 0 46 -45v-198h187q18 0 31.5 -12t13.5 -33v-208q0 -15 -12.5 -32t-32.5 -17h-187v-199q0 -18 -11.5 -31.5t-34.5 -13.5h-229q-15 0 -32 12.5t-17 32.5v199h-187q-45 0 -46 49z" />
<glyph unicode="," horiz-adv-x="625" d="M139 45v250q0 20 11.5 32.5t33.5 12.5h271q17 0 32.5 -12.5t15.5 -32.5v-294q0 -96 -50.5 -181.5t-143.5 -137.5q-3 -3 -14 -4q-14 0 -23 4t-14 11l-71 58q-11 8 -14.5 17t-3.5 17q0 13 14 26.5t30.5 30.5t30.5 39t14 52v45q0 19 -18 22h-59q-42 2 -42 45z" />
<glyph unicode="-" horiz-adv-x="1126" d="M171 515v208q0 45 45 45h698q18 0 31.5 -12t13.5 -33v-208q0 -15 -12 -32t-33 -17h-698q-45 0 -45 49z" />
<glyph unicode="." horiz-adv-x="625" d="M139 47v248q0 20 11.5 32.5t33.5 12.5h271q17 0 32 -12.5t15 -32.5v-248q0 -18 -12 -32.5t-35 -14.5h-271q-45 0 -45 47z" />
<glyph unicode="/" horiz-adv-x="1130" d="M30 27q0 2 1 4l3 14l646 1431q8 18 24 31.5t41 13.5h284q20 0 36 -8.5t16 -23.5q0 -11 -2 -13l-647 -1431q-11 -26 -21.5 -35.5t-31.5 -9.5h-307q-42 0 -42 27z" />
<glyph unicode="0" horiz-adv-x="1769" d="M104 759q0 108 28 208t79 187t122 158.5t158.5 122.5t187 79t208.5 28q108 0 208 -28t187 -79t158 -122.5t122 -158.5t79 -187.5t28 -207.5q0 -109 -28 -208.5t-79 -186t-122 -158t-158 -122.5t-187.5 -79t-207.5 -28q-109 0 -208.5 28t-187 79t-158.5 122.5t-122 158 t-79 186t-28 208.5zM492 760q0 -86 30 -160.5t83 -129.5t125.5 -87t157.5 -32q84 0 157 32t126.5 87t84 129.5t30.5 160.5q0 85 -30.5 160t-84 131t-126.5 88t-157 32q-85 0 -157.5 -32t-125.5 -88t-83 -131t-30 -160z" />
<glyph unicode="1" horiz-adv-x="769" d="M56 1145v220q0 39 45 63l140 69q27 17 52 20.5t65 3.5h232q20 0 34.5 -12.5t14.5 -32.5v-1431q0 -45 -48 -45h-291q-26 0 -35.5 14t-9.5 29v1128l-140 -69q-5 -2 -10.5 -1.5t-7.5 -3.5q-19 0 -30 14t-11 34z" />
<glyph unicode="2" horiz-adv-x="1321" d="M135 52v153q0 14 7 27l622 743q28 32 35 54.5t7 49.5q0 35 -13.5 61.5t-35 44.5t-48 27.5t-54.5 9.5q-31 0 -58 -12.5t-47.5 -33.5t-32.5 -48t-12 -56v-56q0 -16 -13.5 -32.5t-37.5 -16.5h-263q-26 0 -35.5 13.5t-9.5 29.5v53q0 108 40 197.5t109 154t160 100t194 35.5 q105 0 201.5 -33t170 -94t117 -147.5t43.5 -194.5q0 -55 -13.5 -103.5t-35.5 -91.5t-50 -80.5t-59 -71.5l-352 -397h461q20 0 33.5 -11.5t13.5 -34.5v-239q0 -19 -14 -35.5t-35 -16.5h-943q-19 0 -35.5 16t-16.5 36z" />
<glyph unicode="3" horiz-adv-x="1227" d="M63 509q1 18 12 30t36 17h246q13 0 28.5 -12t15.5 -33q-1 -1 -2 -1h2q0 -110 50.5 -158.5t138.5 -48.5q38 0 69.5 11.5t54.5 33.5t36 56t13 80q0 87 -46.5 129t-151.5 42h-4q-18 0 -31 9t-13 31q0 56 0.5 112t0.5 115q0 44 44 44q32 0 53.5 12t34 30t17.5 39t5 39 q0 13 -2.5 35.5t-13 43.5t-32 36.5t-58.5 15.5q-32 0 -52 -10.5t-31.5 -28.5t-16 -41t-4.5 -47h-3l1 -1q0 -42 -44 -42h-31h-89.5t-89.5 1q-18 0 -31.5 11t-13.5 34l1 1h-2q0 117 34.5 200t93 136.5t136 78.5t163.5 25q85 0 162 -32.5t135.5 -89t93.5 -133t35 -164.5 q0 -80 -30 -145t-79 -114q47 -33 89 -68t73.5 -79t50 -101.5t18.5 -134.5q0 -105 -42.5 -196t-115.5 -157.5t-170.5 -104.5t-208.5 -38q-70 0 -137 8.5t-126.5 30t-109 59.5t-86 96.5t-56.5 141.5t-20 196z" />
<glyph unicode="4" horiz-adv-x="1348" d="M35 286q0 29 17 52l666 1156q10 17 23 22t44 5h278q15 -1 31.5 -13.5t16.5 -31.5v-895h123q20 0 34 -11.5t14 -35.5v-256q0 -17 -14 -32.5t-34 -15.5h-123v-185q0 -45 -49 -45h-278q-45 0 -45 45v184h-648q-30 0 -43 17.5t-13 39.5zM548 578h207v352z" />
<glyph unicode="5" horiz-adv-x="1238" d="M75 425q1 26 33 29l246 59q3 1 12 1q11 0 15 -5t11 -12q1 -27 19 -58t45 -59t61 -46.5t68 -18.5q35 0 69 10.5t60.5 32.5t43 57.5t16.5 85.5q0 41 -17 77t-46 63.5t-67 42.5t-81 15q-14 0 -26 -2t-21 -5q-41 -6 -77.5 -12t-82.5 -3h-178q-27 0 -42 11t-17 44 q18 187 36.5 369.5t35.5 368.5q0 52 50 53h682q2 0 4 -0.5t5 -0.5h82q49 0 49 -52q0 -61 -0.5 -121t-0.5 -121q0 -20 -13.5 -35.5t-37.5 -15.5h-504l-15 -166q29 5 60.5 7.5t59.5 2.5q118 0 214 -43.5t164 -114.5t105 -163.5t37 -190.5q0 -113 -45.5 -209.5t-120 -168.5 t-173 -112.5t-203.5 -40.5v2q-96 0 -179 32t-148 87.5t-111.5 129t-69.5 156.5q-3 10 -5 20.5t-2 19.5z" />
<glyph unicode="6" horiz-adv-x="1267" d="M94 509q0 135 66 250q1 1 3.5 5t14 24.5t36.5 64t69.5 123t112.5 201t167 299.5q11 22 26.5 33.5t41.5 11.5h291q40 0 40 -24q0 -4 -2.5 -13.5t-4.5 -12.5q-36 -63 -63 -110.5t-49 -86t-40 -70.5t-34.5 -61.5t-34 -60.5t-38.5 -68q98 -11 184.5 -55t150 -112.5t99.5 -157 t36 -189.5q0 -109 -42 -203.5t-114.5 -165t-170.5 -110.5t-209 -40q-103 0 -195 33t-163.5 93.5t-117.5 145t-56 185.5q-2 17 -3 35.5t-1 35.5zM453 497q0 -41 12 -76t34.5 -60.5t54.5 -40t72 -14.5t72 14.5t54 40t34.5 60.5t12.5 76q0 40 -12.5 74.5t-34.5 60.5t-54 41.5 t-72 15.5t-72 -15.5t-54.5 -41.5t-34.5 -60.5t-12 -74.5z" />
<glyph unicode="7" horiz-adv-x="1343" d="M104 1206v269q0 20 14.5 33.5t34.5 13.5h1118q29 0 42.5 -17.5t13.5 -40.5q0 -27 -18 -52l-729 -1377q-8 -16 -23.5 -25.5t-33.5 -9.5h-364q-37 0 -37 27q0 10 4 18l581 1114h-554q-20 0 -34.5 11.5t-14.5 35.5z" />
<glyph unicode="8" horiz-adv-x="1269" d="M88 500q0 59 14.5 113t39.5 101t60.5 87t78.5 72q-35 50 -56.5 115t-21.5 129q0 86 34 162.5t93 134t137.5 91.5t167.5 34q87 0 166.5 -34t138.5 -91.5t94.5 -134t35.5 -162.5q0 -65 -22.5 -129.5t-60.5 -114.5q90 -71 140.5 -165.5t50.5 -211.5q0 -110 -39.5 -203.5 t-111.5 -163t-171.5 -108.5t-220.5 -39q-122 0 -222.5 38.5t-172.5 108t-112 164t-40 207.5zM461 504q0 -37 12.5 -70t36.5 -57.5t55.5 -38t70.5 -13.5q37 0 67.5 13.5t53 38t35 57.5t12.5 71q0 37 -12 70t-33.5 58t-52.5 40t-70 15q-40 0 -72.5 -15t-55.5 -40.5t-35 -58.5 t-12 -70zM528 1103q0 -46 31.5 -77.5t77.5 -31.5q23 0 42.5 8.5t34.5 23t23.5 34t8.5 43.5q0 23 -8.5 42t-23.5 34t-35 23.5t-42 8.5q-24 0 -43.5 -8.5t-34 -23.5t-23 -34t-8.5 -42z" />
<glyph unicode="9" horiz-adv-x="1276" d="M101 1021q0 109 42 203.5t115 164.5t170.5 110.5t209.5 40.5q103 0 195 -33t163 -94t116.5 -145.5t56.5 -185.5q2 -17 4 -33.5t2 -32.5q-1 -68 -17 -132t-49 -122l-403 -717q-11 -22 -26.5 -33.5t-41.5 -11.5h-291q-40 0 -40 23q0 4 2 14t4 12q36 62 63.5 110.5t49 87 t39 70t34.5 61.5t34.5 61t38.5 68q-99 10 -185 54t-149.5 112.5t-100 158t-36.5 189.5zM464 1024q0 -40 12 -75t35 -61t54.5 -41.5t71.5 -15.5t72 15.5t54.5 41.5t35 61t12.5 75q0 41 -12.5 76t-35 60.5t-54.5 39.5t-72 14t-71.5 -14t-54.5 -39.5t-35 -60.5t-12 -76z" />
<glyph unicode=":" horiz-adv-x="625" d="M139 47v248q0 20 11.5 32.5t33.5 12.5h271q17 0 32 -12.5t15 -32.5v-248q0 -18 -12 -32.5t-35 -14.5h-271q-45 0 -45 47zM139 861v248q0 20 11.5 32.5t33.5 12.5h271q17 0 32 -12.5t15 -32.5v-248q0 -18 -12 -32.5t-35 -14.5h-271q-45 0 -45 47z" />
<glyph unicode=";" horiz-adv-x="625" d="M133 45v250q0 20 11.5 32.5t33.5 12.5h271q17 0 32.5 -12.5t15.5 -32.5v-294q0 -96 -50.5 -181.5t-143.5 -137.5q-3 -3 -14 -4q-14 0 -23 4t-14 11l-71 58q-11 8 -14.5 17t-3.5 17q0 13 14 26.5t30.5 30.5t30.5 39t14 52v45q0 19 -18 22h-59q-42 2 -42 45zM139 861v248 q0 20 11.5 32.5t33.5 12.5h271q17 0 32 -12.5t15 -32.5v-248q0 -18 -12 -32.5t-35 -14.5h-271q-45 0 -45 47z" />
<glyph unicode="&#x3c;" horiz-adv-x="912" d="M56 649q0 16 16 32l536 536q11 11 31 11t34 -14l164 -163q7 -7 10 -15.5t5 -16.5q-2 -7 -4.5 -15.5t-8.5 -16.5l-335 -337l335 -337q13 -17 13 -31q0 -19 -16 -36l-168 -164q-12 -14 -29 -14t-32 14l-535 538q-15 15 -16 29z" />
<glyph unicode="=" horiz-adv-x="1126" d="M171 297v208q0 45 45 45h698q18 0 31.5 -12t13.5 -33v-208q0 -15 -12 -32t-33 -17h-698q-45 0 -45 49zM171 725v208q0 45 45 45h698q18 0 31.5 -12t13.5 -33v-208q0 -15 -12 -32t-33 -17h-698q-45 0 -45 49z" />
<glyph unicode="&#x3e;" horiz-adv-x="912" d="M74 281q0 15 13 31l336 337l-336 337q-11 17 -12 32q1 17 15 32l144 144q11 11 23.5 21.5t33.5 10.5q14 0 26.5 -11.5t23.5 -21.5l514 -513q15 -15 15 -32q0 -14 -15 -30l-536 -537q-14 -14 -31 -14t-29 14l-168 164q-17 17 -17 36z" />
<glyph unicode="?" horiz-adv-x="1164" d="M60 1186v34q0 108 42.5 197t114 153.5t165 100.5t196.5 36q105 0 198 -38t163.5 -105t111 -158.5t40.5 -199.5q0 -97 -25 -162t-62 -109t-80 -73t-80.5 -56.5t-62 -58t-24.5 -76.5q0 -40 -2.5 -63.5t-10.5 -35.5t-22.5 -15t-39.5 -3h-240q-23 0 -35 15.5t-12 34.5 q0 54 1.5 89t4.5 57.5t8.5 37t13.5 27.5q29 46 64.5 80t72.5 61.5t72 52t62.5 53t44 63.5t16.5 83q0 33 -14.5 64t-38.5 54.5t-56.5 37t-66.5 13.5q-35 0 -67 -14t-56.5 -39t-39 -56.5t-14.5 -65.5v-23q0 -17 -12 -25t-30.5 -10t-39.5 -1t-37 1h-178q-26 0 -35.5 13.5 t-9.5 28.5zM397 47v248q0 20 11.5 32.5t33.5 12.5h271q17 0 32 -12.5t15 -32.5v-248q0 -18 -12 -32.5t-35 -14.5h-271q-45 0 -45 47z" />
<glyph unicode="@" horiz-adv-x="1737" d="M63 993l19 48q3 10 8 16q7 9 15 11q4 2 8 3t9 1t9 -0.5t9 -1.5q9 -4 15 -11q5 -2 6.5 -5.5t3.5 -7.5t3 -9t2 -8q0 -9 -3 -18l-10 -31l50 -18l-7 -20zM89 1005l48 -18l11 31q0 2 1 4.5t1 4.5q0 3 -1 5t-2 5q-1 2 -2.5 4t-3.5 5q-3 3 -7 5q-3 1 -6 1h-5q-3 0 -5 -0.5 t-4 -1.5q-2 -2 -4 -2.5t-5 -3.5q-4 -6 -5 -9zM111 1111l43 79l17 -10l-34 -61l37 -20l28 50l17 -9l-28 -49l38 -23l34 61l18 -9l-43 -79zM115 361l13 8q9 6 16 4l102 -11l-32 55l29 16l56 -97l-13 -7q-6 -2 -7 -2q-3 -2 -9 -2l-101 11l33 -55l-29 -18zM173 1220l31 42 q4 2 7 5t6 5q4 3 7.5 4t7.5 2h8.5t8.5 -1q9 -2 15 -8q3 -2 5 -4.5t4 -6.5q2 -2 4 -5t3 -5q1 -5 1 -8v-6q0 -6 -2 -12l76 -2l-7 -12q-3 -4 -8 -6q-3 -1 -5 -2t-4 -1l-65 2l-13 -17l48 -37l-12 -17zM196 232l111 95l64 -76l-26 -21l-42 48l-15 -15l31 -37l-25 -22l-32 38 l-19 -15l40 -47l-25 -22zM201 1224l36 -28l19 27q2 1 2.5 3t2.5 4v8q0 2 -1 4t-2 5q-4 4 -6 5q-4 4 -8 4q-2 1 -8 1q-2 -1 -4.5 -1t-4.5 -1q-4 -2 -6 -6zM230 742q0 91 24 175t67 156t102 130.5t131 99t153 63.5t167 23q139 0 257 -53.5t204 -143t134.5 -206.5t48.5 -244 q0 -116 -37 -216t-100.5 -180t-149.5 -136.5t-184 -86.5q-42 -11 -84 -17.5t-89 -6.5q-91 0 -174.5 23.5t-155 66.5t-129.5 102.5t-99 131t-63.5 152.5t-22.5 167zM268 1322q2 11 5 15q2 5 9 14q6 5 11 6q4 4 10 4q10 2 12 2q7 0 11 -1l-1 -6q0 -3 -4 -9q-4 -5 -8 -5 q-4 -1 -6 -1t-4 -1t-5 -4q-4 -3 -6 -7q-3 -3 -3 -8v-7q1 -3 4 -6q3 -4 6 -5h6q3 0 9 2q3 2 6 2.5t7 2.5q2 1 3.5 2t2.5 1q2 1 8 3q4 0 7 3q1 0 2.5 0.5t3.5 0.5q20 2 33 -12q10 -6 11 -17q1 -5 1.5 -8t0.5 -8q-1 -5 -2 -9.5t-3 -9.5t-5.5 -8.5t-5.5 -6.5q-13 -12 -32 -15h-6 q-3 2 -6 2q-2 0 -3.5 0.5t-2.5 0.5t-1 0.5t-1 0.5l1 5q1 2 1.5 3.5t1.5 3.5q8 5 12 5h3q3 0 9 2q4 1 11 6q2 2 2.5 4.5t2.5 4.5q3 4 3 11q2 4 0 9q0 3 -1.5 5t-3.5 4q-3 5 -9 5q-5 3 -10 0q-6 0 -9 -3q-8 -2 -11 -5q-4 -1 -14 -5q-4 -2 -8.5 -2t-6.5 -1q-10 0 -14 1 q-3 2 -7 4t-6 6q-7 6 -10 15q-2 9 -1 14zM285 742q0 -80 20.5 -154.5t58 -140.5t91 -121t119 -94t142 -61.5t158.5 -22.5q122 0 230 47t188.5 127t127 188t46.5 232q0 109 -34.5 202.5t-94 167.5t-139 125t-168.5 76q-35 11 -73.5 16.5t-82.5 5.5q-85 0 -161.5 -22 t-142 -61.5t-118.5 -94.5t-90 -120.5t-57 -140.5t-20 -154zM315 104l72 85l-32 27l23 26l88 -75l-21 -25l-31 27l-73 -87zM343 742q0 98 30.5 183t89.5 155h706l-693 -695q-63 72 -98 163t-35 194zM360.5 1384q0.5 5 0.5 10q2 5 4 9.5t4 8.5q2 5 4.5 8t5.5 8q6 6 15 13 q8 7 18 8q9 4 19 4q9 3 20 0q5 -1 8 -2.5t8 -3.5t9 -4.5t8 -5.5t7 -7t7 -9q2 -4 4.5 -8t3.5 -9q4 -9 4 -19q2 -10 0 -19q-1 -5 -2.5 -9t-3.5 -9q-5 -10 -11 -17q-4 -3 -7 -6.5t-8 -5.5q-14 -10 -26 -11q-15 -4 -30 0q-7 1 -13.5 3.5t-13.5 5.5q-12 8 -20 20l-4.5 9t-3.5 10 q-5 10 -6 18q-1 5 -0.5 10zM369 56l130 92l23 -16l-19 -156l-22 12q-1 3 -4 4q-3 3 -3 5q-2 4 -2 6v6l2 18l-48 28l-14 -10q-1 -1 -2.5 -1t-2.5 -1h-7q-2 -1 -3.5 -0.5t-2.5 0.5q-2 1 -4 1t-3 1zM382 1369q2 -5 3.5 -9.5t6.5 -9.5q4 -10 15 -16q8 -5 19 -7q10 -3 21 0 q10 2 19 8q11 6 15 16q3 5 4.5 9t3.5 9q1 11 0 23q-2 4 -3.5 8.5t-5.5 9.5q-5 9 -15 15q-10 7 -19 9q-11 2 -20 0q-11 -2 -20 -10q-9 -6 -16 -15q-3 -5 -4.5 -9.5t-3.5 -9.5q-2 -9 0 -21zM457 77l22 -15l2 28q0 1 1 1.5t1 1.5q0 2 0.5 2t0.5 1t0.5 1.5t0.5 1.5l-2 -2 q-4 -2 -3 -2l-1 -2q0 -1 -1 -1zM490 1499l15 6q4 2 8 2q5 0 6 -2l112 -71l1 -1q1 -2 1 -3q2 0 2 -1t1 -1l-47 112l19 7l56 -134l-15 -6q-4 -1 -8 -1q-5 0 -8 1l-109 72q-2 0 -2 0.5t-2 0.5q0 2 -1 3q-1 0 -1 1v2l47 -114l-19 -8zM516 1140q73 65 164 101t194 36t194 -37 t160 -100h-712zM518 344h716q-74 -61 -165 -98t-195 -37q-103 0 -192.5 37t-163.5 98zM522 -31l55 134l89 -34l-11 -31l-59 21l-8 -21l48 -20l-13 -31l-49 19l-18 -50zM578 401l693 701q68 -84 101.5 -173t33.5 -187t-31.5 -183.5t-87.5 -157.5h-709zM645 -13.5 q0 5.5 2 10.5q1 8 6 19q6 6 12 15q3 4 6.5 7t6.5 6q5 3 9 4.5t9 3.5q4 2 9.5 2.5t10.5 1.5h9.5t9.5 -2t10 -3t9 -3q10 -5 16 -10l7 -7t5 -7q7 -8 9 -19q2 -5 3 -9t2 -9v-10t-1 -10q-1 -10 -8 -19q-3 -4 -5.5 -7.5t-5.5 -8.5q-4 -7 -13 -12q-5 -2 -9 -4t-10 -4q-5 -2 -9 -3 t-9 -1h-9.5t-11.5 2q-5 1 -9 2t-9 3q-4 2 -8 4.5t-8 6.5q-4 3 -6.5 7.5t-6.5 7.5q-2 4 -4.5 8t-4.5 8q-2 12 -4 19v10.5zM664 1414l33 156l20 3l90 -130l-11 -2q-2 -1 -4 -0.5t-5 0.5q-5 1 -7 6l-14 20l-73 -14l-5 -25q-2 -5 -5 -8q-1 -2 -3.5 -3t-4.5 -1zM682 -10 q-1 -9 0 -17q1 -3 2 -6.5t3 -7.5q4 -6 10 -11q3 -2 7.5 -3t9.5 -2q6 -3 14 0q9 1 14 4q7 6 12 12q2 4 4 7.5t3 6.5q2 8 0 18q-1 5 -7 13q-2 4 -5 6.5t-6 5.5q-4 2 -7 3t-8 4q-8 2 -14 0q-5 -2 -9 -3.5t-8 -3.5q-2 -2 -4.5 -5t-4.5 -7q-4 -4 -6 -14zM697 1475l57 11l-38 54 q-2 2 -2 4t-2 4v-4v-4zM803 1586l19 1l5 -126l65 3l1 -21l-85 -3zM806 39h15h14q7 0 9 -1q4 -3 5 -5l51 -73q1 -1 1 -2t1 -2q0 -2 1 -2.5t1 -1.5q0 -4 1 -5l-3 93h36l1 -145l-31 -1l-66 97l1 -97l-35 -2zM949 42l115 20l6 -31l-40 -8l22 -110l-34 -6l-21 109l-42 -8z M952 1482q0 10 1 15l15 87l20 -4l-15 -87q-2 -8 0 -15q1 -3 2.5 -7t3.5 -6q2 -3 4.5 -5.5l4.5 -4.5q4 -2 7.5 -4t8.5 -3q10 0 14 1q5 0 8 2l6 4q6 4 10 10q2 3 4 7l4 8l14 87l20 -2l-17 -89q-1 -3 -1.5 -7t-2.5 -8l-3.5 -7t-3.5 -6q-3 -2 -6.5 -4.5t-6.5 -4.5q-5 -4 -12 -6 q-4 -2 -8 -2.5t-7 -2.5q-10 0 -16 2q-5 0 -8 1.5l-7 3.5q-4 1 -6.5 3t-5.5 4q-7 5 -11 11q-2 5 -7 13q-3 7 -3 16zM1070 1440v3l6 2q4 0 7 -2q6 -1 10 -7v-1q2 -3 3 -5t3 -4q4 -2 6 -3.5t5 -2.5q2 0 4.5 -0.5t4.5 -0.5h6t5 1q7 2 10 5q5 5 6 10q3 6 0 10q0 2 -1 4l-2 4 q-2 2 -3.5 4t-3.5 4q-2 1 -4.5 2.5t-6.5 3.5q-2 3 -5 6t-5 6q-3 2 -5 5t-4 7q-2 2 -3.5 5t-1.5 6q-2 7 3 18q1 8 7 14q7 6 13 7q5 2 9 2.5t7 0.5q4 0 8 -1t9 -2q4 -1 9 -6q5 -4 10 -9l4 -4t3 -4q1 -3 1.5 -5.5t1.5 -4.5l-6 -3q-5 -2 -11 0q-5 4 -7 6q-1 2 -2.5 4t-2.5 4 q-2 1 -4 1.5t-4 1.5q-3 2 -9 2h-7q-3 -3 -8 -4q-3 -3 -3 -7q-3 -5 -1 -8q0 -4 2 -6q1 -2 2 -3.5t4 -3.5q3 -3 10 -7q2 -2 3 -3.5t3 -2.5t3 -2.5t3 -2.5q1 -1 2.5 -3t3.5 -3l1.5 -3t2.5 -3q10 -15 4 -34q-2 -5 -4.5 -9t-4.5 -7q-5 -3 -8.5 -5.5t-7.5 -3.5q-8 -4 -18 -4 q-5 0 -9 0.5t-9 1.5q-18 8 -28 23q0 1 -1.5 2.5t-2.5 3.5q0 2 -0.5 3t-0.5 3q-1 1 -1 4zM1083 38.5v7.5q1 5 2 8.5t5 7.5q2 5 4.5 8t6.5 6q7 5 15 8q2 1 5 2t8 1q2 0 5.5 -1t7.5 -1q2 -1 5 -1.5t8 -2.5q2 -2 4.5 -2.5t4.5 -2.5l-6 -11q-1 -3 -3 -8q-3 -1 -5 -1.5t-4 -0.5 q-1 -1 -4 -1h-5h-5q-3 0 -4 -2q-4 0 -6 -2q-3 0 -3 -2l-2 -4q0 -1 1 -2q0 -3 3 -4q1 0 1.5 -1t2.5 -1h11h10h9t9 -1q4 -2 7 -2.5t7 -2.5q7 -5 12 -10q5 -4 7 -14q4 -9 3 -18q0 -6 -2 -10t-4 -9q-2 -4 -4.5 -7.5t-7.5 -8.5q-5 -2 -9.5 -4.5t-9.5 -4.5l-8 -2t-9 -1 q-6 -2 -16 2q-8 1 -15 5q-3 2 -6 4.5t-5 6.5l7 10q2 2 4 3q3 3 4 3q3 1 10 1q2 0 4 -0.5t4 -0.5t3.5 -1t3.5 -1q5 0 7 2q3 0 4 0.5l3 1.5l5 6q2 2 2 7v6l-3 3q-1 1 -5 1q-2 2 -4 2h-4h-10h-7.5t-8.5 1q-6 0 -14 2q-4 2 -7.5 4t-5.5 4q-5 5 -11 16q-2 5 -2 9.5zM1158 1383 l66 130l80 -42l-9 -18l-61 33l-20 -38l51 -26l-11 -18l-50 27l-19 -38l62 -33l-9 -19zM1219 -3q0 5 2 7q0 2 3 7q1 3 6 5q3 1 4.5 1t3.5 1q2 0 3.5 -0.5t3.5 -0.5q5 -2 6 -4q3 -1 5 -7q4 -4 5 -7q0 -5 -3 -7q-2 -2 -2.5 -3.5t-1.5 -2.5q-1 -2 -2.5 -3t-3.5 -3q-6 -2 -7 -3 q-5 0 -7 1q-5 0 -9 5q-3 2 -4 7q0 2 -1 3.5t-1 3.5zM1232 95v9.5t2 9.5q1 9 5 18q3 4 5 8t6 8q3 4 7.5 7.5t9.5 6.5q7 4 13 7q4 2 7.5 2.5t8.5 2.5h18q5 0 9 -1t7 -2l-1 -13q-2 -4 -3 -7q-2 -2 -3 -3.5t-3 -3.5q-8 -4 -13 -4q-7 0 -12 -2q-5 -1 -12 -4q-7 -4 -10 -11 q-5 -8 -5 -14q-2 -8 0 -17q2 -10 6 -14q2 -6 11 -11q3 -3 6.5 -4.5t7.5 -3.5q6 -2 16 0q4 0 7 2t7 5q3 2 5 4.5t5 4.5l7 9q2 7 7 11q2 2 4 2t4 1h8l12 -2q-1 -5 -2 -9.5t-3 -8.5q-1 -5 -6 -16q-3 -8 -10 -13q-7 -7 -11 -10q-5 -3 -10 -5.5t-10 -3.5q-8 -4 -18 -4 q-5 -1 -10 -0.5t-10 1.5q-3 2 -7.5 2.5t-9.5 2.5q-4 3 -8 5.5t-8 6.5q-4 3 -7.5 6t-6.5 7l-4 10l-4 10q-1 4 -1.5 8.5t-2.5 9.5zM1311 1317q0 16 4 29q5 15 14 24q7 10 17 13q3 3 7 5.5t8 4.5q5 2 9.5 2t9.5 1h10t10 -1q9 -2 18 -6q7 -3 16 -12q4 -3 8 -6.5t6 -8.5 q6 -7 7 -16q4 -8 4 -19v-9.5t-1 -9.5q-2 -5 -3 -10t-3 -9q-5 -10 -11 -15q-4 -5 -7 -8.5t-8 -7.5q-5 -2 -9 -4t-9 -3q-9 -3 -18 -3h-10t-10 1q-3 1 -7.5 2t-9.5 4q-5 2 -9 5t-9 5q-5 7 -9.5 12.5t-7.5 11.5l-4 14t-3 14zM1330 1319q0 -6 1.5 -10.5l3.5 -10.5q4 -5 7 -9.5 t7 -7.5q5 -4 9.5 -6t9.5 -5q11 -3 20 -2q13 0 20 6q5 2 9.5 5t8.5 6q8 9 10 20q5 9 3 20q0 5 -1 10t-4 11q-2 5 -5.5 8.5l-7.5 7.5t-9 6.5t-10 4.5t-10.5 2.5t-10.5 0.5t-10 -2l-10 -4q-9 -5 -15 -12q-9 -9 -13 -19q-2 -5 -2.5 -10t-0.5 -10zM1340 179v9t0.5 10t1.5 10 t3.5 9t4.5 9q3 3 5.5 7.5t6.5 7.5q4 4 8 7l8 6q4 2 8.5 3.5t9.5 2.5q5 2 9 2h9h9.5t10.5 -2q5 -1 9.5 -2.5t8.5 -3.5q5 -3 8 -6t8 -7l6 -8t6 -9q2 -4 3.5 -8t3.5 -9q1 -5 1 -9.5v-10.5q0 -7 -2 -17q-1 -5 -3 -9.5t-4 -8.5q-4 -8 -13 -17q-4 -4 -7.5 -6.5t-7.5 -4.5 q-5 -2 -9 -4t-9 -3q-9 -3 -20 -3q-9 0 -18 3q-5 1 -9.5 3t-9.5 4q-3 2 -7 5l-8 6q-4 4 -6.5 7.5t-5.5 9.5q-2 5 -4 9t-3 9q-2 5 -2 9zM1374 188q0 -10 2 -14t4 -7.5t5 -6.5t7 -5l8 -4q6 -2 14 -3q11 0 16 3q4 1 7 3.5t6 5.5q8 6 9 12q3 7 3 15q0 7 -3 16q-1 7 -9 13 q-6 7 -13 10q-6 3 -16 3q-4 0 -7 -0.5t-7 -1.5q-4 -2 -7.5 -4t-7.5 -6q-5 -4 -9 -13q-2 -3 -2 -7v-9zM1397 1210l116 88l12 -13q2 -4 3 -7v-8l-43 -123q0 -1 -0.5 -1t-0.5 -1t-1 -1t-1 -1l-1 -2l97 71l12 -15l-116 -87l-10 12q-3 2 -5 7q0 5 1 8l42 125q0 1 1 1t1 1l1 1 q1 2 2 3l-98 -72zM1413 288l13 19q3 5 10 8q3 1 6.5 1h5.5l86 -13l-48 72q-2 4 -3 6.5t-1 5.5q0 4 1 6.5t3 5.5l13 20l123 -79l-18 -30l-60 38l42 -62l-15 -25l-73 13l56 -37l-19 -29zM1481 1093l130 66l8 -16l-112 -59l30 -55l-18 -10zM1527 995l58 23l2 1l4 2q0 2 0.5 2.5 t0.5 1.5q3 0 3 2l49 75l3 -12q2 -4 2.5 -7.5t0.5 -5.5q-1 -2 -2 -4.5t-2 -4.5l-32 -48l-2 -2l-1 -1h2q0 1 3 0l55 -17q2 -1 4.5 -2t4.5 -3q4 -2 6 -8l5 -13l-84 24q-2 0 -3 1h-5h-4q-3 0 -4 -1l-57 -21z" />
<glyph unicode="A" horiz-adv-x="1567" d="M44 41l556 1440q1 6 6.5 13t14 13t17.5 10t17 4h263q17 0 29 -11t19 -19l25 -58l538 -1387q3 -8 3 -15q0 -10 -6 -18q-12 -13 -39 -13h-294q-24 0 -36.5 8.5t-19.5 29.5l-40 104t-39 104h-544q-19 -52 -39 -104l-40 -104q-13 -38 -52 -38h-302q-19 0 -32 10q-8 6 -8 17 q0 6 3 14zM629 574h314l-157 468q-19 -52 -39 -112.5t-39.5 -122t-39.5 -121t-39 -112.5z" />
<glyph unicode="B" horiz-adv-x="1443" d="M164 44v1430q0 22 11.5 34.5t33.5 12.5h680q90 0 170 -34.5t139.5 -94.5t94.5 -140.5t35 -172.5q0 -77 -24 -143t-68 -118q74 -68 117 -161t43 -197q0 -93 -36 -176.5t-97 -146.5t-142.5 -100t-171.5 -37h-740q-20 0 -32.5 11t-12.5 33zM561 304h270q34 0 63 14.5 t50.5 38.5t33 54.5t11.5 63.5q0 31 -11.5 61.5t-32.5 54.5t-50.5 39.5t-63.5 15.5h-270v-342zM561 922h216q35 0 64 10.5t49.5 30.5t32.5 47t12 60q0 31 -11.5 57.5t-32 47t-49 32.5t-62.5 12h-219v-297z" />
<glyph unicode="C" horiz-adv-x="1442" d="M105 759q0 109 28 208.5t79 187t122.5 159t158.5 122.5t186.5 79t208.5 28q123 0 232 -34t205 -99q17 -10 25.5 -26.5t-2.5 -38.5l-173 -246q-11 -17 -24 -20t-32 8q-50 38 -110.5 58.5t-127.5 20.5q-84 0 -155 -31.5t-122 -87t-79.5 -129t-28.5 -157.5t28.5 -157.5 t79.5 -128t122 -86.5t155 -32q68 0 129 21t111 59q18 11 30.5 9t25.5 -18l175 -252q6 -13 6 -24q0 -8 -3 -14q-8 -15 -26 -25q-96 -65 -207 -100.5t-234 -35.5q-109 0 -208.5 28t-186.5 79t-158.5 122.5t-122.5 158t-79 186t-28 208.5z" />
<glyph unicode="D" horiz-adv-x="1584" d="M148 43v1431q0 22 12 35t36 13h504q108 0 208 -27t186.5 -76t158 -117.5t122 -153.5t79 -183t28.5 -206q0 -109 -28 -206.5t-79 -182t-122 -153.5t-157.5 -117t-187 -74t-208.5 -26h-504q-18 0 -33 8t-15 35zM545 367h86q24 0 46 1.5t45 3.5q77 6 143.5 37t116 82 t77.5 119.5t28 149.5q0 86 -32 158t-87.5 125t-129.5 82t-158 29h-135v-787z" />
<glyph unicode="E" horiz-adv-x="1382" d="M165 44v1430q0 22 11.5 34.5t33.5 12.5h1017q23 0 35 -13.5t12 -36.5v-253q0 -17 -12.5 -33.5t-35.5 -16.5h-664v-253h512q19 0 32 -9t13 -30v-222q0 -14 -11 -27.5t-33 -13.5h-513v-261h688q46 0 46 -47v-258q0 -10 -8 -18q-4 -29 -42 -29h-1036q-20 0 -32.5 11 t-12.5 33z" />
<glyph unicode="F" horiz-adv-x="1328" d="M173 43v1431q0 22 12 34t28 13h980q24 0 35.5 -13.5t11.5 -36.5v-253q0 -17 -12.5 -33.5t-35.5 -16.5h-623v-316h460q19 0 32.5 -11t13.5 -34v-245q0 -17 -11.5 -33t-32.5 -16h-462v-469q0 -44 -47 -44h-312q-37 5 -37 43z" />
<glyph unicode="G" horiz-adv-x="1538" d="M111 759q0 109 27.5 208.5t78.5 187t122.5 159t158.5 122.5t186.5 79t208.5 28q123 0 232 -34t205 -99q17 -10 26.5 -27t-3.5 -38l-166 -240q-13 -16 -26.5 -21.5t-36.5 8.5q-52 37 -111.5 57t-126.5 20q-85 0 -156 -32t-121.5 -87.5t-79 -129.5t-28.5 -158t28.5 -158 t79 -128.5t121.5 -86.5t156 -32q36 0 71 5.5t75 13.5v268q0 19 11.5 32t33.5 13h279q15 0 32.5 -12t17.5 -33v-496q0 -28 -30 -45q-48 -33 -106.5 -56t-122 -38.5t-128.5 -23.5t-126 -8q-109 0 -208.5 28t-186.5 79t-158.5 122.5t-122.5 158t-78.5 186t-27.5 208.5z" />
<glyph unicode="H" horiz-adv-x="1640" d="M169 40v1436q1 17 13 31t31 14h304q15 0 31.5 -13t16.5 -32v-486h509v486q0 18 13 31.5t33 13.5h300q20 0 35.5 -10.5t15.5 -32.5v-1433q0 -23 -13 -34t-35 -11h-303q-20 0 -33 11.5t-13 33.5v582h-509v-582q0 -22 -13.5 -33.5t-37.5 -11.5h-301q-43 0 -44 40z" />
<glyph unicode="I" d="M169 45v1431q0 18 11 31.5t34 13.5h301q15 0 32.5 -12.5t17.5 -32.5v-1431q0 -45 -50 -45h-301q-45 0 -45 45z" />
<glyph unicode="J" horiz-adv-x="924" d="M-147 -200q0 27 16 39l178 167q8 7 17.5 12t17.5 5q15 0 29 -11.5t31 -25.5t39.5 -25t54.5 -11q24 0 46 9t39 24.5t27 36.5t10 45v1415q0 38 40 41h302q55 0 56 -54v-1402q0 -101 -40.5 -190t-109 -155t-159.5 -104t-191 -38q-59 0 -116.5 13.5t-109.5 39.5t-96.5 64.5 t-77.5 88.5q-3 1 -3 16z" />
<glyph unicode="K" horiz-adv-x="1565" d="M163 45v1431q0 18 11.5 31.5t33.5 13.5h303q15 0 32 -12.5t17 -32.5v-558q112 143 219.5 282t217.5 283q11 17 29 28t36 11h389q25 0 25 -16q0 -10 -12 -24l-482 -636l534 -803q11 -17 11 -28q0 -15 -23 -15h-387q-17 0 -34 10t-28 28q-54 74 -99 141.5t-87 134.5 t-85 135.5t-94 144.5l-130 -150v-399q0 -45 -49 -45h-302q-46 0 -46 45z" />
<glyph unicode="L" horiz-adv-x="1207" d="M129 45v1432q0 18 12.5 31.5t33.5 13.5h303q17 0 31.5 -12.5t15.5 -32.5v-1115h564q18 0 31.5 -12t13.5 -34v-269q0 -17 -12 -31.5t-33 -15.5h-915q-45 0 -45 45z" />
<glyph unicode="M" horiz-adv-x="1967" d="M103 45l147 1431q2 18 14 31.5t35 13.5h354q38 0 49 -39l279 -930l281 930q14 39 52 39h350q18 0 33 -13t17 -32q36 -360 73.5 -715t73.5 -716v-5q0 -40 -45 -40h-290q-47 0 -49 45l-89 792l-231 -797q-2 -10 -15 -24.5t-25 -14.5h-269q-12 0 -26 14t-15 25l-230 795 l-90 -790q-2 -45 -50 -45h-290q-44 0 -44 45z" />
<glyph unicode="N" horiz-adv-x="1678" d="M169 44v1432q0 18 11 31.5t34 13.5h335q14 0 29.5 -7.5t26.5 -24.5q130 -210 258 -414t259 -413v820q4 18 16.5 28.5t28.5 10.5h292q22 0 36 -12t14 -33v-1436q0 -20 -12 -30t-34 -10h-326q-13 0 -23.5 9t-21.5 25q-136 225 -269.5 445t-270.5 446v-880q0 -23 -10.5 -34 t-36.5 -11h-291q-24 0 -34.5 13t-10.5 31z" />
<glyph unicode="O" horiz-adv-x="1745" d="M94 759q0 109 28 208.5t79 187t122 159t158 122.5t187 79t209 28q108 0 208 -28t187 -79t158.5 -122.5t122.5 -159t79 -187.5t28 -208q0 -109 -28 -208.5t-79 -186t-122.5 -158t-158.5 -122.5t-187.5 -79t-207.5 -28q-109 0 -209 28t-187 79t-158 122.5t-122 158t-79 186 t-28 208.5zM489 760q0 -85 29 -159t80.5 -128.5t122.5 -86t156 -31.5t156 31.5t122.5 86t80.5 128.5t29 159q0 84 -29 158t-80.5 129.5t-122.5 87t-156 31.5t-156 -31.5t-122.5 -87t-80.5 -129.5t-29 -158z" />
<glyph unicode="P" horiz-adv-x="1375" d="M145 44v1430q0 22 11.5 34.5t33.5 12.5h655q71 0 133 -19.5t114.5 -54t94.5 -82t71 -103t44.5 -116.5t15.5 -123q0 -92 -33.5 -180t-95 -157t-147.5 -111.5t-190 -43.5h-310v-487q0 -44 -47 -44h-305q-20 0 -32.5 11t-12.5 33zM542 854h217q37 0 66.5 15t49.5 38.5 t30.5 54t10.5 63.5q0 31 -10.5 61.5t-31 54.5t-49.5 39.5t-66 15.5h-217v-342z" />
<glyph unicode="Q" horiz-adv-x="1745" d="M94 759q0 109 28 208.5t79 187t122 159t158 122.5t187 79t209 28q108 0 208 -28t187 -79t158.5 -122.5t122.5 -159t79 -187.5t28 -208q0 -138 -44 -263t-122.5 -225t-186.5 -170t-236 -100v-277q0 -45 -49 -46h-302q-45 0 -45 46v279q-127 31 -233.5 101t-184 169.5 t-120.5 223.5t-43 262zM489 760q0 -85 29 -159t80.5 -128.5t122.5 -86t156 -31.5t156 31.5t122.5 86t80.5 128.5t29 159q0 84 -29 158t-80.5 129.5t-122.5 87t-156 31.5t-156 -31.5t-122.5 -87t-80.5 -129.5t-29 -158z" />
<glyph unicode="R" horiz-adv-x="1440" d="M167 44v1430q0 22 11 34.5t34 12.5h661q105 0 197.5 -39.5t161 -107t108 -158.5t39.5 -193q0 -70 -19 -133t-52.5 -117.5t-80 -99t-102.5 -76.5l264 -496q7 -14 18 -33.5t11 -33.5q0 -16 -10.5 -25t-29.5 -9h-351q-17 0 -31 10t-18 28l-249 468h-166v-462q0 -44 -47 -44 h-304q-20 0 -32.5 11t-12.5 33zM563 831h189q18 0 32.5 1.5t31.5 3.5q36 4 64.5 20.5t48 42t30 56.5t10.5 64q0 31 -11.5 61.5t-32 56t-49 43t-63.5 22.5q-29 2 -54 3.5t-54 1.5h-142v-376z" />
<glyph unicode="S" horiz-adv-x="1343" d="M77 292q0 17 23 39l178 169q22 15 34 15q9 0 19.5 -6.5t24.5 -18.5q17 -14 44.5 -38t62.5 -48q52 -35 103 -54t108 -19q52 0 87.5 11.5t56 31t29 45t8.5 54.5q0 32 -24 57t-59 44.5t-72.5 33.5t-65.5 23q-123 43 -215 92.5t-153.5 110.5t-92.5 134t-31 164 q0 95 38.5 172.5t109.5 133t171.5 85.5t224.5 30q93 0 178.5 -21t168.5 -67q35 -20 66 -42t55 -42.5t37.5 -39t13.5 -31.5t-6.5 -24.5t-19.5 -25.5l-157 -167q-17 -17 -35 -18q-14 0 -26 8.5t-26 20.5l-9 8q-20 17 -45.5 35.5t-54 33.5t-60.5 24.5t-65 9.5q-34 0 -63.5 -5.5 t-52 -17.5t-35.5 -32t-13 -49t14 -50t43 -38.5t71.5 -33.5t98.5 -35q109 -36 200.5 -75t158 -93t104 -128.5t37.5 -181.5q0 -113 -46.5 -204.5t-126.5 -156t-188.5 -99.5t-233.5 -35q-118 0 -231.5 42t-212.5 112q-41 30 -69 58.5t-44 46.5l-3 3q-1 2 -2.5 2.5t-2.5 1.5 q-1 2 -2 2.5t-2 1.5q-24 26 -23 41z" />
<glyph unicode="T" horiz-adv-x="1363" d="M82 1221v255q0 20 14 32.5t34 12.5h1103q18 0 32.5 -11.5t16.5 -33.5v-255q0 -18 -13 -35.5t-36 -17.5h-353v-1120q0 -18 -13.5 -33t-35.5 -15h-301q-17 0 -32.5 14t-15.5 34v1120h-352q-20 0 -34 13.5t-14 39.5z" />
<glyph unicode="U" horiz-adv-x="1587" d="M160 612v864q0 17 11.5 31t29.5 14h307q15 0 32 -13t17 -32v-869q0 -76 21 -128.5t55.5 -86t80 -48.5t94.5 -15q51 0 96.5 18t80 53t54.5 87.5t20 119.5v869q0 18 12.5 31.5t34.5 13.5h299q24 0 37 -14t13 -31v-864q0 -179 -52.5 -301t-142 -196t-206.5 -106.5 t-246 -32.5t-247 33.5t-207 109t-141.5 196.5t-52.5 297z" />
<glyph unicode="V" horiz-adv-x="1505" d="M18 1492q0 29 38 29h330q39 0 53 -39l313 -932q42 117 80 233t75.5 233t76 233t80.5 233q14 39 56 39h323q24 0 33.5 -9t9.5 -23q0 -8 -1 -11v-3l-529 -1376q-5 -14 -12 -31.5t-16 -32.5t-21.5 -25t-27.5 -10h-253q-32 0 -42 22q-11 18 -20 37.5t-17 39.5l-525 1376 q0 5 -2 9t-2 8z" />
<glyph unicode="W" horiz-adv-x="2207" d="M19 1492q0 29 38 29h330q39 0 53 -39l314 -933l289 933q14 39 57 39h333q24 0 33.5 -9t9.5 -23q0 -8 -1 -11v-3l-183 -523l138 -402l331 932q14 39 57 39h322q24 0 33.5 -9t9.5 -23q0 -8 -1 -11v-3q-70 -180 -142.5 -359.5t-145.5 -358.5t-145.5 -359t-140.5 -359 q-4 -11 -18.5 -25t-35.5 -14h-3h-247q-23 0 -35 8.5t-17 23.5l-161 426q-35 -93 -69 -183t-68 -183q-5 -14 -11.5 -30t-15.5 -30t-21 -23t-27 -9h-3h-248q-33 0 -43 22q-10 17 -19.5 35.5t-16.5 36.5q-132 348 -263 690t-263 691q0 5 -2 9t-2 8z" />
<glyph unicode="X" horiz-adv-x="1488" d="M14 17q0 6 2 10q8 15 17 31t20 32l461 688q-118 177 -233 350.5t-233 350.5q-6 8 -9.5 15t-4.5 15q2 8 11.5 8t20.5 5h356q38 0 59 -39l251 -377l254 377q22 39 60 39h321h19.5t21 -0.5t17 -4t7.5 -9.5q0 -12 -12 -26l-471 -704l481 -717q10 -14 15.5 -25.5t4.5 -20.5 q0 -15 -18 -15h-367q-17 0 -31.5 10t-22.5 28l-279 413l-275 -413q-8 -17 -22.5 -27.5t-32.5 -10.5h-349h-18q-8 0 -14.5 4.5t-6.5 12.5z" />
<glyph unicode="Y" horiz-adv-x="1443" d="M25 1505q0 6 4 11t11 5h394q7 -2 11.5 -2.5t8.5 -3.5t8 -8.5t11 -17.5l250 -530l248 530q6 12 10 17.5t8 8.5t8.5 3.5t11.5 2.5h394q7 0 11.5 -5t4.5 -11q0 -11 -14 -25l-485 -859v-573q0 -48 -48 -48h-307q-20 0 -31.5 13t-11.5 35v575l-484 857q-13 13 -13 25z" />
<glyph unicode="Z" horiz-adv-x="1466" d="M111 1219v257q0 20 12.5 32.5t35.5 12.5h1189q19 0 33 -11.5t14 -33.5v-207q0 -8 -0.5 -15.5t-5.5 -18.5l-742 -884h704q19 0 32.5 -11t13.5 -35v-255q0 -17 -13 -33.5t-33 -16.5h-1189q-20 0 -34 13.5t-14 36.5v220q0 16 7 27l739 871h-701q-23 0 -35.5 12t-12.5 39z " />
<glyph unicode="[" horiz-adv-x="858" d="M164 -305v1940q0 45 45 45h444q45 -3 45 -45v-243q0 -22 -13 -34.5t-32 -12.5h-124v-1359h124q18 0 31.5 -13t13.5 -34v-244q0 -42 -45 -45h-444q-45 0 -45 45z" />
<glyph unicode="\" horiz-adv-x="1112" d="M28 1489q0 17 16 24.5t37 7.5h284q26 0 41.5 -13.5t23.5 -31.5l647 -1431q1 -18 4 -18q0 -27 -43 -27h-306q-22 0 -32.5 9.5t-21.5 35.5l-646 1431q-2 2 -2 5t-2 8z" />
<glyph unicode="]" horiz-adv-x="858" d="M164 -61q0 22 12.5 34.5t32.5 12.5h124v1359h-124q-19 0 -32 12.5t-13 34.5v243q0 42 45 45h443q45 0 45 -45v-1940q0 -45 -45 -45h-443q-45 3 -45 45v244z" />
<glyph unicode="^" horiz-adv-x="1000" d="M77 1209q0 18 13 32l379 379q15 15 31 15q14 0 29 -15l381 -379q13 -13 14 -32q0 -16 -14 -28l-131 -133q-18 -18 -36 -19q-17 0 -31 13l-212 214l-214 -214q-17 -11 -31 -11q-17 0 -32 15l-131 130q-15 12 -15 33z" />
<glyph unicode="_" horiz-adv-x="1374" d="M169 49v185q0 45 45 46h944q18 0 31.5 -12t13.5 -34v-185q0 -7 -3 -15.5t-9 -16t-14.5 -12.5t-18.5 -5h-944q-45 0 -45 49z" />
<glyph unicode="`" horiz-adv-x="565" d="M75 1710.5q-2 11.5 0.5 21t10 15.5t23.5 6h264q17 0 33 -9.5t21 -33.5l53 -211l5 -22.5t3 -24.5t-5.5 -19.5t-20.5 -8.5h-224q-19 0 -31 10.5t-25 32.5l-100 221q-5 11 -7 22.5z" />
<glyph unicode="a" horiz-adv-x="1584" d="M84 649q0 142 52 264.5t142.5 213.5t212 142.5t261.5 51.5q63 0 116.5 -19t97 -49.5t78.5 -69.5t63 -79l40 124q10 26 16.5 41.5t14.5 23t19 10.5t32 3h152q11 0 26.5 -3.5t27.5 -14.5q14 -11 20 -25.5t6 -32.5v-1154q0 -17 -6 -33t-20 -26q-11 -11 -26.5 -14t-27.5 -3 h-201q-22 0 -35 5.5t-21.5 16t-14 25t-11.5 32.5l-30 77q-28 -28 -60.5 -59t-72 -58t-85.5 -45t-98 -18q-93 0 -179 24t-160 67.5t-134.5 104t-104 135.5t-67 161.5t-23.5 180.5zM453 649q0 -68 21 -126.5t59.5 -101.5t93.5 -68t122 -25q69 0 127.5 25t102 68t68 102 t24.5 126q0 66 -24.5 125.5t-68 104.5t-102.5 71t-127 26q-67 0 -122 -26t-93.5 -71t-59.5 -104.5t-21 -125.5z" />
<glyph unicode="b" horiz-adv-x="1556" d="M123 79v1530q0 17 6.5 31.5t17.5 24.5t24.5 16t27.5 6h232q39 0 61.5 -23t22.5 -55v-467q29 31 61.5 62.5t71 57.5t84.5 42.5t103 16.5q139 0 256 -51.5t201.5 -142.5t132.5 -213t48 -265q0 -141 -48 -264t-132.5 -213.5t-201.5 -143t-256 -52.5q-52 0 -98.5 18t-86.5 46 t-73.5 59.5t-61.5 59.5l-29 -80q-9 -19 -15 -34t-13.5 -25t-19 -15t-30.5 -5h-203q-82 0 -82 79zM486 635q3 -65 29.5 -121t69.5 -97.5t100 -65t123 -23.5q68 0 122 25t93 68t60 101.5t21 126.5q0 66 -21 125.5t-60 104.5t-93 71t-122 26t-126.5 -26t-101.5 -71 t-68.5 -104.5t-25.5 -125.5v-14z" />
<glyph unicode="c" horiz-adv-x="1264" d="M83 649q0 94 24 181.5t67 161.5t104.5 135t135 104t159 66.5t178.5 23.5q112 0 206.5 -29.5t177.5 -88.5l-3 3q23 -13 36 -31t13 -45q0 -18 -13 -37l-91 -155q-29 -50 -69 -50q-9 0 -22.5 4.5t-30.5 15.5q-45 30 -96.5 49t-109.5 19q-65 0 -119.5 -26t-92.5 -71 t-59.5 -104.5t-21.5 -125.5q0 -68 21.5 -126.5t59.5 -101.5t92.5 -68t119.5 -25q58 0 109 20t97 52q14 10 27 13t20 3q17 0 32 -7.5t30 -30.5l115 -173q5 -8 9.5 -18.5t4.5 -16.5q0 -24 -15 -38.5t-32 -26.5q-84 -58 -184 -93.5t-211 -35.5q-92 0 -178 24t-159.5 67.5 t-135 104t-104.5 135.5t-67 161.5t-24 180.5z" />
<glyph unicode="d" horiz-adv-x="1582" d="M82 649q0 142 47.5 264.5t132 213.5t202 142.5t256.5 51.5q56 0 102.5 -16.5t85 -42t71 -58t60.5 -62.5v468q0 33 20 55.5t60 22.5h231q13 0 28 -6t27 -16t20 -24.5t8 -31.5v-1531q0 -79 -83 -79h-201q-20 0 -31.5 5t-19 15t-14 24.5t-15.5 34.5l-30 80 q-28 -28 -61 -59.5t-73 -59.5t-86 -46t-99 -18q-139 0 -256.5 52.5t-202 143t-132 213.5t-47.5 264zM451 649q0 -68 21 -126.5t59.5 -101.5t93.5 -68t121 -25t124 23.5t101 65t69 97.5t29 121v14q0 66 -24.5 125.5t-68 104.5t-102.5 71t-128 26q-67 0 -121.5 -26t-93 -71 t-59.5 -104.5t-21 -125.5z" />
<glyph unicode="e" horiz-adv-x="1449" d="M82 653q0 90 22 174.5t62.5 158.5t98.5 136t129.5 106t155.5 68.5t177 24.5q85 0 165 -22.5t150 -63.5t128.5 -98.5t100.5 -125.5t65 -145.5t23 -158.5q0 -53 -1.5 -87t-16 -54t-47.5 -28t-98 -8h-737q10 -66 41 -109.5t72 -69.5t87.5 -37.5t86.5 -11.5q37 0 76 7.5 t75.5 20.5t66.5 30t49 35q16 13 28 20t25 7t27 -9.5t31 -26.5l109 -123q11 -13 14 -24t3 -22q0 -20 -11.5 -35t-26.5 -26q-90 -83 -202.5 -129.5t-238.5 -46.5q-140 0 -265 51t-219 141.5t-149.5 213.5t-55.5 267zM471 821h523q-22 40 -46.5 74t-57 59.5t-74 40t-96.5 14.5 q-40 0 -77.5 -16t-70 -42.5t-59 -60.5t-42.5 -69z" />
<glyph unicode="f" horiz-adv-x="887" d="M61 898v187q0 41 22 60t58 19h106v118q0 95 41 179t109.5 147t157.5 99.5t186 36.5h21q35 0 54 -21t19 -58v-196q0 -38 -20 -63t-53 -25h-21q-22 0 -41 -7.5t-34.5 -21t-24.5 -31t-9 -39.5v-118h161q35 0 53.5 -19t18.5 -60v-187q0 -44 -19 -64.5t-53 -20.5h-161v-734 q0 -39 -26 -59t-57 -20h-221q-37 0 -59 23t-22 56v734h-106q-36 0 -58 20.5t-22 64.5z" />
<glyph unicode="g" horiz-adv-x="1573" d="M111 653q0 140 48 262.5t134 213.5t203.5 142.5t256.5 51.5q63 0 114 -19.5t92 -50t75.5 -69t65.5 -76.5l39 122q6 17 11 31.5t13 24t21 15t34 5.5h152q11 0 26 -3.5t26 -14.5q14 -11 21.5 -24.5t7.5 -33.5v-1043q0 -160 -52 -284.5t-143 -210.5t-214.5 -131t-266.5 -45 q-55 0 -118.5 9.5t-126.5 29t-122 49.5t-104 70q-12 9 -21.5 21.5t-13 28t0 33.5t17.5 37l97 134q27 29 50 31h4q22 0 56 -25q26 -25 59 -39.5t68 -23t69.5 -11t62.5 -2.5q46 0 96 12t93.5 36t77 59t45.5 80q11 33 11 76l-1 94q-30 -32 -60.5 -67t-68 -65.5t-84.5 -50 t-109 -19.5q-138 0 -256 47.5t-204 131.5t-134 202t-48 259zM479 653q0 -69 21 -127.5t60 -101.5t94 -67.5t121 -24.5t123.5 23t100.5 64t69.5 96t29.5 120v34q-3 62 -29.5 118t-69.5 98.5t-100.5 67.5t-123.5 25q-67 0 -121.5 -26t-93.5 -70t-60 -103.5t-21 -125.5z" />
<glyph unicode="h" horiz-adv-x="1438" d="M123 79v833v8v305v5v380q0 35 19.5 56.5t63.5 21.5h231q24 0 52 -17q13 -9 20 -26.5t7 -32.5v-448q19 29 47 57t65.5 50t85 36t107.5 14q117 0 208.5 -45t155.5 -123t97.5 -182t33.5 -221v-671q0 -39 -17 -59t-54 -20h-236q-44 0 -60.5 15t-16.5 58v677q0 44 -17 81.5 t-45.5 66t-67 44t-81.5 15.5q-37 0 -72.5 -14.5t-63.5 -42t-47 -65t-22 -83.5v-676q0 -17 -6.5 -34.5t-20.5 -27.5q-13 -8 -24.5 -11t-27.5 -3h-231q-44 0 -63.5 21.5t-19.5 57.5z" />
<glyph unicode="i" horiz-adv-x="637" d="M122 79v1142q0 33 18.5 56t57.5 23h234q12 0 26.5 -5.5t27 -16t21 -25t8.5 -32.5v-1142q0 -39 -21.5 -59t-61.5 -20h-234q-76 0 -76 79zM122 1539v200q0 43 18.5 61t57.5 18h237q36 0 58 -18t22 -61v-200q0 -12 -5.5 -26.5t-16 -28t-25 -22t-33.5 -8.5h-237q-76 0 -76 85 z" />
<glyph unicode="j" horiz-adv-x="643" d="M-66 -195q0 37 23.5 59.5t55.5 22.5h22q20 0 37.5 17t30 41.5t19 52t6.5 47.5v1176q0 40 25.5 59.5t56.5 19.5h232q37 0 57.5 -23.5t20.5 -55.5v-1176q0 -95 -40 -179t-107.5 -146.5t-155 -98.5t-182.5 -36h-25q-37 2 -56.5 23t-19.5 51v146zM123 1539v200q0 43 18.5 61 t57.5 18h237q36 0 58 -18t22 -61v-200q0 -12 -5.5 -26.5t-16 -28t-25 -22t-33.5 -8.5h-237q-76 0 -76 85z" />
<glyph unicode="k" horiz-adv-x="1446" d="M123 68v1541q0 17 1 31.5t8.5 24.5t24 16t46.5 6h244q19 0 32.5 -7t21 -17t10 -22t2.5 -22v-758l369 410q26 29 61 29h2h315q56 0 56 -44q0 -11 -3.5 -18t-15.5 -20l-420 -445l529 -680h-2q13 -13 18.5 -27t5.5 -25q0 -24 -12.5 -32.5t-38.5 -8.5h-346q-17 0 -32.5 13.5 t-33.5 39.5l-335 474l-114 -117v-331q0 -8 -2.5 -21.5t-10 -26.5t-21 -22t-35.5 -9h-257q-18 0 -31.5 9.5t-21 22t-11 23.5t-3.5 13z" />
<glyph unicode="l" horiz-adv-x="634" d="M123 79v1530q0 33 16.5 55.5t56.5 22.5h250q10 0 21.5 -6t21.5 -16t16.5 -24.5t6.5 -31.5v-1530q0 -39 -22 -59t-57 -20h-237q-40 0 -56.5 20t-16.5 59z" />
<glyph unicode="m" horiz-adv-x="2182" d="M123 79v1146q0 19 8.5 35.5t24.5 25.5l-6 -3q13 11 28 14t28 3h154q18 0 32 -6.5t23 -17.5t14.5 -25.5t10.5 -29.5l32 -131q15 32 37 72t58.5 75.5t91.5 59.5t137 24q131 0 229 -56t162 -150q19 32 53 68.5t81 67t108 50.5t135 20q117 0 208.5 -45t155.5 -123t97 -182 t33 -221v-671q0 -39 -17 -59t-53 -20h-237q-44 0 -60.5 15t-16.5 58v677q0 44 -13.5 81.5t-38.5 66t-60 44t-78 15.5q-39 0 -74 -15t-61.5 -42.5t-42.5 -65.5t-16 -84v-671q0 -39 -17 -59t-53 -20h-22h-8h-207q-44 0 -60.5 15t-16.5 58v677q0 44 -12.5 81.5t-36.5 66 t-58.5 44t-77.5 15.5q-37 0 -72.5 -14.5t-63.5 -42t-47 -65t-22 -83.5v-676q0 -17 -6.5 -34.5t-20.5 -27.5q-13 -8 -24.5 -11t-27.5 -3h-231q-44 0 -63.5 21.5t-19.5 57.5z" />
<glyph unicode="n" horiz-adv-x="1479" d="M123 79v1146q0 19 8.5 35.5t24.5 25.5l-6 -3q13 11 28 14t28 3h154q18 0 32 -6.5t23 -17.5t14.5 -25.5t10.5 -29.5l32 -131q15 32 44.5 72t74.5 75.5t107 59.5t144 24q117 0 212 -45t162 -123t104 -182t37 -221v-671q0 -39 -17 -59t-54 -20h-236q-44 0 -60.5 15t-16.5 58 v666q0 44 -20 83.5t-53 70t-74.5 47.5t-84.5 17q-37 0 -75 -16t-70.5 -45.5t-54.5 -69t-25 -85.5v-665q0 -17 -6.5 -34.5t-20.5 -27.5q-13 -8 -24.5 -11t-27.5 -3h-231q-44 0 -63.5 21.5t-19.5 57.5z" />
<glyph unicode="o" horiz-adv-x="1508" d="M83 649q0 94 24 181.5t67.5 161.5t104.5 135t135.5 104t161.5 66.5t181 23.5q139 0 261.5 -51.5t213 -142.5t143 -213t52.5 -265q0 -94 -24 -180.5t-67.5 -161.5t-104.5 -135.5t-135.5 -104t-160 -67.5t-178.5 -24q-94 0 -181 24t-161.5 67.5t-135.5 104t-104.5 135.5 t-67.5 161.5t-24 180.5zM457 649q0 -68 21 -126.5t59 -101.5t93 -68t124 -25q67 0 120.5 25t90.5 68t57 102t20 126q0 66 -20 125.5t-57 104.5t-91 71t-120 26q-69 0 -124 -26t-93 -71t-59 -104.5t-21 -125.5z" />
<glyph unicode="p" horiz-adv-x="1563" d="M123 -326v1556q0 20 8 33.5t19 24.5q13 11 27 14.5t28 3.5h154q19 0 32 -6.5t21.5 -17t14 -24.5t10.5 -30l43 -124q29 37 58 75.5t69 69.5t95.5 51.5t135.5 20.5q140 0 258 -51.5t203.5 -142.5t134 -213t48.5 -265q0 -141 -48.5 -264t-134 -213.5t-203.5 -143t-258 -52.5 q-67 0 -115 16t-85.5 41.5t-66 56.5t-56.5 62v-478q0 -31 -18.5 -52t-57.5 -21h-234q-12 0 -26.5 5t-27 14t-20.5 23t-8 31zM486 649q0 -68 26 -127t70 -102.5t103 -69t126 -25.5q66 0 120 25.5t93 69t60.5 102.5t21.5 127q0 66 -21.5 125t-60.5 103t-93 69.5t-120 25.5 q-65 0 -122.5 -24t-101 -65.5t-71 -98t-30.5 -119.5v-16z" />
<glyph unicode="q" horiz-adv-x="1563" d="M82 649q0 142 48 264.5t133.5 213.5t204 142.5t258.5 51.5q61 0 114 -20.5t97.5 -51.5t81 -69.5t64.5 -75.5l44 124q8 33 23.5 55.5t52.5 22.5h156q13 0 27.5 -3.5t27.5 -14.5q11 -11 19 -24.5t8 -33.5v-1553q0 -17 -8.5 -31t-20.5 -23t-26.5 -14t-26.5 -5h-235 q-40 0 -57.5 21.5t-17.5 51.5v475q-28 -31 -61.5 -62t-73.5 -56.5t-87 -41.5t-101 -16q-140 0 -258.5 52.5t-204 143t-133.5 213.5t-48 264zM456 649q0 -68 22 -127t61 -102.5t93.5 -69t120.5 -25.5q67 0 126 25.5t103 69t69.5 103t25.5 126.5v16q-3 63 -30 119.5t-71 98 t-101.5 65.5t-121.5 24q-66 0 -120.5 -25.5t-93.5 -69.5t-61 -103t-22 -125z" />
<glyph unicode="r" horiz-adv-x="1178" d="M123 79v1146q0 17 7.5 33t19.5 25q27 17 55 17h154q19 0 30.5 -7t19.5 -18t13.5 -25.5t13.5 -28.5q2 -4 8.5 -20t13.5 -35t13.5 -36t8.5 -22q31 34 59 71.5t60 69t71 52t92 20.5q55 0 98.5 -8t82.5 -24t77.5 -40.5t83.5 -57.5q43 -23 43 -60q0 -24 -17 -53l-93 -158 q-20 -30 -50 -38q-9 -2 -19 -3q-22 0 -45 12q-44 43 -90 64t-104 21q-40 0 -70 -11.5t-54.5 -32t-46 -49t-43.5 -63.5v-741q0 -39 -19 -59t-63 -20h-230q-80 0 -80 79z" />
<glyph unicode="s" horiz-adv-x="1185" d="M76 271q6 13 17 22l132 132q25 20 43.5 14t48.5 -35q28 -28 60.5 -46.5t62 -30.5t52 -17t30.5 -5q19 0 49.5 1.5t58 9.5t47.5 25t20 49q0 29 -11 46t-32.5 28.5t-53 21t-70.5 21.5q-123 33 -202.5 79t-126 102.5t-65 122.5t-18.5 138q0 85 33.5 155t96 119.5t149.5 76.5 t194 27q65 0 121 -10.5t107 -33.5t100 -59.5t97 -86.5q17 -20 17.5 -38.5t-22.5 -38.5q-40 -33 -76.5 -64.5t-75.5 -70.5q-12 -10 -24.5 -13t-23.5 0t-21.5 10.5t-18.5 17.5q-36 40 -82 54t-86 14q-50 0 -79.5 -17.5t-27.5 -53.5q2 -27 20 -41.5t44 -24t55 -15t54 -12.5 q92 -30 168.5 -65t133 -85.5t88 -121t31.5 -172.5q0 -101 -40.5 -181t-111.5 -134t-167.5 -83t-208.5 -29q-63 0 -128.5 11.5t-127 36.5t-117 64.5t-98.5 95.5q-11 14 -17 30q-5 15 -5 29q1 17 7 31z" />
<glyph unicode="t" horiz-adv-x="879" d="M47 985v198q0 78 79 78h75l1 242q0 32 21 48t60 30l232 81q5 1 9.5 1h9.5q38 0 50.5 -22t12.5 -58l-1 -322h171q33 0 53.5 -19.5t20.5 -58.5v-198q0 -43 -20.5 -63t-53.5 -20h-171l1 -823q0 -39 -22.5 -59t-62.5 -20h-231q-79 0 -79 79l-1 823h-75q-79 0 -79 83z" />
<glyph unicode="u" horiz-adv-x="1479" d="M123 551v671q0 39 17 58.5t54 19.5h236q44 0 60.5 -14.5t16.5 -57.5v-667q0 -44 20 -83.5t52.5 -69.5t74 -47.5t84.5 -17.5q37 0 76.5 17.5t73 46.5t55 68.5t21.5 83.5v666q0 17 6.5 34.5t19.5 26.5q13 8 25 11t27 3h232q44 0 63.5 -21.5t19.5 -56.5v-1146 q0 -19 -9 -35.5t-24 -26.5l6 3q-13 -11 -28 -14t-28 -3h-155q-18 0 -31.5 6.5t-22.5 18t-15.5 26t-10.5 29.5l-31 131q-15 -32 -44.5 -72.5t-74.5 -75.5t-107.5 -59t-143.5 -24q-117 0 -212 45t-162 122.5t-104 181.5t-37 222z" />
<glyph unicode="v" horiz-adv-x="1306" d="M28 1270q12 30 61 30h262q27 0 47 -14t28 -41q17 -54 38 -121.5t44 -139t46 -141.5t41.5 -129t33.5 -102.5t22 -61.5l217 695q13 33 30 44t48 11h269q30 0 45.5 -7t20.5 -19q3 -8 3 -17q0 -5 -1 -11q-3 -16 -10 -34l-488 -1168q-11 -18 -26.5 -31t-45.5 -13h-122 q-41 0 -58 12t-25 32l-472 1155q-12 26 -12 47q-1 13 4 24z" />
<glyph unicode="w" horiz-adv-x="1972" d="M34 1270q12 30 60 30h262q27 0 47 -14t28 -41q17 -54 38 -121t44.5 -136.5t46 -138.5t41.5 -126.5t33.5 -100.5t21.5 -62l217 685q13 33 30.5 44t47.5 11h243q30 0 45 -7t20.5 -19t2 -28t-10.5 -34l-112 -275q7 -17 27.5 -58.5t46.5 -94.5t53 -111t46 -108l251 680 q13 33 27 44t41 11h227q50 0 68 -18q10 -9 9 -28q0 -17 -8 -42l-480 -1168q-9 -18 -28 -31t-55 -13h-108q-40 0 -58 13t-30 33l-190 465l-187 -467q-11 -18 -26.5 -31t-46.5 -13h-122q-41 0 -58 12t-25 32l-472 1155q-12 26 -12 47q0 13 5 24z" />
<glyph unicode="x" horiz-adv-x="1394" d="M44 39q-1 4 -1 8q0 10 6 20q8 14 14 23l408 575l-386 548q-10 13 -17.5 28.5t-6 28.5t13.5 21.5t40 8.5h321q17 0 30 -14.5t30 -38.5l195 -316q19 28 45 70t53 88t52 89t44 72q17 27 32 38.5t35 11.5h325q12 0 23 -5t17 -14t5 -21.5t-13 -26.5l-401 -565l399 -557 q13 -17 21 -37q8 -18 7 -33q-1 -19 -15 -30t-46 -11h-332q-46 0 -69 53l-182 328l-184 -332q-11 -23 -28.5 -36t-34.5 -13h-356q-14 0 -24.5 6t-17.5 23z" />
<glyph unicode="y" horiz-adv-x="1453" d="M44 1272q15 30 70 30h253q26 0 42 -16t24 -40l290 -824l284 824q11 33 28.5 44.5t47.5 11.5h264q29 0 45 -8t22 -20q5 -10 5 -22v-7q-2 -16 -8 -32q-39 -96 -85 -210t-95.5 -237.5t-101 -251t-100 -250.5t-93.5 -236t-82.5 -207.5t-65 -166.5t-42.5 -111l4 5 q-7 -28 -25.5 -44.5t-45.5 -16.5h-237q-46 0 -63 18t-17 53q0 13 4 20t6 9l160 418l-488 1197q-8 21 -8 39q0 17 8 31z" />
<glyph unicode="z" horiz-adv-x="1229" d="M81 88v141q0 14 2.5 27.5t14.5 28.5q69 76 144 164.5t152 179.5t153 180t144 166h-498q-38 0 -60 20.5t-22 64.5v166q0 36 22 58t60 22h862q33 0 58 -20t25 -60v-178q0 -9 -1.5 -21.5t-11.5 -25.5l-564 -669h506q37 0 59 -20t22 -63v-161q0 -15 -5.5 -31t-16.5 -29 t-26 -20.5t-33 -7.5h-903q-16 0 -31 7.5t-27 20t-18.5 28.5t-6.5 32z" />
<glyph unicode="{" horiz-adv-x="908" d="M78 518v298q0 45 45 45h83q30 0 30 29v462q0 93 41 175.5t110.5 143.5t157.5 96t182 35h21q52 -5 52 -51v-309q0 -23 -13.5 -37.5t-31.5 -14.5h-19q-24 0 -44.5 -9.5t-36 -25t-24.5 -36.5t-9 -44v-479q0 -37 -17 -69.5t-41 -58.5q24 -28 41 -60.5t17 -70.5v-489 q0 -24 9 -44.5t24.5 -36t36.5 -25t44 -9.5h19q18 0 31.5 -14.5t13.5 -37.5v-317q0 -49 -52 -52h-21q-94 0 -182 35t-157.5 96t-110.5 143t-41 176v482q0 8 -8.5 16.5t-16.5 8.5h-88q-45 0 -45 49z" />
<glyph unicode="|" horiz-adv-x="628" d="M166 -348v1824q0 18 11 31.5t34 13.5h192q15 0 32.5 -12.5t17.5 -32.5v-1824q0 -45 -50 -45h-192q-45 0 -45 45z" />
<glyph unicode="}" horiz-adv-x="900" d="M82 -119q0 23 13.5 37.5t31.5 14.5h18q24 0 45 9.5t36.5 25t24.5 36.5t9 44v489q0 39 17 71t40 60q-24 27 -40.5 59t-16.5 69v479q0 24 -9 44.5t-24.5 36t-36.5 25t-45 9.5h-18q-18 0 -31.5 14.5t-13.5 37.5v309q0 46 51 51h21q93 0 182 -35t157.5 -96t110.5 -143.5 t42 -175.5v-462q0 -29 30 -29h83q45 0 45 -45v-298q0 -49 -45 -49h-88q-8 0 -16.5 -8t-8.5 -17v-482q0 -94 -42 -176t-110.5 -143t-157.5 -96t-182 -35h-21q-51 3 -51 52v317z" />
<glyph unicode="~" horiz-adv-x="1349" d="M115 622q0 3 1 7.5t6 13.5t15 24.5t28 40.5q59 83 141 126t178 43q59 0 115.5 -19.5t112.5 -53.5l84 -54q29 -19 67 -20q59 0 90 45l40 59q11 17 36 17q14 0 32 -11l153 -104q17 -14 18 -34q0 -12 -8 -28l-41 -57q-59 -83 -141.5 -125.5t-178.5 -42.5q-59 -2 -117 17.5 t-111 53.5l-83 54q-33 20 -68 21q-57 0 -90 -45l-41 -60q-11 -14 -29.5 -16t-37.5 10l-153 104q-18 10 -18 34z" />
<glyph unicode="&#xa1;" horiz-adv-x="625" d="M137 1004v248q0 18 12 32.5t35 14.5h270q45 0 45 -47v-248q0 -20 -11.5 -32.5t-33.5 -12.5h-270q-17 0 -32 12.5t-15 32.5zM138 -342v1103q0 19 11 32t34 13h266q15 0 32.5 -12t17.5 -33v-1103q0 -45 -50 -46h-266q-45 0 -45 46z" />
<glyph unicode="&#xa2;" horiz-adv-x="1115" d="M73 531q0 93 29 177.5t80 153.5t122.5 119t156.5 76v139q0 19 9.5 31t29.5 12h241q14 0 27 -14t13 -29v-136q41 -11 80 -29t76 -40q-1 0 -1 1q5 -3 11 -9.5t11.5 -15t9 -16.5t3.5 -14q0 -10 -6 -21l-109 -199q-14 -22 -32 -22q-8 0 -15 4q-1 -1 -2 -1q-2 0 -3 1 q-12 9 -31 19t-41.5 18.5t-47.5 14t-48 5.5q-46 0 -86.5 -18t-70 -49.5t-46.5 -73t-17 -87.5q0 -48 17 -89.5t47 -71.5t70 -47.5t86 -17.5q41 0 84 15t73 37q1 0 1 -1q6 2 9 2l6 -2t6 -6q17 -5 31 -14.5t27 -30.5l100 -156q3 -6 3 -11q0 -11 -14 -19q3 -5 3 -12 q0 -15 -21.5 -30.5t-51 -29t-60.5 -24.5t-51 -17v-140q0 -15 -10 -28t-30 -13h-241q-39 0 -39 41v142q-85 26 -156.5 76t-123 118.5t-80 153t-28.5 178.5z" />
<glyph unicode="&#xa3;" horiz-adv-x="1149" d="M138 44v978q0 109 42 203.5t114 163.5t167 109t202 40q86 0 162 -22t141 -61q17 -10 28.5 -24.5t11.5 -36.5q0 -6 -2 -13t-7 -12l-93 -183q-17 -31 -41 -31h-2q-10 0 -31 11q-24 18 -62.5 31.5t-74.5 13.5q-38 0 -69.5 -14.5t-54.5 -40.5t-36 -59t-13 -71v-150h284 q17 0 32 -12.5t15 -33.5v-189q0 -18 -12 -33t-35 -15h-283v-231h509q19 0 32 -11.5t13 -33.5v-268q0 -7 -3 -15.5t-9 -16t-14.5 -12.5t-18.5 -5h-847q-45 0 -45 44z" />
<glyph unicode="&#xa4;" horiz-adv-x="1103" d="M91 261q0 22 17 38l11 12q18 17 36.5 36.5t38.5 38.5q-9 35 -15.5 65.5t-6.5 59.5q0 25 6 56.5t16 67.5q-13 13 -30.5 29t-33 33t-26.5 32.5t-12 28.5q1 11 4.5 22t13.5 20l153 153q18 18 37 19q19 0 38 -19l86 -87q36 10 68 16t58 6q27 0 58 -5.5t67 -15.5l87 87 q8 8 17 12t18 5q25 0 40 -19l153 -153q8 -9 13.5 -18.5t5.5 -22.5q0 -17 -18 -35l-86 -88q9 -34 15.5 -64t6.5 -55q0 -30 -5.5 -62t-15.5 -69l86 -87q18 -20 19 -36q0 -11 -4.5 -21t-15.5 -17q-36 -36 -70.5 -71t-71.5 -71q-9 -10 -20.5 -18.5t-28.5 -8.5q-15 0 -27 8 t-22 18l-76 74q-74 -20 -125 -21q-27 0 -58.5 5.5t-67.5 15.5l-87 -86q-16 -16 -36 -17q-11 0 -21 3.5t-18 15.5l-11 10q-36 35 -71 71t-71 71q-9 8 -13.5 17t-4.5 21zM446 512q0 -46 30 -75.5t76 -29.5t75.5 29.5t29.5 75.5t-29.5 75.5t-75.5 29.5t-76 -29.5t-30 -75.5z " />
<glyph unicode="&#xa5;" horiz-adv-x="1490" d="M45 1505q0 6 4 11t11 5h395q7 -2 11 -2.5t8 -3.5t8 -8.5t12 -17.5l249 -530l248 530q6 12 10.5 17.5t8.5 8.5t8.5 3.5t10.5 2.5h394q7 0 12 -5t5 -11q0 -5 -4.5 -11l-10.5 -14l-383 -678h120q18 0 31.5 -11.5t13.5 -33.5v-113q0 -15 -12 -32t-33 -17h-222v-92h222 q18 0 31.5 -12t13.5 -33v-113q0 -15 -12 -32.5t-33 -17.5h-222v-247q0 -48 -47 -48h-307q-20 0 -31.5 13t-11.5 35v247h-209q-45 0 -45 50v113q0 45 45 45h209v92h-209q-45 0 -45 49v113q0 45 45 45h107l-383 678q-5 8 -9 14t-4 11z" />
<glyph unicode="&#xa6;" horiz-adv-x="612" d="M169 -352v764q0 18 11 31.5t34 13.5h185q18 0 34 -12.5t16 -32.5v-764q0 -45 -50 -45h-185q-45 0 -45 45zM169 714v764q0 18 11 31.5t34 13.5h185q18 0 34 -12.5t16 -32.5v-764q0 -45 -50 -45h-185q-45 0 -45 45z" />
<glyph unicode="&#xa7;" horiz-adv-x="1114" d="M114 195q0 19 18.5 40.5t43.5 39t51 29t41 11.5q12 0 19.5 -2.5t14.5 -8.5t17 -16l26 -26q25 -24 53 -41t55 -28.5t51.5 -17t43.5 -5.5q31 0 64 8.5t59.5 25.5t44 42.5t17.5 59.5q0 22 -15 38t-41 29t-61.5 24.5t-76.5 23.5h1l-47 12q-91 29 -157 60t-108.5 69t-63 84 t-20.5 105q0 74 25.5 127.5t80.5 96.5q-49 39 -77.5 90t-28.5 122q0 81 34 148.5t93 115.5t138.5 74.5t171.5 26.5q90 0 167 -24t148 -77q27 -20 48 -43t35 -42.5t22 -35t8 -22.5q0 -34 -34 -60l-74 -50q-11 -4 -20 -8t-21 -4q-13 0 -21 2t-14.5 7t-16.5 15.5t-27 27.5 q-25 24 -53.5 41.5t-56 29.5t-52.5 17.5t-42 5.5q-31 0 -63.5 -8.5t-59.5 -25.5t-44 -43t-17 -60q0 -27 19.5 -43t52.5 -28.5t77 -24.5t93 -29h-1q91 -27 156.5 -58.5t107.5 -70.5t62 -86t20 -104q0 -142 -109 -227q49 -37 79 -87t30 -124q0 -81 -34 -148t-92.5 -115.5 t-138.5 -75t-171 -26.5q-180 0 -315 103q-28 22 -49 44t-36 41.5t-22.5 34.5t-7.5 24zM393 755q0 -7 4.5 -22.5t22.5 -32t54 -31.5t99 -21h8q38 0 66 9t45.5 23t26 31.5t8.5 36.5q0 11 -0.5 22t-5.5 20q-9 14 -27.5 25.5t-42 20.5t-51.5 13.5t-56 4.5q-39 0 -67 -8.5 t-46.5 -23t-28 -32t-9.5 -35.5z" />
<glyph unicode="&#xa8;" horiz-adv-x="963" d="M111 1535v194q0 43 43 43h200q14 0 28 -11.5t14 -31.5v-194q0 -18 -11.5 -34t-30.5 -16h-200q-43 0 -43 50zM557 1535v194q0 43 45 43h198q43 0 43 -43v-194q0 -18 -11.5 -34t-31.5 -16h-198q-45 0 -45 50z" />
<glyph unicode="&#xa9;" horiz-adv-x="1982" d="M86 764q0 122 32 235.5t90 213t140 181t182 139.5t214.5 90.5t239.5 32.5q122 0 236 -32t213 -90t181 -140t140 -181.5t90.5 -214.5t32.5 -239q0 -122 -31.5 -236t-90 -213t-140.5 -181t-182 -140.5t-214.5 -90.5t-238.5 -32q-123 0 -236.5 31.5t-213 90t-181.5 140.5 t-140 182t-90.5 214.5t-32.5 239.5zM345 748q0 -88 23.5 -168.5t66 -150.5t101.5 -125.5t129 -95.5t149 -61.5t162 -21.5t163 22t156 69q78 44 138.5 105t102 133.5t63.5 153.5t22 164q0 92 -24.5 174t-68 150t-102.5 122.5t-128 92.5t-145.5 58t-153.5 20q-84 0 -167 -22 t-163 -68q-78 -46 -138 -107.5t-101.5 -132.5t-63 -150.5t-21.5 -160.5zM503 756q0 102 39 192t106.5 157t157.5 105.5t191 38.5q80 0 146 -20.5t131 -58.5q-1 0 -2 1q7 -4 14.5 -9.5t13 -12.5t6.5 -15.5t-6 -18.5l-18 -33q-10 -18 -24 -45.5t-29 -54t-28 -44.5t-23 -18 q-6 0 -11 2q-33 19 -75 27.5t-88 8.5q-45 0 -83 -15t-65.5 -43t-42.5 -65.5t-15 -82.5q0 -46 14.5 -84t41.5 -65.5t62.5 -41.5t78.5 -14q31 0 51 1.5t36.5 5t33.5 9.5t42 17q22 8 27.5 5t12.5 -14l107 -174q8 -18 -3.5 -29.5t-22.5 -19.5q-65 -40 -135.5 -63t-150.5 -23 q-101 0 -190.5 38.5t-156 105t-105 156.5t-38.5 194z" />
<glyph unicode="&#xaa;" horiz-adv-x="1047" d="M105 1151q0 80 30 149t81.5 121t121 81.5t148.5 29.5q83 0 134.5 -32t79.5 -88l19 79q0 30 32 30h133q12 0 22 -8q7 -6 7 -22v-678q0 -15 -7 -22q-12 -6 -22 -7h-163q-32 0 -32 29v56q-32 -46 -80 -72.5t-123 -26.5q-80 0 -149 29.5t-120.5 81.5t-81.5 121t-30 149z M336 1152q0 -31 11 -58t31 -47t47 -31.5t58 -11.5t58 11.5t47 31.5t32 47t12 58v7q-2 30 -14 55.5t-32 45t-46 30t-57 10.5q-32 0 -58.5 -11t-46.5 -31t-31 -47t-11 -59z" />
<glyph unicode="&#xab;" horiz-adv-x="1504" d="M23 646q0 16 15 32l536 535q9 11 30 12q22 0 34 -14l147 -147q12 -14 15 -32q-1 -7 -3 -15t-10 -17l-352 -353l352 -354q12 -12 13 -31q0 -22 -16 -37l-150 -146q-6 -6 -14 -10t-16 -4q-18 0 -31 14l-535 537q-15 15 -15 30zM682 646q0 16 15 32l537 535q9 11 30 12 q22 0 33 -14l148 -147q12 -14 14 -32q-1 -7 -3 -15t-9 -17l-352 -353l352 -354q12 -12 12 -31q0 -22 -15 -37l-151 -146q-6 -6 -13.5 -10t-15.5 -4q-18 0 -31 14l-536 537q-15 15 -15 30z" />
<glyph unicode="&#xac;" horiz-adv-x="1189" d="M99 608v158q0 45 45 45h899q45 0 46 -45v-494q0 -18 -12 -31.5t-34 -13.5h-157q-15 0 -32.5 12.5t-17.5 32.5v287h-692q-45 0 -45 49z" />
<glyph unicode="&#xad;" horiz-adv-x="1126" d="M182 574v168q0 45 48 45h665q18 0 31.5 -11.5t13.5 -33.5v-168q0 -18 -12.5 -32.5t-32.5 -14.5h-665q-48 0 -48 47z" />
<glyph unicode="&#xae;" horiz-adv-x="1974" d="M94 764q0 122 32 235.5t90 213t140 181t182 139.5t214.5 90.5t239.5 32.5q122 0 236 -32t213 -90t181 -140t140.5 -181.5t90.5 -214.5t32 -239q0 -122 -31.5 -236t-90 -213t-140.5 -181t-182 -140.5t-214.5 -90.5t-238.5 -32q-123 0 -236.5 31.5t-213 90t-181.5 140.5 t-140 182t-90.5 214.5t-32.5 239.5zM368 763q0 -87 22.5 -166.5t63 -149t97 -126.5t125 -97.5t148 -62.5t164.5 -22q129 0 243 49.5t198 134t133.5 197t49.5 240.5q0 86 -22.5 166t-63 149t-97.5 125.5t-126 97t-148 62.5t-164 22q-86 0 -166 -22.5t-149.5 -63t-126 -96.5 t-97 -125t-62.5 -148t-22 -164zM654 353v809q0 15 8 22.5t20 7.5h417q58 -2 108 -25t87.5 -61.5t58.5 -88.5t21 -107q0 -80 -37 -144.5t-101 -100.5l146 -309q0 -2 1.5 -3.5t1.5 -3.5q0 -20 -27 -20h-216q-15 0 -23 18l-128 282h-76v-276q0 -13 -7.5 -18.5t-19.5 -5.5h-206 q-11 0 -19.5 5.5t-8.5 18.5zM915 836h123q34 0 55.5 21.5t21.5 54.5q0 13 -5.5 27t-16 25t-24.5 18t-31 7h-123v-153z" />
<glyph unicode="&#xaf;" horiz-adv-x="1039" d="M80 1547v158q0 36 36 36h797q15 0 25.5 -9t10.5 -27v-158q0 -12 -9 -26.5t-27 -14.5h-797q-36 0 -36 41z" />
<glyph unicode="&#xb0;" horiz-adv-x="666" d="M114 1249q0 46 16.5 86t46.5 70.5t70.5 47t86.5 16.5t86 -16.5t69.5 -47t47 -70.5t17.5 -86t-17.5 -86.5t-47.5 -70t-70 -46.5t-85 -17q-46 0 -86 17t-70 46.5t-47 70t-17 86.5zM241 1249q0 -40 26.5 -66.5t66.5 -26.5q38 0 65 26.5t27 66.5q0 19 -7 36.5t-20 29.5 t-30 19t-35 7q-40 0 -66.5 -26.5t-26.5 -65.5z" />
<glyph unicode="&#xb1;" horiz-adv-x="1017" d="M100 648v208q0 45 45 45h188v198q0 45 49 45h229q45 0 45 -45v-198h188q18 0 31.5 -11.5t13.5 -33.5v-208q0 -15 -12.5 -32t-32.5 -17h-188v-199q0 -18 -11 -31.5t-34 -13.5h-229q-15 0 -32 12.5t-17 32.5v199h-188q-45 0 -45 49zM123 48v176q0 45 45 45h681 q18 0 31.5 -11.5t13.5 -33.5v-176q0 -17 -12.5 -32.5t-32.5 -15.5h-681q-45 0 -45 48z" />
<glyph unicode="&#xb2;" horiz-adv-x="856" d="M121 707v83q0 10 6 19q-1 -1 0 1l2 4l360 370h-1q22 24 28.5 38t6.5 33q0 18 -8 36t-22.5 31t-33.5 21t-40 8q-22 0 -41 -8.5t-32 -22.5t-21 -32.5t-8 -39.5v-46q0 -43 -45 -43h-100q-24 0 -34 14.5t-10 28.5v46q0 61 23 113t63 89.5t92.5 58.5t112.5 21q58 0 113 -19.5 t97 -55t67 -85t25 -110.5q0 -66 -25.5 -116.5t-63.5 -85.5v1l-213 -214h256q46 0 46 -46v-92q0 -20 -13 -33.5t-33 -13.5h-505q-18 0 -33.5 13t-15.5 34z" />
<glyph unicode="&#xb3;" horiz-adv-x="775" d="M93 952q0 34 43 44h102q44 0 44 -44q0 -37 7.5 -60.5t20.5 -37t30.5 -19.5t39.5 -6q48 0 74 25.5t26 74.5q0 52 -25 72.5t-91 20.5q-45 0 -46 36v106q0 45 46 45q19 0 31.5 6.5t19.5 15.5t10 20.5t3 21.5q0 11 -1.5 23.5t-7 22.5t-17.5 16.5t-31 6.5q-17 0 -27.5 -6 t-16 -16.5t-8 -24t-2.5 -28.5q0 -25 -10 -36t-37 -11h-94q-44 0 -44 44q0 69 19.5 117.5t53 79t77.5 44.5t94 14q49 0 93 -19t77.5 -52t52 -77t18.5 -94q0 -79 -43 -134q23 -17 41 -38t30 -47t18.5 -58t6.5 -73q0 -60 -21 -112t-59.5 -91t-92 -61t-117.5 -22 q-60 0 -112.5 13t-91 47t-61 95t-22.5 156z" />
<glyph unicode="&#xb4;" horiz-adv-x="538" d="M83 1452q0 11 3 24.5l5 22.5l53 211q5 24 21 33.5t34 9.5h264q15 0 23 -6t10.5 -15.5t0.5 -21t-8 -22.5l-100 -221q-12 -23 -24 -33t-31 -10h-224q-15 0 -21 8.5t-6 19.5z" />
<glyph unicode="&#xb5;" horiz-adv-x="1374" d="M135 -350v1301q0 25 14 39t45 14h210h25.5t27 -3t21.5 -8.5t10 -17.5q5 -4 7.5 -10.5t2.5 -12.5v-496q3 -31 22 -56t45.5 -43t57 -28.5t57.5 -10.5q31 0 59.5 11.5t51 31t36.5 46t14 58.5v488q0 26 12 38.5t40 12.5h257q22 0 36.5 -14t14.5 -39v-444q0 -45 -3 -88 q-7 -91 -46.5 -170.5t-104 -138t-149.5 -91.5t-183 -33q-39 0 -71 10.5t-58 27.5t-48 37t-40 37v-449q0 -20 -10.5 -30.5t-25.5 -15.5t-31 -5.5t-29 -0.5h-213q-28 0 -41 14.5t-13 38.5z" />
<glyph unicode="&#xb6;" horiz-adv-x="1563" d="M79 1101q0 86 32.5 162t89 133t132 90t161.5 33h881q18 0 29 -8t16 -18.5t6.5 -23t1.5 -20.5v-99q0 -25 -4 -39t-11 -21t-18 -9t-23 -2h-143v-1205q0 -37 -6 -69q-15 -2 -32 -3.5t-36 -1.5h-103q-17 0 -34.5 1.5t-32.5 3.5q-3 16 -4 33t-1 36v1205h-221v-1205 q0 -18 -1 -35t-4 -34q-15 -2 -33 -3.5t-35 -1.5h-103q-17 0 -34.5 1.5t-32.5 3.5q-3 15 -4 31.5t-1 35.5v615q-88 0 -167 32.5t-138 88t-93 131.5t-34 162z" />
<glyph unicode="&#xb7;" horiz-adv-x="611" d="M124 521v248q0 20 11.5 32.5t33.5 12.5h271q17 0 32 -12.5t15 -32.5v-248q0 -18 -12 -32.5t-35 -14.5h-271q-45 0 -45 47z" />
<glyph unicode="&#xb8;" horiz-adv-x="570" d="M62 -49q0 11 3.5 23t17.5 26h270q-23 -15 -22 -36q0 -16 15.5 -30t39 -29t51 -31.5t50.5 -38.5t39 -50.5t16 -66.5q0 -37 -25 -78.5t-71 -82.5t-109.5 -76.5t-140.5 -59.5h-6q-15 0 -33.5 22.5t-35 51.5t-27.5 56t-11 36q0 16 11 23q175 44 175 108q0 23 -15 40.5t-38 33 t-50 31.5t-50 34.5t-38.5 41t-15.5 52.5z" />
<glyph unicode="&#xb9;" horiz-adv-x="480" d="M58 1317v121q0 22 25 36l90 45q5 4 18 4h153q27 0 27 -25v-786q0 -25 -25 -25h-155q-25 0 -24 23v622l-77 -38q-2 -3 -7 -3q-2 0 -2 -2q-11 0 -17 8t-6 20z" />
<glyph unicode="&#xba;" horiz-adv-x="1047" d="M105 1132q0 84 32 158t87.5 129.5t129 87.5t157.5 32t158 -32t129.5 -87.5t87.5 -130t32 -157.5q0 -84 -32 -158t-87.5 -129t-129.5 -87t-158 -32t-157.5 32t-129 87t-87.5 129t-32 158zM361 1130q0 -31 12 -57.5t32 -46.5t46.5 -32t57.5 -12t58 12t47 32t31.5 47 t11.5 57q0 31 -11 58t-31 47t-47 32t-59 12q-31 0 -57.5 -12t-46.5 -32t-32 -47t-12 -58z" />
<glyph unicode="&#xbb;" horiz-adv-x="1509" d="M23 262q0 18 12 31l352 354l-352 353q-7 8 -9 16.5t-3 15.5q2 17 14 32l147 147q12 13 34 14q20 0 30 -12l536 -535q15 -15 16 -32q0 -14 -16 -30l-535 -537q-12 -14 -31 -14q-15 0 -30 14l-150 146q-15 15 -15 37zM682 262q0 18 12 31l353 354l-353 353q-7 8 -9 16.5 t-3 15.5q2 17 14 32l148 147q12 13 34 14q20 0 29 -12l537 -535q15 -15 15 -32q0 -14 -15 -30l-536 -537q-12 -14 -30 -14q-15 0 -30 14l-151 146q-15 15 -15 37z" />
<glyph unicode="&#xbc;" horiz-adv-x="1539" d="M96 1317v121q0 22 25 36l90 45q5 4 18 4h153q27 0 27 -25v-786q0 -25 -25 -25h-155q-25 0 -24 23v622l-77 -38q-2 -3 -7 -3q-2 0 -2 -2q-11 0 -17 8t-6 20zM188 27q0 -2 4 18l782 1431q8 18 24 31.5t41 13.5h194q20 0 35.5 -8.5t15.5 -23.5q0 -11 -2 -13l-781 -1431 q-12 -26 -22 -35.5t-32 -9.5h-216q-43 0 -43 27zM781 174q0 10 3.5 19t8.5 17l370 633q11 17 19 22t20 5h103q19 0 30.5 -16t11.5 -30v-509h62q19 0 34.5 -10t15.5 -33v-105q0 -17 -15.5 -31t-34.5 -14h-62v-79q0 -23 -10 -33.5t-37 -10.5h-98q-44 0 -44 44v79h-326 q-29 0 -40 16.5t-11 35.5zM1057 315h101v176z" />
<glyph unicode="&#xbd;" horiz-adv-x="1649" d="M82 1317v121q0 22 25 36l90 45q5 4 18 4h153q27 0 27 -25v-786q0 -25 -25 -25h-155q-25 0 -24 23v622l-77 -38q-2 -3 -7 -3q-2 0 -2 -2q-11 0 -17 8t-6 20zM196 27q0 -2 4 18l782 1431q8 18 24 31.5t41 13.5h194q20 0 35.5 -8.5t15.5 -23.5q0 -11 -2 -13l-781 -1431 q-12 -26 -22 -35.5t-32 -9.5h-216q-43 0 -43 27zM963 45v83q0 10 6 19q-1 -1 0 1l2 4l360 370h-1q22 24 28.5 38t6.5 33q0 18 -8 36t-22.5 31t-33.5 21t-40 8q-22 0 -41 -8.5t-32 -22.5t-21 -32.5t-8 -39.5v-46q0 -43 -45 -43h-100q-24 0 -34 14.5t-10 28.5v46q0 61 23 113 t63 89.5t92.5 58.5t112.5 21q58 0 113 -19.5t97 -55t67 -85t25 -110.5q0 -66 -25.5 -116.5t-63.5 -85.5v1l-213 -214h256q46 0 46 -46v-92q0 -20 -13 -33.5t-33 -13.5h-505q-18 0 -33.5 13t-15.5 34z" />
<glyph unicode="&#xbe;" horiz-adv-x="1569" d="M50 975q0 34 43 44h102q44 0 44 -44q0 -37 7.5 -60.5t20.5 -37t30.5 -19.5t39.5 -6q48 0 74 25.5t26 74.5q0 52 -25 72.5t-91 20.5q-45 0 -46 36v106q0 45 46 45q19 0 31.5 6.5t19.5 15.5t10 20.5t3 21.5q0 11 -1.5 23.5t-7 22.5t-17.5 16.5t-31 6.5q-17 0 -27.5 -6 t-16 -16.5t-8 -24t-2.5 -28.5q0 -25 -10 -36t-37 -11h-94q-44 0 -44 44q0 69 19.5 117.5t53 79t77.5 44.5t94 14q49 0 93 -19t77.5 -52t52 -77t18.5 -94q0 -79 -43 -134q23 -17 41 -38t30 -47t18.5 -58t6.5 -73q0 -60 -21 -112t-59.5 -91t-92 -61t-117.5 -22 q-60 0 -112.5 13t-91 47t-61 95t-22.5 156zM282 27q0 -2 4 18l782 1431q8 18 24 31.5t41 13.5h194q20 0 35.5 -8.5t15.5 -23.5q0 -11 -2 -13l-781 -1431q-12 -26 -22 -35.5t-32 -9.5h-216q-43 0 -43 27zM847 157q0 10 3.5 19t8.5 17l370 633q11 17 19 22t20 5h103 q19 0 30.5 -16t11.5 -30v-509h62q19 0 34.5 -10t15.5 -33v-105q0 -17 -15.5 -31t-34.5 -14h-62v-79q0 -23 -10 -33.5t-37 -10.5h-98q-44 0 -44 44v79h-326q-29 0 -40 16.5t-11 35.5zM1123 298h101v176z" />
<glyph unicode="&#xbf;" horiz-adv-x="1148" d="M63 95q0 97 25 162t62 109t80 73t80.5 56.5t62 58t24.5 76.5q0 40 2.5 63.5t10.5 35.5t22.5 15t39.5 3h240q23 0 35 -15.5t12 -34.5q0 -54 -1.5 -89t-4.5 -57.5t-8.5 -37t-13.5 -27.5q-29 -46 -64.5 -80t-72.5 -61.5t-72 -52t-62.5 -53t-44 -63.5t-16.5 -83 q0 -33 14.5 -64t38.5 -54.5t56.5 -37t66.5 -13.5q35 0 67 14t56.5 39t39 56.5t14.5 65.5v23q0 17 12 25t30.5 10t39.5 1t37 -1h178q26 0 35.5 -13.5t9.5 -28.5v-34q0 -108 -42.5 -197t-114 -153.5t-165 -100.5t-196.5 -36q-105 0 -198 38t-163.5 105t-111 158.5t-40.5 199.5 zM394 1006v248q0 18 12 32.5t35 14.5h271q45 0 45 -47v-248q0 -20 -11.5 -32.5t-33.5 -12.5h-271q-17 0 -32 12.5t-15 32.5z" />
<glyph unicode="&#xc0;" horiz-adv-x="1567" d="M44 41l556 1440q1 6 6.5 13t14 13t17.5 10t17 4h263q17 0 29 -11t19 -19l25 -58l538 -1387q8 -20 -3.5 -33t-38.5 -13h-294q-24 0 -36.5 8.5t-19.5 29.5l-40 104t-39 104h-544q-19 -52 -39 -104l-40 -104q-13 -38 -52 -38h-302q-19 0 -32 10t-5 31zM493 1931.5 q-2 11.5 0.5 21t10 15.5t23.5 6h264q17 0 33 -9.5t21 -33.5l53 -211l5 -22.5t3 -24.5t-5.5 -19.5t-20.5 -8.5h-224q-19 0 -31 10.5t-25 32.5l-100 221q-5 11 -7 22.5zM629 574h314l-157 468q-19 -52 -39 -112.5t-39.5 -122t-39.5 -121t-39 -112.5z" />
<glyph unicode="&#xc1;" horiz-adv-x="1567" d="M44 41l556 1440q1 6 6.5 13t14 13t17.5 10t17 4h263q17 0 29 -11t19 -19l25 -58l538 -1387q8 -20 -3.5 -33t-38.5 -13h-294q-24 0 -36.5 8.5t-19.5 29.5l-40 104t-39 104h-544q-19 -52 -39 -104l-40 -104q-13 -38 -52 -38h-302q-19 0 -32 10t-5 31zM629 574h314l-157 468 q-19 -52 -39 -112.5t-39.5 -122t-39.5 -121t-39 -112.5zM641 1675q0 11 3 24.5l5 22.5l53 211q5 24 21 33.5t34 9.5h264q15 0 23 -6t10.5 -15.5t0.5 -21t-8 -22.5l-100 -221q-12 -23 -24 -33t-31 -10h-224q-15 0 -21 8.5t-6 19.5z" />
<glyph unicode="&#xc2;" horiz-adv-x="1567" d="M44 41l556 1440q1 6 6.5 13t14 13t17.5 10t17 4h263q17 0 29 -11t19 -19l25 -58l538 -1387q8 -20 -3.5 -33t-38.5 -13h-294q-24 0 -36.5 8.5t-19.5 29.5l-40 104t-39 104h-544q-19 -52 -39 -104l-40 -104q-13 -38 -52 -38h-302q-19 0 -32 10t-5 31zM491 1747q0 8 2.5 13 t6.5 9l260 263q7 5 11.5 7t11.5 2q8 0 20 -9l264 -262q8 -6 8 -23q0 -9 -9 -20l-90 -92q-11 -11 -28 -11q-13 0 -23 9l-142 145l-145 -146q-11 -11 -24 -8t-21 11l-93 89q-5 5 -6.5 10.5t-2.5 12.5zM629 574h314l-157 468q-19 -52 -39 -112.5t-39.5 -122t-39.5 -121 t-39 -112.5z" />
<glyph unicode="&#xc3;" horiz-adv-x="1567" d="M44 41l556 1440q1 6 6.5 13t14 13t17.5 10t17 4h263q17 0 29 -11t19 -19l25 -58l538 -1387q8 -20 -3.5 -33t-38.5 -13h-294q-24 0 -36.5 8.5t-19.5 29.5l-40 104t-39 104h-544q-19 -52 -39 -104l-40 -104q-13 -38 -52 -38h-302q-19 0 -32 10t-5 31zM393 1785q0 1 0.5 4.5 t4.5 9.5t11 17t20 28q19 28 46 50.5t57.5 38t63.5 24t66 8.5q18 0 39.5 -4.5t47 -14.5t57.5 -27t71 -42q11 -7 21.5 -11.5t24.5 -4.5q22 0 36 9t26 22l34 41q9 13 20 13.5t20 -8.5l105 -92q11 -11 15 -19.5t-6 -21.5l-31 -40q-41 -56 -101.5 -88t-127.5 -32q-40 0 -81 14 t-79 37l-57 36q-11 7 -21 11.5t-25 4.5q-20 0 -35 -8.5t-26 -21.5l-32 -41q-6 -10 -21.5 -11.5t-24.5 7.5l-105 89q-5 5 -9 9.5t-4 13.5zM629 574h314l-157 468q-19 -52 -39 -112.5t-39.5 -122t-39.5 -121t-39 -112.5z" />
<glyph unicode="&#xc4;" horiz-adv-x="1567" d="M44 41l556 1440q1 6 6.5 13t14 13t17.5 10t17 4h263q17 0 29 -11t19 -19l25 -58l538 -1387q8 -20 -3.5 -33t-38.5 -13h-294q-24 0 -36.5 8.5t-19.5 29.5l-40 104t-39 104h-544q-19 -52 -39 -104l-40 -104q-13 -38 -52 -38h-302q-19 0 -32 10t-5 31zM426 1736v194 q0 43 43 43h200q14 0 28 -11.5t14 -31.5v-194q0 -18 -11.5 -34t-30.5 -16h-200q-43 0 -43 50zM629 574h314l-157 468q-19 -52 -39 -112.5t-39.5 -122t-39.5 -121t-39 -112.5zM872 1736v194q0 43 45 43h198q43 0 43 -43v-194q0 -18 -11.5 -34t-31.5 -16h-198q-45 0 -45 50z " />
<glyph unicode="&#xc5;" horiz-adv-x="1567" d="M44 41l556 1440q1 6 6.5 13t14 13t17.5 10t17 4h263q17 0 29 -11t19 -19l25 -58l538 -1387q8 -20 -3.5 -33t-38.5 -13h-294q-24 0 -36.5 8.5t-19.5 29.5l-40 104t-39 104h-544q-19 -52 -39 -104l-40 -104q-13 -38 -52 -38h-302q-19 0 -32 10t-5 31zM568 1816 q0 44 16.5 83.5t45.5 69t68 46.5t84 17q44 0 83.5 -17t69 -46.5t46.5 -69t17 -83.5q0 -45 -17 -84t-46.5 -68.5t-69 -45.5t-83.5 -16q-45 0 -84 16t-68 45.5t-45.5 68.5t-16.5 84zM629 574h314l-157 468q-19 -52 -39 -112.5t-39.5 -122t-39.5 -121t-39 -112.5zM724 1817 q0 -27 16 -43.5t43 -16.5t44 16.5t17 43.5t-17 44t-44 17t-43 -17.5t-16 -43.5z" />
<glyph unicode="&#xc6;" horiz-adv-x="2232" d="M30 22q0 6 5 19q124 221 330 580.5t495 859.5q8 13 26 26.5t39 13.5h1123q24 0 35.5 -13.5t11.5 -36.5v-253q0 -17 -12 -33.5t-36 -16.5h-724l48 -258h278t278 1q19 0 32 -10t13 -31v-221q0 -14 -11 -27.5t-33 -13.5h-506l47 -256h619q25 0 35.5 -11.5t10.5 -35.5v-258 q0 -20 -14.5 -33.5t-34.5 -13.5h-906q-42 0 -50 38q-9 52 -17.5 104t-16.5 104h-533l-117 -208q-23 -38 -60 -38h-323q-33 0 -32 22zM744 574h304l-72 408z" />
<glyph unicode="&#xc7;" horiz-adv-x="1442" d="M105 759q0 109 28 208.5t79 187t122.5 159t158.5 122.5t186.5 79t208.5 28q123 0 232 -34t205 -99q17 -10 25.5 -26.5t-2.5 -38.5l-173 -246q-11 -17 -24 -20t-32 8q-50 38 -110.5 58.5t-127.5 20.5q-84 0 -155 -31.5t-122 -87t-79.5 -129t-28.5 -157.5t28.5 -157.5 t79.5 -128t122 -86.5t155 -32q68 0 129 21t111 59q18 11 30.5 9t25.5 -18l175 -252q11 -23 3 -38t-26 -25q-96 -65 -207 -100.5t-234 -35.5q-109 0 -208.5 28t-186.5 79t-158.5 122.5t-122.5 158t-79 186t-28 208.5zM734 -49q0 11 3.5 23t17.5 26h270q-23 -15 -22 -36 q0 -16 15.5 -30t39 -29t51 -31.5t50.5 -38.5t39 -50.5t16 -66.5q0 -37 -25 -78.5t-71 -82.5t-109.5 -76.5t-140.5 -59.5h-6q-15 0 -33.5 22.5t-35 51.5t-27.5 56t-11 36q0 16 11 23q175 44 175 108q0 23 -15 40.5t-38 33t-50 31.5t-50 34.5t-38.5 41t-15.5 52.5z" />
<glyph unicode="&#xc8;" horiz-adv-x="1382" d="M165 44v1430q0 22 11.5 34.5t33.5 12.5h1017q23 0 35 -13.5t12 -36.5v-253q0 -17 -12.5 -33.5t-35.5 -16.5h-664v-253h512q19 0 32 -9t13 -30v-222q0 -14 -11 -27.5t-33 -13.5h-513v-261h688q46 0 46 -47v-258q0 -10 -8 -18q-4 -29 -42 -29h-1036q-20 0 -32.5 11 t-12.5 33zM488 1931.5q-2 11.5 0.5 21t10 15.5t23.5 6h264q17 0 33 -9.5t21 -33.5l53 -211l5 -22.5t3 -24.5t-5.5 -19.5t-20.5 -8.5h-224q-19 0 -31 10.5t-25 32.5l-100 221q-5 11 -7 22.5z" />
<glyph unicode="&#xc9;" horiz-adv-x="1382" d="M165 44v1430q0 22 11.5 34.5t33.5 12.5h1017q23 0 35 -13.5t12 -36.5v-253q0 -17 -12.5 -33.5t-35.5 -16.5h-664v-253h512q19 0 32 -9t13 -30v-222q0 -14 -11 -27.5t-33 -13.5h-513v-261h688q46 0 46 -47v-258q0 -10 -8 -18q-4 -29 -42 -29h-1036q-20 0 -32.5 11 t-12.5 33zM496 1673q0 11 3 24.5l5 22.5l53 211q5 24 21 33.5t34 9.5h264q15 0 23 -6t10.5 -15.5t0.5 -21t-8 -22.5l-100 -221q-12 -23 -24 -33t-31 -10h-224q-15 0 -21 8.5t-6 19.5z" />
<glyph unicode="&#xca;" horiz-adv-x="1382" d="M165 44v1430q0 22 11.5 34.5t33.5 12.5h1017q23 0 35 -13.5t12 -36.5v-253q0 -17 -12.5 -33.5t-35.5 -16.5h-664v-253h512q19 0 32 -9t13 -30v-222q0 -14 -11 -27.5t-33 -13.5h-513v-261h688q46 0 46 -47v-258q0 -10 -8 -18q-4 -29 -42 -29h-1036q-20 0 -32.5 11 t-12.5 33zM449 1736q0 8 2.5 13t6.5 9l260 263q7 5 11.5 7t11.5 2q8 0 20 -9l264 -262q8 -6 8 -23q0 -9 -9 -20l-90 -92q-11 -11 -28 -11q-13 0 -23 9l-142 145l-145 -146q-11 -11 -24 -8t-21 11l-93 89q-5 5 -6.5 10.5t-2.5 12.5z" />
<glyph unicode="&#xcb;" horiz-adv-x="1382" d="M165 44v1430q0 22 11.5 34.5t33.5 12.5h1017q23 0 35 -13.5t12 -36.5v-253q0 -17 -12.5 -33.5t-35.5 -16.5h-664v-253h512q19 0 32 -9t13 -30v-222q0 -14 -11 -27.5t-33 -13.5h-513v-261h688q46 0 46 -47v-258q0 -10 -8 -18q-4 -29 -42 -29h-1036q-20 0 -32.5 11 t-12.5 33zM393 1730v194q0 43 43 43h200q14 0 28 -11.5t14 -31.5v-194q0 -18 -11.5 -34t-30.5 -16h-200q-43 0 -43 50zM839 1730v194q0 43 45 43h198q43 0 43 -43v-194q0 -18 -11.5 -34t-31.5 -16h-198q-45 0 -45 50z" />
<glyph unicode="&#xcc;" d="M87 1931.5q-2 11.5 0.5 21t10 15.5t23.5 6h264q17 0 33 -9.5t21 -33.5l53 -211l5 -22.5t3 -24.5t-5.5 -19.5t-20.5 -8.5h-224q-19 0 -31 10.5t-25 32.5l-100 221q-5 11 -7 22.5zM169 45v1431q0 18 11 31.5t34 13.5h301q15 0 32.5 -12.5t17.5 -32.5v-1431q0 -45 -50 -45 h-301q-45 0 -45 45z" />
<glyph unicode="&#xcd;" d="M169 45v1431q0 18 11 31.5t34 13.5h301q15 0 32.5 -12.5t17.5 -32.5v-1431q0 -45 -50 -45h-301q-45 0 -45 45zM224 1675q0 11 3 24.5l5 22.5l53 211q5 24 21 33.5t34 9.5h264q15 0 23 -6t10.5 -15.5t0.5 -21t-8 -22.5l-100 -221q-12 -23 -24 -33t-31 -10h-224 q-15 0 -21 8.5t-6 19.5z" />
<glyph unicode="&#xce;" d="M73 1748q0 8 2.5 13t6.5 9l260 263q7 5 11.5 7t11.5 2q8 0 20 -9l264 -262q8 -6 8 -23q0 -9 -9 -20l-90 -92q-11 -11 -28 -11q-13 0 -23 9l-142 145l-145 -146q-11 -11 -24 -8t-21 11l-93 89q-5 5 -6.5 10.5t-2.5 12.5zM169 45v1431q0 18 11 31.5t34 13.5h301 q15 0 32.5 -12.5t17.5 -32.5v-1431q0 -45 -50 -45h-301q-45 0 -45 45z" />
<glyph unicode="&#xcf;" d="M-1 1696v194q0 43 43 43h200q14 0 28 -11.5t14 -31.5v-194q0 -18 -11.5 -34t-30.5 -16h-200q-43 0 -43 50zM169 45v1431q0 18 11 31.5t34 13.5h301q15 0 32.5 -12.5t17.5 -32.5v-1431q0 -45 -50 -45h-301q-45 0 -45 45zM445 1696v194q0 43 45 43h198q43 0 43 -43v-194 q0 -18 -11.5 -34t-31.5 -16h-198q-45 0 -45 50z" />
<glyph unicode="&#xd0;" horiz-adv-x="1584" d="M56 651v188q0 40 39 40h607q16 0 27.5 -10.5t11.5 -29.5v-188q0 -13 -10 -28.5t-29 -15.5h-607q-39 0 -39 44zM155 43v1431q0 22 12 35t36 13h504q108 0 208 -27t186.5 -76t158 -117.5t122 -153.5t79 -183t28.5 -206q0 -109 -28 -206.5t-79 -182t-122 -153.5t-157.5 -117 t-187 -74t-208.5 -26h-504q-18 0 -33 8t-15 35zM552 367h86q24 0 46 1.5t45 3.5q77 6 143.5 37t116 82t77.5 119.5t28 149.5q0 86 -32 158t-87.5 125t-129.5 82t-158 29h-135v-787z" />
<glyph unicode="&#xd1;" horiz-adv-x="1678" d="M169 44v1432q0 18 11 31.5t34 13.5h335q14 0 29.5 -7.5t26.5 -24.5q130 -210 258 -414t259 -413v820q4 18 16.5 28.5t28.5 10.5h292q22 0 36 -12t14 -33v-1436q0 -20 -12 -30t-34 -10h-326q-13 0 -23.5 9t-21.5 25q-136 225 -269.5 445t-270.5 446v-880q0 -23 -10.5 -34 t-36.5 -11h-291q-24 0 -34.5 13t-10.5 31zM448 1793q0 1 0.5 4.5t4.5 9.5t11 17t20 28q19 28 46 50.5t57.5 38t63.5 24t66 8.5q18 0 39.5 -4.5t47 -14.5t57.5 -27t71 -42q11 -7 21.5 -11.5t24.5 -4.5q22 0 36 9t26 22l34 41q9 13 20 13.5t20 -8.5l105 -92q11 -11 15 -19.5 t-6 -21.5l-31 -40q-41 -56 -101.5 -88t-127.5 -32q-40 0 -81 14t-79 37l-57 36q-11 7 -21 11.5t-25 4.5q-20 0 -35 -8.5t-26 -21.5l-32 -41q-6 -10 -21.5 -11.5t-24.5 7.5l-105 89q-5 5 -9 9.5t-4 13.5z" />
<glyph unicode="&#xd2;" horiz-adv-x="1745" d="M94 759q0 109 28 208.5t79 187t122 159t158 122.5t187 79t209 28q108 0 208 -28t187 -79t158.5 -122.5t122.5 -159t79 -187.5t28 -208q0 -109 -28 -208.5t-79 -186t-122.5 -158t-158.5 -122.5t-187.5 -79t-207.5 -28q-109 0 -209 28t-187 79t-158 122.5t-122 158t-79 186 t-28 208.5zM489 760q0 -85 29 -159t80.5 -128.5t122.5 -86t156 -31.5t156 31.5t122.5 86t80.5 128.5t29 159q0 84 -29 158t-80.5 129.5t-122.5 87t-156 31.5t-156 -31.5t-122.5 -87t-80.5 -129.5t-29 -158zM589 1932.5q-2 11.5 0.5 21t10 15.5t23.5 6h264q17 0 33 -9.5 t21 -33.5l53 -211l5 -22.5t3 -24.5t-5.5 -19.5t-20.5 -8.5h-224q-19 0 -31 10.5t-25 32.5l-100 221q-5 11 -7 22.5z" />
<glyph unicode="&#xd3;" horiz-adv-x="1745" d="M94 759q0 109 28 208.5t79 187t122 159t158 122.5t187 79t209 28q108 0 208 -28t187 -79t158.5 -122.5t122.5 -159t79 -187.5t28 -208q0 -109 -28 -208.5t-79 -186t-122.5 -158t-158.5 -122.5t-187.5 -79t-207.5 -28q-109 0 -209 28t-187 79t-158 122.5t-122 158t-79 186 t-28 208.5zM489 760q0 -85 29 -159t80.5 -128.5t122.5 -86t156 -31.5t156 31.5t122.5 86t80.5 128.5t29 159q0 84 -29 158t-80.5 129.5t-122.5 87t-156 31.5t-156 -31.5t-122.5 -87t-80.5 -129.5t-29 -158zM747 1674q0 11 3 24.5l5 22.5l53 211q5 24 21 33.5t34 9.5h264 q15 0 23 -6t10.5 -15.5t0.5 -21t-8 -22.5l-100 -221q-12 -23 -24 -33t-31 -10h-224q-15 0 -21 8.5t-6 19.5z" />
<glyph unicode="&#xd4;" horiz-adv-x="1745" d="M94 759q0 109 28 208.5t79 187t122 159t158 122.5t187 79t209 28q108 0 208 -28t187 -79t158.5 -122.5t122.5 -159t79 -187.5t28 -208q0 -109 -28 -208.5t-79 -186t-122.5 -158t-158.5 -122.5t-187.5 -79t-207.5 -28q-109 0 -209 28t-187 79t-158 122.5t-122 158t-79 186 t-28 208.5zM489 760q0 -85 29 -159t80.5 -128.5t122.5 -86t156 -31.5t156 31.5t122.5 86t80.5 128.5t29 159q0 84 -29 158t-80.5 129.5t-122.5 87t-156 31.5t-156 -31.5t-122.5 -87t-80.5 -129.5t-29 -158zM597 1748q0 8 2.5 13t6.5 9l260 263q7 5 11.5 7t11.5 2q8 0 20 -9 l264 -262q8 -6 8 -23q0 -9 -9 -20l-90 -92q-11 -11 -28 -11q-13 0 -23 9l-142 145l-145 -146q-11 -11 -24 -8t-21 11l-93 89q-5 5 -6.5 10.5t-2.5 12.5z" />
<glyph unicode="&#xd5;" horiz-adv-x="1745" d="M94 759q0 109 28 208.5t79 187t122 159t158 122.5t187 79t209 28q108 0 208 -28t187 -79t158.5 -122.5t122.5 -159t79 -187.5t28 -208q0 -109 -28 -208.5t-79 -186t-122.5 -158t-158.5 -122.5t-187.5 -79t-207.5 -28q-109 0 -209 28t-187 79t-158 122.5t-122 158t-79 186 t-28 208.5zM489 760q0 -85 29 -159t80.5 -128.5t122.5 -86t156 -31.5t156 31.5t122.5 86t80.5 128.5t29 159q0 84 -29 158t-80.5 129.5t-122.5 87t-156 31.5t-156 -31.5t-122.5 -87t-80.5 -129.5t-29 -158zM495 1792q0 1 0.5 4.5t4.5 9.5t11 17t20 28q19 28 46 50.5t57.5 38 t63.5 24t66 8.5q18 0 39.5 -4.5t47 -14.5t57.5 -27t71 -42q11 -7 21.5 -11.5t24.5 -4.5q22 0 36 9t26 22l34 41q9 13 20 13.5t20 -8.5l105 -92q11 -11 15 -19.5t-6 -21.5l-31 -40q-41 -56 -101.5 -88t-127.5 -32q-40 0 -81 14t-79 37l-57 36q-11 7 -21 11.5t-25 4.5 q-20 0 -35 -8.5t-26 -21.5l-32 -41q-6 -10 -21.5 -11.5t-24.5 7.5l-105 89q-5 5 -9 9.5t-4 13.5z" />
<glyph unicode="&#xd6;" horiz-adv-x="1745" d="M94 759q0 109 28 208.5t79 187t122 159t158 122.5t187 79t209 28q108 0 208 -28t187 -79t158.5 -122.5t122.5 -159t79 -187.5t28 -208q0 -109 -28 -208.5t-79 -186t-122.5 -158t-158.5 -122.5t-187.5 -79t-207.5 -28q-109 0 -209 28t-187 79t-158 122.5t-122 158t-79 186 t-28 208.5zM489 760q0 -85 29 -159t80.5 -128.5t122.5 -86t156 -31.5t156 31.5t122.5 86t80.5 128.5t29 159q0 84 -29 158t-80.5 129.5t-122.5 87t-156 31.5t-156 -31.5t-122.5 -87t-80.5 -129.5t-29 -158zM515 1713v194q0 43 43 43h200q14 0 28 -11.5t14 -31.5v-194 q0 -18 -11.5 -34t-30.5 -16h-200q-43 0 -43 50zM961 1713v194q0 43 45 43h198q43 0 43 -43v-194q0 -18 -11.5 -34t-31.5 -16h-198q-45 0 -45 50z" />
<glyph unicode="&#xd7;" horiz-adv-x="921" d="M96 851q-31 33 3 67l162 162q32 31 65 0l139 -140l132 133q13 13 31 14.5t34 -14.5l146 -147q10 -11 13 -32t-10 -35l-132 -132l140 -140q13 -13 14.5 -30.5t-14.5 -34.5l-163 -162q-11 -11 -31.5 -14t-34.5 11l-140 141l-133 -132q-33 -33 -66 3l-148 146q-33 32 0 65 l134 132z" />
<glyph unicode="&#xd8;" horiz-adv-x="1745" d="M94 759q0 109 28 208.5t79 187t122 159t158 122.5t187 79t209 28q39 0 75.5 -3.5t73.5 -10.5l33 73q8 18 24 31.5t41 13.5h284q20 0 36 -8.5t16 -23.5q0 -11 -2 -13l-101 -224q69 -54 125 -122t95.5 -147t61 -167.5t21.5 -182.5q0 -109 -28 -208.5t-79 -186t-122.5 -158 t-158.5 -122.5t-187.5 -79t-207.5 -28q-78 0 -152 16l-36 -81q-11 -26 -21.5 -35.5t-31.5 -9.5h-307q-42 0 -42 27q0 2 1 4l3 14l104 230q-69 53 -124.5 121.5t-94.5 146.5t-60.5 166.5t-21.5 182.5zM489 760q0 -85 29 -159t80.5 -128.5t122.5 -86t156 -31.5t156 31.5 t122.5 86t80.5 128.5t29 159q0 84 -29 158t-80.5 129.5t-122.5 87t-156 31.5t-156 -31.5t-122.5 -87t-80.5 -129.5t-29 -158z" />
<glyph unicode="&#xd9;" horiz-adv-x="1587" d="M160 612v864q0 17 11.5 31t29.5 14h307q15 0 32 -13t17 -32v-869q0 -76 21 -128.5t55.5 -86t80 -48.5t94.5 -15q51 0 96.5 18t80 53t54.5 87.5t20 119.5v869q0 18 12.5 31.5t34.5 13.5h299q24 0 37 -14t13 -31v-864q0 -179 -52.5 -301t-142 -196t-206.5 -106.5 t-246 -32.5t-247 33.5t-207 109t-141.5 196.5t-52.5 297zM580 1931.5q-2 11.5 0.5 21t10 15.5t23.5 6h264q17 0 33 -9.5t21 -33.5l53 -211l5 -22.5t3 -24.5t-5.5 -19.5t-20.5 -8.5h-224q-19 0 -31 10.5t-25 32.5l-100 221q-5 11 -7 22.5z" />
<glyph unicode="&#xda;" horiz-adv-x="1587" d="M160 612v864q0 17 11.5 31t29.5 14h307q15 0 32 -13t17 -32v-869q0 -76 21 -128.5t55.5 -86t80 -48.5t94.5 -15q51 0 96.5 18t80 53t54.5 87.5t20 119.5v869q0 18 12.5 31.5t34.5 13.5h299q24 0 37 -14t13 -31v-864q0 -179 -52.5 -301t-142 -196t-206.5 -106.5 t-246 -32.5t-247 33.5t-207 109t-141.5 196.5t-52.5 297zM679 1673q0 11 3 24.5l5 22.5l53 211q5 24 21 33.5t34 9.5h264q15 0 23 -6t10.5 -15.5t0.5 -21t-8 -22.5l-100 -221q-12 -23 -24 -33t-31 -10h-224q-15 0 -21 8.5t-6 19.5z" />
<glyph unicode="&#xdb;" horiz-adv-x="1587" d="M160 612v864q0 17 11.5 31t29.5 14h307q15 0 32 -13t17 -32v-869q0 -76 21 -128.5t55.5 -86t80 -48.5t94.5 -15q51 0 96.5 18t80 53t54.5 87.5t20 119.5v869q0 18 12.5 31.5t34.5 13.5h299q24 0 37 -14t13 -31v-864q0 -179 -52.5 -301t-142 -196t-206.5 -106.5 t-246 -32.5t-247 33.5t-207 109t-141.5 196.5t-52.5 297zM513 1746q0 8 2.5 13t6.5 9l260 263q7 5 11.5 7t11.5 2q8 0 20 -9l264 -262q8 -6 8 -23q0 -9 -9 -20l-90 -92q-11 -11 -28 -11q-13 0 -23 9l-142 145l-145 -146q-11 -11 -24 -8t-21 11l-93 89q-5 5 -6.5 10.5 t-2.5 12.5z" />
<glyph unicode="&#xdc;" horiz-adv-x="1587" d="M160 612v864q0 17 11.5 31t29.5 14h307q15 0 32 -13t17 -32v-869q0 -76 21 -128.5t55.5 -86t80 -48.5t94.5 -15q51 0 96.5 18t80 53t54.5 87.5t20 119.5v869q0 18 12.5 31.5t34.5 13.5h299q24 0 37 -14t13 -31v-864q0 -179 -52.5 -301t-142 -196t-206.5 -106.5 t-246 -32.5t-247 33.5t-207 109t-141.5 196.5t-52.5 297zM434 1736v194q0 43 43 43h200q14 0 28 -11.5t14 -31.5v-194q0 -18 -11.5 -34t-30.5 -16h-200q-43 0 -43 50zM880 1736v194q0 43 45 43h198q43 0 43 -43v-194q0 -18 -11.5 -34t-31.5 -16h-198q-45 0 -45 50z" />
<glyph unicode="&#xdd;" horiz-adv-x="1443" d="M25 1505q0 6 4 11t11 5h394q7 -2 11.5 -2.5t8.5 -3.5t8 -8.5t11 -17.5l250 -530l248 530q6 12 10 17.5t8 8.5t8.5 3.5t11.5 2.5h394q7 0 11.5 -5t4.5 -11q0 -11 -14 -25l-485 -859v-573q0 -48 -48 -48h-307q-20 0 -31.5 13t-11.5 35v575l-484 857q-13 13 -13 25z M570 1675q0 11 3 24.5l5 22.5l53 211q5 24 21 33.5t34 9.5h264q15 0 23 -6t10.5 -15.5t0.5 -21t-8 -22.5l-100 -221q-12 -23 -24 -33t-31 -10h-224q-15 0 -21 8.5t-6 19.5z" />
<glyph unicode="&#xde;" horiz-adv-x="1350" d="M150 45v1431q0 18 11 31.5t34 13.5h250q17 0 33 -12.5t16 -32.5v-211h298q69 0 130.5 -19.5t114.5 -54t95 -81t71.5 -102t45.5 -117t16 -124.5q0 -93 -35 -181t-97 -157t-147.5 -111.5t-187.5 -43.5h-304v-229q0 -45 -48 -45h-251q-45 0 -45 45zM494 556q50 1 99 1h98h47 q43 0 79.5 17.5t62.5 46.5t41 67.5t15 80.5q0 40 -14.5 78.5t-40.5 68.5t-63 48t-82 18h-242v-426z" />
<glyph unicode="&#xdf;" horiz-adv-x="1227" d="M16 -168q0 41 38 41h8q55 0 76.5 32t21.5 90v1091q0 124 36 207t96.5 134t139.5 73.5t164 24.5h6q86 0 164.5 -31t138.5 -85t95 -128t35 -161v-27q0 -74 -29.5 -130.5t-91.5 -105.5q35 -18 72 -44.5t68.5 -62t54.5 -84t28 -110.5q2 -41 4.5 -76.5t-1.5 -78.5 q-11 -206 -141 -309t-389 -103q-45 0 -45 46v240q0 14 12.5 29t32.5 15h63q24 1 45 10.5t37 26t25.5 40t9.5 54.5v69q0 36 -18 63t-45 45.5t-59 28t-61 9.5q-17 0 -31 10t-14 34q0 55 0.5 111t0.5 111q0 44 44 44q22 0 38.5 9t27 23.5t16 32.5t5.5 35v22q0 7 -4 26.5 t-14.5 40t-30 36t-49.5 15.5q-39 0 -62.5 -12.5t-36.5 -32.5t-17 -43t-4 -43v-1128q0 -46 -12 -90.5t-34.5 -84.5t-53.5 -74.5t-69 -59.5q-52 -34 -115.5 -49t-128.5 -15q-47 0 -47 44v205z" />
<glyph unicode="&#xe0;" horiz-adv-x="1606" d="M107 649q0 142 52 264.5t142.5 213.5t212 142.5t261.5 51.5q63 0 116.5 -19t97 -49.5t78.5 -69.5t63 -79l40 124q10 26 16.5 41.5t14.5 23t19 10.5t32 3h152q11 0 26.5 -3.5t27.5 -14.5q14 -11 20 -25.5t6 -32.5v-1154q0 -17 -6 -33t-20 -26q-11 -11 -26.5 -14t-27.5 -3 h-201q-22 0 -35 5.5t-21.5 16t-14 25t-11.5 32.5l-30 77q-28 -28 -60.5 -59t-72 -58t-85.5 -45t-98 -18q-93 0 -179 24t-160 67.5t-134.5 104t-104 135.5t-67 161.5t-23.5 180.5zM476 649q0 -68 21 -126.5t59.5 -101.5t93.5 -68t122 -25q69 0 127.5 25t102 68t68 102 t24.5 126q0 66 -24.5 125.5t-68 104.5t-102.5 71t-127 26q-67 0 -122 -26t-93.5 -71t-59.5 -104.5t-21 -125.5zM599 1710.5q-2 11.5 0.5 21t10 15.5t23.5 6h264q17 0 33 -9.5t21 -33.5l53 -211l5 -22.5t3 -24.5t-5.5 -19.5t-20.5 -8.5h-224q-19 0 -31 10.5t-25 32.5 l-100 221q-5 11 -7 22.5z" />
<glyph unicode="&#xe1;" horiz-adv-x="1606" d="M107 649q0 142 52 264.5t142.5 213.5t212 142.5t261.5 51.5q63 0 116.5 -19t97 -49.5t78.5 -69.5t63 -79l40 124q10 26 16.5 41.5t14.5 23t19 10.5t32 3h152q11 0 26.5 -3.5t27.5 -14.5q14 -11 20 -25.5t6 -32.5v-1154q0 -17 -6 -33t-20 -26q-11 -11 -26.5 -14t-27.5 -3 h-201q-22 0 -35 5.5t-21.5 16t-14 25t-11.5 32.5l-30 77q-28 -28 -60.5 -59t-72 -58t-85.5 -45t-98 -18q-93 0 -179 24t-160 67.5t-134.5 104t-104 135.5t-67 161.5t-23.5 180.5zM476 649q0 -68 21 -126.5t59.5 -101.5t93.5 -68t122 -25q69 0 127.5 25t102 68t68 102 t24.5 126q0 66 -24.5 125.5t-68 104.5t-102.5 71t-127 26q-67 0 -122 -26t-93.5 -71t-59.5 -104.5t-21 -125.5zM607 1452q0 11 3 24.5l5 22.5l53 211q5 24 21 33.5t34 9.5h264q15 0 23 -6t10.5 -15.5t0.5 -21t-8 -22.5l-100 -221q-12 -23 -24 -33t-31 -10h-224 q-15 0 -21 8.5t-6 19.5z" />
<glyph unicode="&#xe2;" horiz-adv-x="1606" d="M107 649q0 142 52 264.5t142.5 213.5t212 142.5t261.5 51.5q63 0 116.5 -19t97 -49.5t78.5 -69.5t63 -79l40 124q10 26 16.5 41.5t14.5 23t19 10.5t32 3h152q11 0 26.5 -3.5t27.5 -14.5q14 -11 20 -25.5t6 -32.5v-1154q0 -17 -6 -33t-20 -26q-11 -11 -26.5 -14t-27.5 -3 h-201q-22 0 -35 5.5t-21.5 16t-14 25t-11.5 32.5l-30 77q-28 -28 -60.5 -59t-72 -58t-85.5 -45t-98 -18q-93 0 -179 24t-160 67.5t-134.5 104t-104 135.5t-67 161.5t-23.5 180.5zM476 649q0 -68 21 -126.5t59.5 -101.5t93.5 -68t122 -25q69 0 127.5 25t102 68t68 102 t24.5 126q0 66 -24.5 125.5t-68 104.5t-102.5 71t-127 26q-67 0 -122 -26t-93.5 -71t-59.5 -104.5t-21 -125.5zM511 1559q0 8 2.5 13t6.5 9l260 263q7 5 11.5 7t11.5 2q8 0 20 -9l264 -262q8 -6 8 -23q0 -9 -9 -20l-90 -92q-11 -11 -28 -11q-13 0 -23 9l-142 145l-145 -146 q-11 -11 -24 -8t-21 11l-93 89q-5 5 -6.5 10.5t-2.5 12.5z" />
<glyph unicode="&#xe3;" horiz-adv-x="1606" d="M107 649q0 142 52 264.5t142.5 213.5t212 142.5t261.5 51.5q63 0 116.5 -19t97 -49.5t78.5 -69.5t63 -79l40 124q10 26 16.5 41.5t14.5 23t19 10.5t32 3h152q11 0 26.5 -3.5t27.5 -14.5q14 -11 20 -25.5t6 -32.5v-1154q0 -17 -6 -33t-20 -26q-11 -11 -26.5 -14t-27.5 -3 h-201q-22 0 -35 5.5t-21.5 16t-14 25t-11.5 32.5l-30 77q-28 -28 -60.5 -59t-72 -58t-85.5 -45t-98 -18q-93 0 -179 24t-160 67.5t-134.5 104t-104 135.5t-67 161.5t-23.5 180.5zM415 1598q0 1 0.5 4.5t4.5 9.5t11 17t20 28q19 28 46 50.5t57.5 38t63.5 24t66 8.5 q18 0 39.5 -4.5t47 -14.5t57.5 -27t71 -42q11 -7 21.5 -11.5t24.5 -4.5q22 0 36 9t26 22l34 41q9 13 20 13.5t20 -8.5l105 -92q11 -11 15 -19.5t-6 -21.5l-31 -40q-41 -56 -101.5 -88t-127.5 -32q-40 0 -81 14t-79 37l-57 36q-11 7 -21 11.5t-25 4.5q-20 0 -35 -8.5 t-26 -21.5l-32 -41q-6 -10 -21.5 -11.5t-24.5 7.5l-105 89q-5 5 -9 9.5t-4 13.5zM476 649q0 -68 21 -126.5t59.5 -101.5t93.5 -68t122 -25q69 0 127.5 25t102 68t68 102t24.5 126q0 66 -24.5 125.5t-68 104.5t-102.5 71t-127 26q-67 0 -122 -26t-93.5 -71t-59.5 -104.5 t-21 -125.5z" />
<glyph unicode="&#xe4;" horiz-adv-x="1606" d="M107 649q0 142 52 264.5t142.5 213.5t212 142.5t261.5 51.5q63 0 116.5 -19t97 -49.5t78.5 -69.5t63 -79l40 124q10 26 16.5 41.5t14.5 23t19 10.5t32 3h152q11 0 26.5 -3.5t27.5 -14.5q14 -11 20 -25.5t6 -32.5v-1154q0 -17 -6 -33t-20 -26q-11 -11 -26.5 -14t-27.5 -3 h-201q-22 0 -35 5.5t-21.5 16t-14 25t-11.5 32.5l-30 77q-28 -28 -60.5 -59t-72 -58t-85.5 -45t-98 -18q-93 0 -179 24t-160 67.5t-134.5 104t-104 135.5t-67 161.5t-23.5 180.5zM438 1535v194q0 43 43 43h200q14 0 28 -11.5t14 -31.5v-194q0 -18 -11.5 -34t-30.5 -16h-200 q-43 0 -43 50zM476 649q0 -68 21 -126.5t59.5 -101.5t93.5 -68t122 -25q69 0 127.5 25t102 68t68 102t24.5 126q0 66 -24.5 125.5t-68 104.5t-102.5 71t-127 26q-67 0 -122 -26t-93.5 -71t-59.5 -104.5t-21 -125.5zM884 1535v194q0 43 45 43h198q43 0 43 -43v-194 q0 -18 -11.5 -34t-31.5 -16h-198q-45 0 -45 50z" />
<glyph unicode="&#xe5;" horiz-adv-x="1606" d="M107 649q0 142 52 264.5t142.5 213.5t212 142.5t261.5 51.5q63 0 116.5 -19t97 -49.5t78.5 -69.5t63 -79l40 124q10 26 16.5 41.5t14.5 23t19 10.5t32 3h152q11 0 26.5 -3.5t27.5 -14.5q14 -11 20 -25.5t6 -32.5v-1154q0 -17 -6 -33t-20 -26q-11 -11 -26.5 -14t-27.5 -3 h-201q-22 0 -35 5.5t-21.5 16t-14 25t-11.5 32.5l-30 77q-28 -28 -60.5 -59t-72 -58t-85.5 -45t-98 -18q-93 0 -179 24t-160 67.5t-134.5 104t-104 135.5t-67 161.5t-23.5 180.5zM476 649q0 -68 21 -126.5t59.5 -101.5t93.5 -68t122 -25q69 0 127.5 25t102 68t68 102 t24.5 126q0 66 -24.5 125.5t-68 104.5t-102.5 71t-127 26q-67 0 -122 -26t-93.5 -71t-59.5 -104.5t-21 -125.5zM557 1637q0 44 16.5 83.5t45.5 69t68 46.5t84 17q44 0 83.5 -17t69 -46.5t46.5 -69t17 -83.5q0 -45 -17 -84t-46.5 -68.5t-69 -45.5t-83.5 -16q-45 0 -84 16 t-68 45.5t-45.5 68.5t-16.5 84zM713 1638q0 -27 16 -43.5t43 -16.5t44 16.5t17 43.5t-17 44t-44 17t-43 -17.5t-16 -43.5z" />
<glyph unicode="&#xe6;" horiz-adv-x="2632" d="M107 649q0 142 52 264.5t142.5 213.5t212 142.5t261.5 51.5q63 0 116.5 -19t97 -49.5t78.5 -69.5t63 -79l40 124q10 26 16.5 41.5t14.5 23t19 10.5t32 3h152q11 0 26.5 -3.5t27.5 -14.5q14 -11 20 -25.5t6 -32.5v-1154q0 -17 -6 -33t-20 -26q-11 -11 -26.5 -14t-27.5 -3 h-201q-22 0 -35 5.5t-21.5 16t-14 25t-11.5 32.5l-30 77q-28 -28 -60.5 -59t-72 -58t-85.5 -45t-98 -18q-93 0 -179 24t-160 67.5t-134.5 104t-104 135.5t-67 161.5t-23.5 180.5zM476 649q0 -68 21 -126.5t59.5 -101.5t93.5 -68t122 -25q69 0 127.5 25t102 68t68 102 t24.5 126q0 66 -24.5 125.5t-68 104.5t-102.5 71t-127 26q-67 0 -122 -26t-93.5 -71t-59.5 -104.5t-21 -125.5zM1260 653q0 90 22 174.5t62.5 158.5t98.5 136t129.5 106t155.5 68.5t177 24.5q85 0 165 -22.5t150 -63.5t128.5 -98.5t100.5 -125.5t65 -145.5t23 -158.5 q0 -53 -1.5 -87t-16 -54t-47.5 -28t-98 -8h-737q10 -66 41 -109.5t72 -69.5t87.5 -37.5t86.5 -11.5q37 0 76 7.5t75.5 20.5t66.5 30t49 35q16 13 28 20t25 7t27 -9.5t31 -26.5l109 -123q11 -13 14 -24t3 -22q0 -20 -11.5 -35t-26.5 -26q-90 -83 -202.5 -129.5t-238.5 -46.5 q-140 0 -265 51t-219 141.5t-149.5 213.5t-55.5 267zM1649 821h523q-22 40 -46.5 74t-57 59.5t-74 40t-96.5 14.5q-40 0 -77.5 -16t-70 -42.5t-59 -60.5t-42.5 -69z" />
<glyph unicode="&#xe7;" horiz-adv-x="1286" d="M105 649q0 94 24 181.5t67 161.5t104.5 135t135 104t159 66.5t178.5 23.5q112 0 206.5 -29.5t177.5 -88.5l-3 3q23 -13 36 -31t13 -45q0 -18 -13 -37l-91 -155q-29 -50 -69 -50q-9 0 -22.5 4.5t-30.5 15.5q-45 30 -96.5 49t-109.5 19q-65 0 -119.5 -26t-92.5 -71 t-59.5 -104.5t-21.5 -125.5q0 -68 21.5 -126.5t59.5 -101.5t92.5 -68t119.5 -25q58 0 109 20t97 52q14 10 27 13t20 3q17 0 32 -7.5t30 -30.5l115 -173q5 -8 9.5 -18.5t4.5 -16.5q0 -24 -15 -38.5t-32 -26.5q-84 -58 -184 -93.5t-211 -35.5q-92 0 -178 24t-159.5 67.5 t-135 104t-104.5 135.5t-67 161.5t-24 180.5zM637 -49q0 11 3.5 23t17.5 26h270q-23 -15 -22 -36q0 -16 15.5 -30t39 -29t51 -31.5t50.5 -38.5t39 -50.5t16 -66.5q0 -37 -25 -78.5t-71 -82.5t-109.5 -76.5t-140.5 -59.5h-6q-15 0 -33.5 22.5t-35 51.5t-27.5 56t-11 36 q0 16 11 23q175 44 175 108q0 23 -15 40.5t-38 33t-50 31.5t-50 34.5t-38.5 41t-15.5 52.5z" />
<glyph unicode="&#xe8;" horiz-adv-x="1480" d="M108 653q0 90 22 174.5t62.5 158.5t98.5 136t129.5 106t155.5 68.5t177 24.5q85 0 165 -22.5t150 -63.5t128.5 -98.5t100.5 -125.5t65 -145.5t23 -158.5q0 -53 -1.5 -87t-16 -54t-47.5 -28t-98 -8h-737q10 -66 41 -109.5t72 -69.5t87.5 -37.5t86.5 -11.5q37 0 76 7.5 t75.5 20.5t66.5 30t49 35q16 13 28 20t25 7t27 -9.5t31 -26.5l109 -123q11 -13 14 -24t3 -22q0 -20 -11.5 -35t-26.5 -26q-90 -83 -202.5 -129.5t-238.5 -46.5q-140 0 -265 51t-219 141.5t-149.5 213.5t-55.5 267zM497 821h523q-22 40 -46.5 74t-57 59.5t-74 40t-96.5 14.5 q-40 0 -77.5 -16t-70 -42.5t-59 -60.5t-42.5 -69zM537 1710.5q-2 11.5 0.5 21t10 15.5t23.5 6h264q17 0 33 -9.5t21 -33.5l53 -211l5 -22.5t3 -24.5t-5.5 -19.5t-20.5 -8.5h-224q-19 0 -31 10.5t-25 32.5l-100 221q-5 11 -7 22.5z" />
<glyph unicode="&#xe9;" horiz-adv-x="1480" d="M108 653q0 90 22 174.5t62.5 158.5t98.5 136t129.5 106t155.5 68.5t177 24.5q85 0 165 -22.5t150 -63.5t128.5 -98.5t100.5 -125.5t65 -145.5t23 -158.5q0 -53 -1.5 -87t-16 -54t-47.5 -28t-98 -8h-737q10 -66 41 -109.5t72 -69.5t87.5 -37.5t86.5 -11.5q37 0 76 7.5 t75.5 20.5t66.5 30t49 35q16 13 28 20t25 7t27 -9.5t31 -26.5l109 -123q11 -13 14 -24t3 -22q0 -20 -11.5 -35t-26.5 -26q-90 -83 -202.5 -129.5t-238.5 -46.5q-140 0 -265 51t-219 141.5t-149.5 213.5t-55.5 267zM497 821h523q-22 40 -46.5 74t-57 59.5t-74 40t-96.5 14.5 q-40 0 -77.5 -16t-70 -42.5t-59 -60.5t-42.5 -69zM650 1452q0 11 3 24.5l5 22.5l53 211q5 24 21 33.5t34 9.5h264q15 0 23 -6t10.5 -15.5t0.5 -21t-8 -22.5l-100 -221q-12 -23 -24 -33t-31 -10h-224q-15 0 -21 8.5t-6 19.5z" />
<glyph unicode="&#xea;" horiz-adv-x="1480" d="M108 653q0 90 22 174.5t62.5 158.5t98.5 136t129.5 106t155.5 68.5t177 24.5q85 0 165 -22.5t150 -63.5t128.5 -98.5t100.5 -125.5t65 -145.5t23 -158.5q0 -53 -1.5 -87t-16 -54t-47.5 -28t-98 -8h-737q10 -66 41 -109.5t72 -69.5t87.5 -37.5t86.5 -11.5q37 0 76 7.5 t75.5 20.5t66.5 30t49 35q16 13 28 20t25 7t27 -9.5t31 -26.5l109 -123q11 -13 14 -24t3 -22q0 -20 -11.5 -35t-26.5 -26q-90 -83 -202.5 -129.5t-238.5 -46.5q-140 0 -265 51t-219 141.5t-149.5 213.5t-55.5 267zM493 1559q0 8 2.5 13t6.5 9l260 263q7 5 11.5 7t11.5 2 q8 0 20 -9l264 -262q8 -6 8 -23q0 -9 -9 -20l-90 -92q-11 -11 -28 -11q-13 0 -23 9l-142 145l-145 -146q-11 -11 -24 -8t-21 11l-93 89q-5 5 -6.5 10.5t-2.5 12.5zM497 821h523q-22 40 -46.5 74t-57 59.5t-74 40t-96.5 14.5q-40 0 -77.5 -16t-70 -42.5t-59 -60.5t-42.5 -69z " />
<glyph unicode="&#xeb;" horiz-adv-x="1480" d="M108 653q0 90 22 174.5t62.5 158.5t98.5 136t129.5 106t155.5 68.5t177 24.5q85 0 165 -22.5t150 -63.5t128.5 -98.5t100.5 -125.5t65 -145.5t23 -158.5q0 -53 -1.5 -87t-16 -54t-47.5 -28t-98 -8h-737q10 -66 41 -109.5t72 -69.5t87.5 -37.5t86.5 -11.5q37 0 76 7.5 t75.5 20.5t66.5 30t49 35q16 13 28 20t25 7t27 -9.5t31 -26.5l109 -123q11 -13 14 -24t3 -22q0 -20 -11.5 -35t-26.5 -26q-90 -83 -202.5 -129.5t-238.5 -46.5q-140 0 -265 51t-219 141.5t-149.5 213.5t-55.5 267zM374 1517v194q0 43 43 43h200q14 0 28 -11.5t14 -31.5v-194 q0 -18 -11.5 -34t-30.5 -16h-200q-43 0 -43 50zM497 821h523q-22 40 -46.5 74t-57 59.5t-74 40t-96.5 14.5q-40 0 -77.5 -16t-70 -42.5t-59 -60.5t-42.5 -69zM820 1517v194q0 43 45 43h198q43 0 43 -43v-194q0 -18 -11.5 -34t-31.5 -16h-198q-45 0 -45 50z" />
<glyph unicode="&#xec;" d="M93 1710.5q-2 11.5 0.5 21t10 15.5t23.5 6h264q17 0 33 -9.5t21 -33.5l53 -211l5 -22.5t3 -24.5t-5.5 -19.5t-20.5 -8.5h-224q-19 0 -31 10.5t-25 32.5l-100 221q-5 11 -7 22.5zM177 79v1142q0 33 18.5 56t57.5 23h234q12 0 26.5 -5.5t27 -16t21 -25t8.5 -32.5v-1142 q0 -39 -21.5 -59t-61.5 -20h-234q-76 0 -76 79z" />
<glyph unicode="&#xed;" d="M177 79v1142q0 33 18.5 56t57.5 23h234q12 0 26.5 -5.5t27 -16t21 -25t8.5 -32.5v-1142q0 -39 -21.5 -59t-61.5 -20h-234q-76 0 -76 79zM228 1452q0 11 3 24.5l5 22.5l53 211q5 24 21 33.5t34 9.5h264q15 0 23 -6t10.5 -15.5t0.5 -21t-8 -22.5l-100 -221q-12 -23 -24 -33 t-31 -10h-224q-15 0 -21 8.5t-6 19.5z" />
<glyph unicode="&#xee;" d="M74 1559q0 8 2.5 13t6.5 9l260 263q7 5 11.5 7t11.5 2q8 0 20 -9l264 -262q8 -6 8 -23q0 -9 -9 -20l-90 -92q-11 -11 -28 -11q-13 0 -23 9l-142 145l-145 -146q-11 -11 -24 -8t-21 11l-93 89q-5 5 -6.5 10.5t-2.5 12.5zM177 79v1142q0 33 18.5 56t57.5 23h234 q12 0 26.5 -5.5t27 -16t21 -25t8.5 -32.5v-1142q0 -39 -21.5 -59t-61.5 -20h-234q-76 0 -76 79z" />
<glyph unicode="&#xef;" d="M-1 1517v194q0 43 43 43h200q14 0 28 -11.5t14 -31.5v-194q0 -18 -11.5 -34t-30.5 -16h-200q-43 0 -43 50zM177 79v1142q0 33 18.5 56t57.5 23h234q12 0 26.5 -5.5t27 -16t21 -25t8.5 -32.5v-1142q0 -39 -21.5 -59t-61.5 -20h-234q-76 0 -76 79zM445 1517v194q0 43 45 43 h198q43 0 43 -43v-194q0 -18 -11.5 -34t-31.5 -16h-198q-45 0 -45 50z" />
<glyph unicode="&#xf0;" horiz-adv-x="1297" d="M102 489q0 106 41.5 199t113 161.5t167 107.5t205.5 39q30 0 60.5 -7.5t59.5 -20.5t55 -29.5t47 -34.5q-1 16 -4.5 37t-9.5 42.5t-12 42.5t-13 39l-51 -41q-14 -10 -27 -7t-23 16l-85 115q-19 25 6 47l42 33q-30 12 -59.5 12.5t-58 -6t-55 -18t-48.5 -21.5l-1 2 q-20 -5 -27 -5q-13 0 -20.5 7t-12.5 22l-83 147q-9 16 -9.5 26t3 15.5t7.5 8t4 4.5q0 14 8 22.5t26 12.5q22 16 56 29t72.5 22t77 13.5t68.5 4.5q26 0 60 -2.5t67 -8.5t61.5 -15.5t43.5 -22.5q17 -17 36 -30t38 -22l105 83q11 11 24 11.5t21 -13.5l83 -116q10 -10 9.5 -24.5 t-11.5 -26.5l-100 -78q55 -115 79.5 -269t24.5 -352q0 -17 -0.5 -34.5t-0.5 -35.5q-3 -141 -43 -251t-110 -185t-167 -113.5t-214 -38.5q-110 0 -205.5 39t-167 108t-112.5 161.5t-41 198.5zM409 486q0 -46 16.5 -86.5t46 -70.5t69 -47t85.5 -17t85 17t68 47t45.5 70.5 t16.5 86.5t-16.5 87t-45.5 71.5t-68 48t-85 17.5t-85.5 -17.5t-69 -48t-46 -71.5t-16.5 -87z" />
<glyph unicode="&#xf1;" horiz-adv-x="1438" d="M123 79v1146q0 19 8.5 35.5t24.5 25.5l-6 -3q13 11 28 14t28 3h154q18 0 32 -6.5t23 -17.5t14.5 -25.5t10.5 -29.5l32 -131q15 32 44.5 72t74.5 75.5t107 59.5t144 24q117 0 212 -45t162 -123t104 -182t37 -221v-671q0 -39 -17 -59t-54 -20h-236q-44 0 -60.5 15t-16.5 58 v666q0 44 -20 83.5t-53 70t-74.5 47.5t-84.5 17q-37 0 -75 -16t-70.5 -45.5t-54.5 -69t-25 -85.5v-665q0 -17 -6.5 -34.5t-20.5 -27.5q-13 -8 -24.5 -11t-27.5 -3h-231q-44 0 -63.5 21.5t-19.5 57.5zM340 1598q0 1 0.5 4.5t4.5 9.5t11 17t20 28q19 28 46 50.5t57.5 38 t63.5 24t66 8.5q18 0 39.5 -4.5t47 -14.5t57.5 -27t71 -42q11 -7 21.5 -11.5t24.5 -4.5q22 0 36 9t26 22l34 41q9 13 20 13.5t20 -8.5l105 -92q11 -11 15 -19.5t-6 -21.5l-31 -40q-41 -56 -101.5 -88t-127.5 -32q-40 0 -81 14t-79 37l-57 36q-11 7 -21 11.5t-25 4.5 q-20 0 -35 -8.5t-26 -21.5l-32 -41q-6 -10 -21.5 -11.5t-24.5 7.5l-105 89q-5 5 -9 9.5t-4 13.5z" />
<glyph unicode="&#xf2;" horiz-adv-x="1555" d="M108 649q0 94 24 181.5t67.5 161.5t104.5 135t135.5 104t161.5 66.5t181 23.5q139 0 261.5 -51.5t213 -142.5t143 -213t52.5 -265q0 -94 -24 -180.5t-67.5 -161.5t-104.5 -135.5t-135.5 -104t-160 -67.5t-178.5 -24q-94 0 -181 24t-161.5 67.5t-135.5 104t-104.5 135.5 t-67.5 161.5t-24 180.5zM482 649q0 -68 21 -126.5t59 -101.5t93 -68t124 -25q67 0 120.5 25t90.5 68t57 102t20 126q0 66 -20 125.5t-57 104.5t-91 71t-120 26q-69 0 -124 -26t-93 -71t-59 -104.5t-21 -125.5zM503 1710.5q-2 11.5 0.5 21t10 15.5t23.5 6h264q17 0 33 -9.5 t21 -33.5l53 -211l5 -22.5t3 -24.5t-5.5 -19.5t-20.5 -8.5h-224q-19 0 -31 10.5t-25 32.5l-100 221q-5 11 -7 22.5z" />
<glyph unicode="&#xf3;" horiz-adv-x="1555" d="M108 649q0 94 24 181.5t67.5 161.5t104.5 135t135.5 104t161.5 66.5t181 23.5q139 0 261.5 -51.5t213 -142.5t143 -213t52.5 -265q0 -94 -24 -180.5t-67.5 -161.5t-104.5 -135.5t-135.5 -104t-160 -67.5t-178.5 -24q-94 0 -181 24t-161.5 67.5t-135.5 104t-104.5 135.5 t-67.5 161.5t-24 180.5zM482 649q0 -68 21 -126.5t59 -101.5t93 -68t124 -25q67 0 120.5 25t90.5 68t57 102t20 126q0 66 -20 125.5t-57 104.5t-91 71t-120 26q-69 0 -124 -26t-93 -71t-59 -104.5t-21 -125.5zM643 1452q0 11 3 24.5l5 22.5l53 211q5 24 21 33.5t34 9.5h264 q15 0 23 -6t10.5 -15.5t0.5 -21t-8 -22.5l-100 -221q-12 -23 -24 -33t-31 -10h-224q-15 0 -21 8.5t-6 19.5z" />
<glyph unicode="&#xf4;" horiz-adv-x="1555" d="M108 649q0 94 24 181.5t67.5 161.5t104.5 135t135.5 104t161.5 66.5t181 23.5q139 0 261.5 -51.5t213 -142.5t143 -213t52.5 -265q0 -94 -24 -180.5t-67.5 -161.5t-104.5 -135.5t-135.5 -104t-160 -67.5t-178.5 -24q-94 0 -181 24t-161.5 67.5t-135.5 104t-104.5 135.5 t-67.5 161.5t-24 180.5zM482 649q0 -68 21 -126.5t59 -101.5t93 -68t124 -25q67 0 120.5 25t90.5 68t57 102t20 126q0 66 -20 125.5t-57 104.5t-91 71t-120 26q-69 0 -124 -26t-93 -71t-59 -104.5t-21 -125.5zM485 1514q0 8 2.5 13t6.5 9l260 263q7 5 11.5 7t11.5 2 q8 0 20 -9l264 -262q8 -6 8 -23q0 -9 -9 -20l-90 -92q-11 -11 -28 -11q-13 0 -23 9l-142 145l-145 -146q-11 -11 -24 -8t-21 11l-93 89q-5 5 -6.5 10.5t-2.5 12.5z" />
<glyph unicode="&#xf5;" horiz-adv-x="1555" d="M108 649q0 94 24 181.5t67.5 161.5t104.5 135t135.5 104t161.5 66.5t181 23.5q139 0 261.5 -51.5t213 -142.5t143 -213t52.5 -265q0 -94 -24 -180.5t-67.5 -161.5t-104.5 -135.5t-135.5 -104t-160 -67.5t-178.5 -24q-94 0 -181 24t-161.5 67.5t-135.5 104t-104.5 135.5 t-67.5 161.5t-24 180.5zM381 1571q0 1 0.5 4.5t4.5 9.5t11 17t20 28q19 28 46 50.5t57.5 38t63.5 24t66 8.5q18 0 39.5 -4.5t47 -14.5t57.5 -27t71 -42q11 -7 21.5 -11.5t24.5 -4.5q22 0 36 9t26 22l34 41q9 13 20 13.5t20 -8.5l105 -92q11 -11 15 -19.5t-6 -21.5l-31 -40 q-41 -56 -101.5 -88t-127.5 -32q-40 0 -81 14t-79 37l-57 36q-11 7 -21 11.5t-25 4.5q-20 0 -35 -8.5t-26 -21.5l-32 -41q-6 -10 -21.5 -11.5t-24.5 7.5l-105 89q-5 5 -9 9.5t-4 13.5zM482 649q0 -68 21 -126.5t59 -101.5t93 -68t124 -25q67 0 120.5 25t90.5 68t57 102 t20 126q0 66 -20 125.5t-57 104.5t-91 71t-120 26q-69 0 -124 -26t-93 -71t-59 -104.5t-21 -125.5z" />
<glyph unicode="&#xf6;" horiz-adv-x="1555" d="M108 649q0 94 24 181.5t67.5 161.5t104.5 135t135.5 104t161.5 66.5t181 23.5q139 0 261.5 -51.5t213 -142.5t143 -213t52.5 -265q0 -94 -24 -180.5t-67.5 -161.5t-104.5 -135.5t-135.5 -104t-160 -67.5t-178.5 -24q-94 0 -181 24t-161.5 67.5t-135.5 104t-104.5 135.5 t-67.5 161.5t-24 180.5zM412 1518v194q0 43 43 43h200q14 0 28 -11.5t14 -31.5v-194q0 -18 -11.5 -34t-30.5 -16h-200q-43 0 -43 50zM482 649q0 -68 21 -126.5t59 -101.5t93 -68t124 -25q67 0 120.5 25t90.5 68t57 102t20 126q0 66 -20 125.5t-57 104.5t-91 71t-120 26 q-69 0 -124 -26t-93 -71t-59 -104.5t-21 -125.5zM858 1518v194q0 43 45 43h198q43 0 43 -43v-194q0 -18 -11.5 -34t-31.5 -16h-198q-45 0 -45 50z" />
<glyph unicode="&#xf7;" horiz-adv-x="970" d="M111 532v240q0 45 48 45h664q18 0 31.5 -11.5t13.5 -33.5v-240q0 -18 -12 -32.5t-33 -14.5h-664q-48 0 -48 47zM311 49v248q0 20 11.5 32.5t33.5 12.5h271q17 0 32 -12.5t15 -32.5v-248q0 -18 -12 -32.5t-35 -14.5h-271q-45 0 -45 47zM311 1005v247q0 20 11.5 32.5 t33.5 12.5h271q17 0 32 -12t15 -33v-247q0 -18 -12 -33t-35 -15h-271q-45 0 -45 48z" />
<glyph unicode="&#xf8;" horiz-adv-x="1555" d="M108 649q0 94 24 181.5t67.5 161.5t104.5 135t135.5 104t161 66.5t180.5 23.5q27 0 52 -2t51 -6l22 49q8 18 24 31.5t42 13.5h283q20 0 36.5 -8t16.5 -24q0 -11 -2 -13l-91 -199q110 -92 173.5 -224t63.5 -290q0 -94 -24 -180.5t-67.5 -161.5t-104.5 -135.5t-135.5 -104 t-160.5 -67.5t-179 -24q-26 0 -50.5 2.5t-48.5 5.5l-24 -53q-11 -26 -21 -35.5t-32 -9.5h-307q-42 0 -42 27q0 2 1 4l3 14l89 199q-55 46 -100 103t-76.5 123t-48 140t-16.5 153zM481 649q0 -68 21 -126.5t59.5 -101.5t93.5 -68t123 -25q67 0 120.5 25t91 68t57.5 102 t20 126q0 66 -20 125.5t-57.5 104.5t-91 71t-120.5 26q-69 0 -123.5 -26t-93 -71t-59.5 -104.5t-21 -125.5z" />
<glyph unicode="&#xf9;" horiz-adv-x="1437" d="M123 551v671q0 39 17 58.5t54 19.5h236q44 0 60.5 -14.5t16.5 -57.5v-667q0 -44 20 -83.5t52.5 -69.5t74 -47.5t84.5 -17.5q37 0 76.5 17.5t73 46.5t55 68.5t21.5 83.5v666q0 17 6.5 34.5t19.5 26.5q13 8 25 11t27 3h232q44 0 63.5 -21.5t19.5 -56.5v-1146 q0 -19 -9 -35.5t-24 -26.5l6 3q-13 -11 -28 -14t-28 -3h-155q-18 0 -31.5 6.5t-22.5 18t-15.5 26t-10.5 29.5l-31 131q-15 -32 -44.5 -72.5t-74.5 -75.5t-107.5 -59t-143.5 -24q-117 0 -212 45t-162 122.5t-104 181.5t-37 222zM508 1710.5q-2 11.5 0.5 21t10 15.5t23.5 6 h264q17 0 33 -9.5t21 -33.5l53 -211l5 -22.5t3 -24.5t-5.5 -19.5t-20.5 -8.5h-224q-19 0 -31 10.5t-25 32.5l-100 221q-5 11 -7 22.5z" />
<glyph unicode="&#xfa;" horiz-adv-x="1437" d="M123 551v671q0 39 17 58.5t54 19.5h236q44 0 60.5 -14.5t16.5 -57.5v-667q0 -44 20 -83.5t52.5 -69.5t74 -47.5t84.5 -17.5q37 0 76.5 17.5t73 46.5t55 68.5t21.5 83.5v666q0 17 6.5 34.5t19.5 26.5q13 8 25 11t27 3h232q44 0 63.5 -21.5t19.5 -56.5v-1146 q0 -19 -9 -35.5t-24 -26.5l6 3q-13 -11 -28 -14t-28 -3h-155q-18 0 -31.5 6.5t-22.5 18t-15.5 26t-10.5 29.5l-31 131q-15 -32 -44.5 -72.5t-74.5 -75.5t-107.5 -59t-143.5 -24q-117 0 -212 45t-162 122.5t-104 181.5t-37 222zM590 1452q0 11 3 24.5l5 22.5l53 211 q5 24 21 33.5t34 9.5h264q15 0 23 -6t10.5 -15.5t0.5 -21t-8 -22.5l-100 -221q-12 -23 -24 -33t-31 -10h-224q-15 0 -21 8.5t-6 19.5z" />
<glyph unicode="&#xfb;" horiz-adv-x="1479" d="M123 551v671q0 39 17 58.5t54 19.5h236q44 0 60.5 -14.5t16.5 -57.5v-667q0 -44 20 -83.5t52.5 -69.5t74 -47.5t84.5 -17.5q37 0 76.5 17.5t73 46.5t55 68.5t21.5 83.5v666q0 17 6.5 34.5t19.5 26.5q13 8 25 11t27 3h232q44 0 63.5 -21.5t19.5 -56.5v-1146 q0 -19 -9 -35.5t-24 -26.5l6 3q-13 -11 -28 -14t-28 -3h-155q-18 0 -31.5 6.5t-22.5 18t-15.5 26t-10.5 29.5l-31 131q-15 -32 -44.5 -72.5t-74.5 -75.5t-107.5 -59t-143.5 -24q-117 0 -212 45t-162 122.5t-104 181.5t-37 222zM457 1520q0 8 2.5 13t6.5 9l260 263 q7 5 11.5 7t11.5 2q8 0 20 -9l264 -262q8 -6 8 -23q0 -9 -9 -20l-90 -92q-11 -11 -28 -11q-13 0 -23 9l-142 145l-145 -146q-11 -11 -24 -8t-21 11l-93 89q-5 5 -6.5 10.5t-2.5 12.5z" />
<glyph unicode="&#xfc;" horiz-adv-x="1437" d="M123 551v671q0 39 17 58.5t54 19.5h236q44 0 60.5 -14.5t16.5 -57.5v-667q0 -44 20 -83.5t52.5 -69.5t74 -47.5t84.5 -17.5q37 0 76.5 17.5t73 46.5t55 68.5t21.5 83.5v666q0 17 6.5 34.5t19.5 26.5q13 8 25 11t27 3h232q44 0 63.5 -21.5t19.5 -56.5v-1146 q0 -19 -9 -35.5t-24 -26.5l6 3q-13 -11 -28 -14t-28 -3h-155q-18 0 -31.5 6.5t-22.5 18t-15.5 26t-10.5 29.5l-31 131q-15 -32 -44.5 -72.5t-74.5 -75.5t-107.5 -59t-143.5 -24q-117 0 -212 45t-162 122.5t-104 181.5t-37 222zM353 1518v194q0 43 43 43h200q14 0 28 -11.5 t14 -31.5v-194q0 -18 -11.5 -34t-30.5 -16h-200q-43 0 -43 50zM799 1518v194q0 43 45 43h198q43 0 43 -43v-194q0 -18 -11.5 -34t-31.5 -16h-198q-45 0 -45 50z" />
<glyph unicode="&#xfd;" horiz-adv-x="1453" d="M43.5 1272.5q15.5 29.5 70.5 29.5h253q26 0 42 -16t24 -40l290 -824l284 824q11 33 28.5 44.5t47.5 11.5h264q29 0 45 -8t22.5 -20.5t4.5 -28.5t-8 -32q-39 -96 -85 -210t-95.5 -237.5t-101 -251t-100 -250.5t-93.5 -236t-82.5 -207.5t-65 -166.5t-42.5 -111l4 5 q-7 -28 -25.5 -44.5t-45.5 -16.5h-237q-46 0 -63 18t-17 53q0 13 4 20t6 9l160 418l-488 1197q-16 41 -0.5 70.5zM581 1452q0 11 3 24.5l5 22.5l53 211q5 24 21 33.5t34 9.5h264q15 0 23 -6t10.5 -15.5t0.5 -21t-8 -22.5l-100 -221q-12 -23 -24 -33t-31 -10h-224 q-15 0 -21 8.5t-6 19.5z" />
<glyph unicode="&#xfe;" horiz-adv-x="1583" d="M123 -352v1828q0 18 11 31.5t34 13.5h251q17 0 32.5 -12.5t15.5 -32.5v-476h298q69 0 130.5 -19t114.5 -53.5t95 -81t71.5 -102t45.5 -117t16 -124.5q0 -93 -35 -181.5t-97 -157t-147.5 -111t-187.5 -43.5h-304v-362q0 -45 -47 -45h-252q-45 0 -45 45zM467 292q50 1 99 1 h99h47q43 0 79 17.5t62.5 46.5t41 67.5t14.5 80.5q0 40 -14 78.5t-40.5 68.5t-63 48t-81.5 18h-243v-426z" />
<glyph unicode="&#xff;" horiz-adv-x="1453" d="M43.5 1272.5q15.5 29.5 70.5 29.5h253q26 0 42 -16t24 -40l290 -824l284 824q11 33 28.5 44.5t47.5 11.5h264q29 0 45 -8t22.5 -20.5t4.5 -28.5t-8 -32q-39 -96 -85 -210t-95.5 -237.5t-101 -251t-100 -250.5t-93.5 -236t-82.5 -207.5t-65 -166.5t-42.5 -111l4 5 q-7 -28 -25.5 -44.5t-45.5 -16.5h-237q-46 0 -63 18t-17 53q0 13 4 20t6 9l160 418l-488 1197q-16 41 -0.5 70.5zM361 1518v194q0 43 43 43h200q14 0 28 -11.5t14 -31.5v-194q0 -18 -11.5 -34t-30.5 -16h-200q-43 0 -43 50zM807 1518v194q0 43 45 43h198q43 0 43 -43v-194 q0 -18 -11.5 -34t-31.5 -16h-198q-45 0 -45 50z" />
<glyph unicode="&#x152;" horiz-adv-x="2486" d="M84 763q0 109 27.5 208.5t79 187t122.5 159.5t158 122.5t187 78.5t208 28t205.5 -27t184.5 -77v35q0 22 12 34.5t34 12.5h1016q23 0 35 -13.5t12 -35.5v-254q0 -17 -12 -33.5t-36 -16.5h-663v-252h512q19 0 32 -9.5t13 -30.5v-222q0 -14 -11.5 -27.5t-32.5 -13.5h-513 v-261h688q46 0 46 -47v-258q0 -10 -8 -18q-4 -29 -42 -29h-1036q-20 0 -33 11t-13 33v37q-87 -50 -184.5 -76.5t-205.5 -26.5q-109 0 -208.5 27.5t-186.5 78.5t-158 122.5t-122.5 158t-79 186t-27.5 208.5zM479 764q0 -85 29 -159t80.5 -128.5t122 -86t155.5 -31.5 t156.5 31.5t123 86t80 128.5t28.5 159q0 84 -28.5 158t-80 129.5t-123 87t-156.5 31.5t-155.5 -31.5t-122 -87t-80.5 -129.5t-29 -158z" />
<glyph unicode="&#x153;" horiz-adv-x="2439" d="M108 649q0 94 24 181.5t67.5 161.5t104.5 135t135.5 104t161 66.5t180.5 23.5q140 0 262.5 -52t213.5 -145q87 91 203.5 144t256.5 53q127 0 238 -48t196 -131.5t139.5 -195.5t68.5 -239q-1 -53 -2.5 -87t-15.5 -54t-47 -28t-98 -8h-747q10 -66 41.5 -109.5t72.5 -69.5 t87 -37.5t87 -11.5q37 0 75.5 7.5t75 20.5t67 30t48.5 35q16 13 28 20t25 7t27 -9.5t32 -26.5l108 -123q11 -13 14.5 -24t3.5 -22q0 -20 -11.5 -35t-26.5 -26q-90 -83 -203 -129.5t-239 -46.5q-144 0 -271.5 53.5t-222.5 148.5q-92 -96 -216.5 -151t-269.5 -55 q-94 0 -180.5 24t-161 67.5t-135.5 104t-104.5 135.5t-67.5 161.5t-24 180.5zM481 649q0 -68 21 -126.5t59.5 -101.5t93.5 -68t123 -25q67 0 120.5 25t91 68t57.5 102t20 126q0 66 -20 125.5t-57.5 104.5t-91 71t-120.5 26q-69 0 -123.5 -26t-93 -71t-59.5 -104.5 t-21 -125.5zM1461 821h524q-22 40 -47 74t-57.5 59.5t-74 40t-96.5 14.5q-40 0 -77.5 -16t-70 -42.5t-58.5 -60.5t-43 -69z" />
<glyph unicode="&#x178;" horiz-adv-x="1443" d="M25 1505q0 6 4 11t11 5h394q7 -2 11.5 -2.5t8.5 -3.5t8 -8.5t11 -17.5l250 -530l248 530q6 12 10 17.5t8 8.5t8.5 3.5t11.5 2.5h394q7 0 11.5 -5t4.5 -11q0 -11 -14 -25l-485 -859v-573q0 -48 -48 -48h-307q-20 0 -31.5 13t-11.5 35v575l-484 857q-13 13 -13 25z M361 1735v194q0 43 43 43h200q14 0 28 -11.5t14 -31.5v-194q0 -18 -11.5 -34t-30.5 -16h-200q-43 0 -43 50zM807 1735v194q0 43 45 43h198q43 0 43 -43v-194q0 -18 -11.5 -34t-31.5 -16h-198q-45 0 -45 50z" />
<glyph unicode="&#x2c6;" horiz-adv-x="765" d="M92 1559q0 8 2.5 13t6.5 9l260 263q7 5 11.5 7t11.5 2q8 0 20 -9l264 -262q8 -6 8 -23q0 -9 -9 -20l-90 -92q-11 -11 -28 -11q-13 0 -23 9l-142 145l-145 -146q-11 -11 -24 -8t-21 11l-93 89q-5 5 -6.5 10.5t-2.5 12.5z" />
<glyph unicode="&#x2dc;" horiz-adv-x="902" d="M59 1598q0 1 0.5 4.5t4.5 9.5t11 17t20 28q19 28 46 50.5t57.5 38t63.5 24t66 8.5q18 0 39.5 -4.5t47 -14.5t57.5 -27t71 -42q11 -7 21.5 -11.5t24.5 -4.5q22 0 36 9t26 22l34 41q9 13 20 13.5t20 -8.5l105 -92q11 -11 15 -19.5t-6 -21.5l-31 -40q-41 -56 -101.5 -88 t-127.5 -32q-40 0 -81 14t-79 37l-57 36q-11 7 -21 11.5t-25 4.5q-20 0 -35 -8.5t-26 -21.5l-32 -41q-6 -10 -21.5 -11.5t-24.5 7.5l-105 89q-5 5 -9 9.5t-4 13.5z" />
<glyph unicode="&#x2000;" horiz-adv-x="1021" />
<glyph unicode="&#x2001;" horiz-adv-x="2042" />
<glyph unicode="&#x2002;" horiz-adv-x="1021" />
<glyph unicode="&#x2003;" horiz-adv-x="2042" />
<glyph unicode="&#x2004;" horiz-adv-x="680" />
<glyph unicode="&#x2005;" horiz-adv-x="510" />
<glyph unicode="&#x2006;" horiz-adv-x="340" />
<glyph unicode="&#x2007;" horiz-adv-x="340" />
<glyph unicode="&#x2008;" horiz-adv-x="255" />
<glyph unicode="&#x2009;" horiz-adv-x="408" />
<glyph unicode="&#x200a;" horiz-adv-x="113" />
<glyph unicode="&#x2010;" horiz-adv-x="1126" d="M171 515v208q0 45 45 45h698q18 0 31.5 -12t13.5 -33v-208q0 -15 -12 -32t-33 -17h-698q-45 0 -45 49z" />
<glyph unicode="&#x2011;" horiz-adv-x="1126" d="M171 515v208q0 45 45 45h698q18 0 31.5 -12t13.5 -33v-208q0 -15 -12 -32t-33 -17h-698q-45 0 -45 49z" />
<glyph unicode="&#x2012;" horiz-adv-x="1126" d="M171 515v208q0 45 45 45h698q18 0 31.5 -12t13.5 -33v-208q0 -15 -12 -32t-33 -17h-698q-45 0 -45 49z" />
<glyph unicode="&#x2013;" horiz-adv-x="1374" d="M171 539v180q0 45 45 45h944q18 0 31.5 -11.5t13.5 -33.5v-180q0 -15 -12 -32.5t-33 -17.5h-944q-45 0 -45 50z" />
<glyph unicode="&#x2014;" horiz-adv-x="1712" d="M171 539v180q0 45 45 45h1282q18 0 31.5 -11.5t13.5 -33.5v-180q0 -15 -12 -32.5t-33 -17.5h-1282q-45 0 -45 50z" />
<glyph unicode="&#x2018;" horiz-adv-x="536" d="M106 1032v221q0 44 4 87q6 80 50 147t124 114q1 1 7.5 3t14 4t15 3.5t9.5 1.5q8 0 13 -4t11 -11l39 -29q17 -12 20.5 -21t3.5 -17q0 -11 -14 -25.5t-31 -34t-30.5 -44t-13.5 -56.5v-45q0 -18 18 -21h58q20 0 31 -12.5t11 -32.5v-228q0 -20 -11 -32.5t-34 -12.5h-247 q-17 0 -32.5 12.5t-15.5 32.5z" />
<glyph unicode="&#x2019;" horiz-adv-x="571" d="M127 1249v228q0 20 11.5 32.5t33.5 12.5h248q17 0 32 -12.5t15 -32.5v-222q0 -44 -3 -87q-6 -80 -50 -147t-124 -113q-1 -1 -8 -3t-14.5 -4t-14.5 -3.5t-9 -1.5q-8 0 -13.5 4t-11.5 10l-39 30q-17 12 -20 21t-3 17q0 11 13.5 25.5t30.5 34t31 44t14 56.5v45q0 18 -19 21 h-58q-20 0 -31 12.5t-11 32.5z" />
<glyph unicode="&#x201a;" horiz-adv-x="587" d="M124 45v227q0 20 11 32.5t34 12.5h248q17 0 32 -12t15 -33v-221q0 -44 -3 -87q-6 -80 -50 -147t-124 -113q-1 -1 -8 -3t-14.5 -4t-14.5 -3.5t-9 -1.5q-8 0 -13.5 4t-11.5 10l-39 30q-17 12 -20 21t-3 17q0 11 13.5 25.5t30.5 34t31 44t14 55.5v45q0 18 -19 22h-58 q-20 0 -31 12.5t-11 32.5z" />
<glyph unicode="&#x201c;" horiz-adv-x="991" d="M104 1029v221q0 44 4 87q6 80 50 147t124 113q1 1 7.5 3.5t14 4.5t15 3.5t9.5 1.5q8 0 13 -4t11 -11l39 -29q17 -12 20.5 -21t3.5 -17q0 -11 -14 -25.5t-31 -34t-30.5 -44t-13.5 -56.5v-45q0 -18 18 -21h58q20 0 31 -12.5t11 -33.5v-227q0 -20 -11 -32.5t-34 -12.5h-247 q-17 0 -32.5 12.5t-15.5 32.5zM559 1029v221q0 44 3 87q6 80 50 147t124 113q1 1 8 3.5t14.5 4.5t14.5 3.5t9 1.5q8 0 13.5 -4t11.5 -11l39 -29q17 -12 20 -21t3 -17q0 -11 -13.5 -25.5t-30.5 -34t-31 -44t-14 -56.5v-45q0 -18 19 -21h58q20 0 31 -12.5t11 -33.5v-227 q0 -20 -11 -32.5t-34 -12.5h-248q-17 0 -32 12.5t-15 32.5z" />
<glyph unicode="&#x201d;" horiz-adv-x="1013" d="M104 1250v228q0 20 11.5 32.5t34.5 12.5h247q17 0 32 -12.5t15 -32.5v-222q0 -44 -3 -87q-6 -80 -50 -147t-124 -113q-1 -1 -7.5 -3t-14 -4t-15 -3.5t-9.5 -1.5q-8 0 -13 4t-11 10l-39 30q-17 12 -20.5 21t-3.5 17q0 11 14 25.5t31 34t30.5 44t13.5 56.5v45q0 18 -18 21 h-59q-20 0 -31 12.5t-11 32.5zM569 1250v228q0 20 11.5 32.5t33.5 12.5h248q17 0 32 -12.5t15 -32.5v-222q0 -44 -3 -87q-6 -80 -50 -147t-124 -113q-1 -1 -7.5 -3t-14.5 -4t-15 -3.5t-9 -1.5q-8 0 -13 4t-11 10l-39 30q-17 12 -20.5 21t-3.5 17q0 11 14 25.5t30.5 34 t30.5 44t14 56.5v45q0 18 -18 21h-59q-20 0 -31 12.5t-11 32.5z" />
<glyph unicode="&#x201e;" horiz-adv-x="1021" d="M127 45v227q0 20 11.5 32.5t33.5 12.5h248q17 0 32 -12t15 -33v-221q0 -44 -3 -87q-6 -80 -50 -147t-124 -113q-1 -1 -8 -3t-14.5 -4t-14.5 -3.5t-9 -1.5q-8 0 -13.5 4t-11.5 10l-39 30q-17 12 -20 21t-3 17q0 11 13.5 25.5t30.5 34t31 44t14 55.5v45q0 18 -19 22h-58 q-20 0 -31 12.5t-11 32.5zM573 45v227q0 20 12 32.5t33 12.5h248q17 0 32 -12t15 -33v-221q0 -44 -3 -87q-6 -80 -50 -147t-124 -113q-1 -1 -7.5 -3t-14 -4t-15 -3.5t-9.5 -1.5q-8 0 -13 4t-11 10l-39 30q-17 12 -20.5 21t-3.5 17q0 11 14 25.5t31 34t30.5 44t13.5 55.5v45 q0 18 -18 22h-59q-20 0 -31 12.5t-11 32.5z" />
<glyph unicode="&#x2022;" horiz-adv-x="517" d="M91 674q0 37 14 68.5t38 55t55.5 37.5t68.5 14q36 0 68 -14t56 -37.5t37.5 -55t13.5 -68.5q0 -36 -13.5 -68.5t-37.5 -56.5t-56 -37.5t-68 -13.5q-37 0 -68.5 13.5t-55.5 37.5t-38 56.5t-14 68.5z" />
<glyph unicode="&#x2026;" horiz-adv-x="1496" d="M86 47v248q0 20 12 32.5t33 12.5h270q17 0 32.5 -12.5t15.5 -32.5v-248q0 -18 -12 -32.5t-36 -14.5h-270q-45 0 -45 47zM567 47v248q0 20 11.5 32.5t33.5 12.5h271q17 0 32.5 -12.5t15.5 -32.5v-248q0 -18 -12.5 -32.5t-35.5 -14.5h-271q-45 0 -45 47zM1049 47v248 q0 20 11.5 32.5t33.5 12.5h270q17 0 32 -12.5t15 -32.5v-248q0 -18 -11.5 -32.5t-35.5 -14.5h-270q-45 0 -45 47z" />
<glyph unicode="&#x202f;" horiz-adv-x="408" />
<glyph unicode="&#x2039;" horiz-adv-x="914" d="M23 646q0 16 15 32l536 535q9 11 30 12q22 0 34 -14l147 -147q12 -14 15 -32q-1 -7 -3 -15t-10 -17l-352 -353l352 -354q12 -12 13 -31q0 -22 -16 -37l-150 -146q-6 -6 -14 -10t-16 -4q-18 0 -31 14l-535 537q-15 15 -15 30z" />
<glyph unicode="&#x203a;" horiz-adv-x="904" d="M96 262q0 17 14 31l351 354l-351 353q-7 8 -9.5 16.5t-4.5 15.5q2 8 5 16.5t11 15.5l145 147q13 13 34 14q22 0 31 -12l536 -535q15 -15 15 -32q0 -14 -15 -30l-535 -537q-14 -14 -32 -14q-14 0 -29 14l-149 146q-16 16 -17 37z" />
<glyph unicode="&#x205f;" horiz-adv-x="510" />
<glyph unicode="&#x20ac;" horiz-adv-x="1579" d="M86 551v113q0 45 45 45h57q-1 12 -1 24v26v18t1 19h-57q-45 0 -45 50v112q0 45 45 46h95q38 118 110 216.5t169.5 170t216 112t248.5 40.5q123 0 232 -34t205 -99q17 -10 25.5 -26.5t-2.5 -38.5l-174 -246q-11 -17 -23.5 -20t-31.5 8q-50 38 -110.5 58.5t-127.5 20.5 q-101 0 -181 -44.5t-132 -117.5h221q19 0 32 -12t13 -34v-112q0 -15 -12 -32.5t-33 -17.5h-292q-1 -8 -1 -17.5v-17.5q0 -28 3 -52h290q19 0 32 -12t13 -33v-113q0 -15 -12 -32.5t-33 -17.5h-207q52 -68 127.5 -106t171.5 -38q68 0 129 21t111 59q18 11 30.5 9t24.5 -18 l176 -252q11 -23 2.5 -38t-25.5 -25q-96 -65 -207 -100.5t-234 -35.5q-129 0 -245.5 39t-213 109t-169 165.5t-112.5 210.5h-99q-45 0 -45 50z" />
<glyph unicode="&#x2122;" horiz-adv-x="1400" d="M115 1395v110q0 7 5.5 12.5t16.5 5.5h426q23 0 23 -18v-110q0 -20 -23 -21h-133v-454q0 -7 -5.5 -14t-11.5 -7h-122q-5 0 -13 6.5t-8 14.5v454h-133q-23 0 -22 21zM615 916l29 589q0 7 5 12.5t14 5.5h159q14 0 19 -14l90 -279l92 279q2 7 8.5 10.5t11.5 3.5h155 q7 0 14 -6t7 -12l29 -589q0 -17 -22 -17h-109q-17 0 -17 17l-26 323l-92 -297q-6 -16 -15 -16h-70q-9 0 -16 16l-93 297l-24 -323q0 -17 -21 -17h-110q-17 0 -18 17z" />
<glyph unicode="&#x25fc;" horiz-adv-x="1300" d="M0 0v1300h1300v-1300h-1300z" />
</font>
</defs>
</svg>
