<?xml version="1.0" standalone="no"?>
<!DOCTYPE svg PUBLIC "-//W3C//DTD SVG 1.1//EN" "http://www.w3.org/Graphics/SVG/1.1/DTD/svg11.dtd" >
<svg>
<metadata>
Created by FontForge 20110222 at Tue Sep  3 04:45:33 2013
 By www-data
2013 Iconian Fonts - www.iconian.com
</metadata>
<defs>
<font id="AlienLeague" horiz-adv-x="456" >
  <font-face 
    font-family="Alien League"
    font-weight="400"
    font-stretch="normal"
    units-per-em="1000"
    panose-1="0 0 0 0 0 0 0 0 0 0"
    ascent="800"
    descent="-200"
    x-height="752"
    cap-height="773"
    bbox="30 -128 848 873"
    underline-thickness="50"
    underline-position="-75"
    unicode-range="U+0020-2122"
  />
    <missing-glyph />
    <glyph glyph-name="space" unicode=" " horiz-adv-x="372" 
 />
    <glyph glyph-name="space" unicode="&#xa0;" horiz-adv-x="372" 
 />
    <glyph glyph-name="exclam" unicode="!" horiz-adv-x="279" 
d="M85 178h33v574h-33v-574zM80 0h43v60h-43v-60z" />
    <glyph glyph-name="quotedbl" unicode="&#x22;" horiz-adv-x="372" 
d="M88 537h17l8 105v110h-33v-110zM191 537h17l8 105v110h-33v-110z" />
    <glyph glyph-name="numbersign" unicode="#" horiz-adv-x="610" 
d="M80 340v-35h105v-305h33v305h97v-305h33v305h106v35h-106v96h106v35h-106v281h-33v-281h-97v281h-33v-281h-105v-35h105v-96h-105zM315 436v-96h-97v96h97z" />
    <glyph glyph-name="dollar" unicode="$" horiz-adv-x="457" 
d="M175 -104h32v104h28q35 2 50 25.5t15 54.5v270q0 12 -6 21.5t-14 16.5t-17.5 11t-15.5 4h-40v314h16q28 0 36 -16.5t8 -49.5v-137h34v166q0 26 -18.5 48t-47.5 24h-28v59h-32v-59h-29q-35 -2 -50 -25.5t-15 -54.5v-249q0 -29 19.5 -42t37.5 -13h37v-333h-17
q-28 0 -36 16.5t-8 49.5v137h-34v-166q0 -26 18.5 -48t47.5 -24h29v-104zM220 368q29 0 38 -10.5t9 -31.5v-226q0 -30 -9 -47.5t-32 -17.5h-19v333h13zM114 652q0 30 8 47.5t33 17.5h20v-314h-24q-28 0 -32.5 12t-4.5 32v205z" />
    <glyph glyph-name="percent" unicode="%" horiz-adv-x="558" 
d="M170 0l180 752h-39l-180 -752h39zM190 716q0 13 -9.5 23.5t-23.5 12.5h-45q-17 -2 -24.5 -13.5t-7.5 -26.5v-296q0 -15 7 -27.5t24 -12.5h49q15 0 22.5 11.5t7.5 25.5v303zM105 426v275q0 27 16 27h27q11 0 14 -7t3 -21v-274q0 -14 -3 -20.5t-14 -6.5h-20q-14 0 -18.5 7
t-4.5 20zM402 340q0 13 -9.5 23.5t-23.5 12.5h-45q-17 -2 -24.5 -13.5t-7.5 -26.5v-296q0 -15 7 -27.5t24 -12.5h49q15 0 22.5 11.5t7.5 25.5v303zM317 50v275q0 27 16 27h27q11 0 14 -7t3 -21v-274q0 -14 -3 -20.5t-14 -6.5h-20q-14 0 -18.5 7t-4.5 20z" />
    <glyph glyph-name="ampersand" unicode="&#x26;" horiz-adv-x="518" 
d="M113 652q0 30 12 47.5t29 17.5h39q28 0 36 -16.5t8 -49.5v-137h34v166q0 26 -18.5 48t-47.5 24h-60q-35 -2 -50 -25.5t-15 -54.5v-592q0 -29 14 -53.5t49 -26.5h95q30 2 46 23.5t16 48.5v272h62v35h-249v273zM113 101v243h153v-243q0 -33 -9 -49.5t-37 -16.5h-48
q-35 0 -47 17t-12 49z" />
    <glyph glyph-name="quotesingle" unicode="'" horiz-adv-x="269" 
d="M88 537h17l8 105v110h-33v-110z" />
    <glyph glyph-name="parenleft" unicode="(" horiz-adv-x="329" 
d="M148 -127h25q-29 118 -45 234t-16 234q0 46 2.5 91.5t7.5 91.5q8 73 20.5 144t30.5 143h-25q-18 -63 -31.5 -123t-21.5 -123q-15 -107 -15 -223q0 -66 5 -130.5t14 -124.5t21.5 -114.5t27.5 -99.5z" />
    <glyph glyph-name="parenright" unicode=")" horiz-adv-x="329" 
d="M105 -127h-25q29 118 45 234t16 234q0 46 -2.5 91.5t-7.5 91.5q-8 73 -20.5 144t-30.5 143h25q18 -63 31.5 -123t21.5 -123q15 -107 15 -223q0 -66 -5 -130.5t-14 -124.5t-21.5 -114.5t-27.5 -99.5z" />
    <glyph glyph-name="asterisk" unicode="*" horiz-adv-x="342" 
d="M80 737q10 -5 19.5 -9t19.5 -7q-5 -7 -11 -19.5t-16 -32.5l18 -22q5 8 10.5 23t11.5 35q12 -38 23 -58l19 22q-9 19 -16 32t-12 20q21 5 40 16l-7 29q-8 -5 -17.5 -12t-17.5 -15v63h-24v-63q-13 16 -35 27z" />
    <glyph glyph-name="plus" unicode="+" horiz-adv-x="486" 
d="M188 512v-107h-108v-35h108v-108h35v108h107v35h-107v107h-35z" />
    <glyph glyph-name="comma" unicode="," horiz-adv-x="279" 
d="M80 0h26q-1 -35 -5.5 -54.5t-13.5 -29.5l8 -32q15 16 21.5 43.5t6.5 72.5v60h-43v-60z" />
    <glyph glyph-name="hyphen" unicode="-" horiz-adv-x="449" 
d="M80 370h213v35h-213v-35z" />
    <glyph glyph-name="period" unicode="." horiz-adv-x="279" 
d="M80 0h43v60h-43v-60z" />
    <glyph glyph-name="slash" unicode="/" horiz-adv-x="455" 
d="M119 0l180 752h-39l-180 -752h39z" />
    <glyph glyph-name="zero" unicode="0" 
d="M300 680q0 26 -18.5 48t-47.5 24h-89q-35 0 -50 -24.5t-15 -55.5v-592q0 -29 14 -53.5t49 -26.5h97q30 2 45 24.5t15 49.5v606zM113 101v551q0 30 12 47.5t29 17.5h68q28 0 36.5 -16.5t8.5 -49.5v-550q0 -33 -8.5 -49.5t-36.5 -16.5h-54q-35 0 -45 17t-10 49z" />
    <glyph glyph-name="one" unicode="1" horiz-adv-x="361" 
d="M80 751v-34h90v-717h35v751h-125z" />
    <glyph glyph-name="two" unicode="2" 
d="M267 652v-205q0 -20 -4.5 -32t-32.5 -12h-96q-6 0 -15.5 -4t-17.5 -11t-14 -16.5t-6 -21.5v-270q0 -31 15 -54.5t50 -25.5h154v35h-145q-23 0 -32 17.5t-9 47.5v226q0 21 9 31.5t38 10.5h82q18 0 37.5 13t19.5 42v249q0 31 -15 54.5t-50 25.5h-89q-29 -2 -47.5 -24
t-18.5 -48v-166h34v137q0 33 8 49.5t36 16.5h68q25 0 33 -17.5t8 -47.5z" />
    <glyph glyph-name="three" unicode="3" 
d="M117 371h150v-270q0 -32 -11 -49t-46 -17h-52q-28 0 -36.5 16.5t-8.5 49.5v137h-33v-164q0 -27 15 -49.5t45 -24.5h97q35 2 49 26.5t14 53.5v592q0 31 -15 54.5t-50 25.5h-89q-29 -2 -47.5 -24t-18.5 -48v-166h33v137q0 33 8.5 49.5t36.5 16.5h68q17 0 29 -17.5t12 -47.5
v-246h-150v-35z" />
    <glyph glyph-name="four" unicode="4" horiz-adv-x="455" 
d="M80 371h186v-371h33v752h-33v-346h-153v346h-33v-381z" />
    <glyph glyph-name="five" unicode="5" 
d="M300 717h-186v-270q0 -20 4.5 -32t32.5 -12h96q6 0 15.5 -4t17.5 -11t14 -16.5t6 -21.5v-270q0 -31 -15 -54.5t-50 -25.5h-89q-29 2 -47.5 24t-18.5 48v166h34v-137q0 -33 8 -49.5t36 -16.5h68q23 0 32 17.5t9 47.5v226q0 21 -9 31.5t-38 10.5h-82q-18 0 -37.5 13
t-19.5 42v329h219v-35z" />
    <glyph glyph-name="six" unicode="6" 
d="M113 652q0 30 12 47.5t29 17.5h69q28 0 36 -16.5t8 -49.5v-137h33v166q0 26 -18.5 48t-47.5 24h-89q-35 -2 -50 -25.5t-15 -54.5v-592q0 -29 14 -53.5t49 -26.5h95q30 2 46 23.5t16 48.5v244q0 19 -16 38t-36 25h-135v273zM113 101v243h110q37 -5 44 -42v-201
q0 -33 -9.5 -49.5t-37.5 -16.5h-48q-35 0 -47 17t-12 49z" />
    <glyph glyph-name="seven" unicode="7" horiz-adv-x="457" 
d="M301 716l-187 -716h-32l180 717h-182v35h221v-36z" />
    <glyph glyph-name="eight" unicode="8" 
d="M300 680q0 26 -18.5 48t-47.5 24h-89q-35 -2 -50 -25.5t-15 -54.5v-592q0 -29 14 -53.5t49 -26.5h97q30 2 45 24.5t15 49.5v606zM113 101v269h155v-269q0 -33 -9 -49.5t-37 -16.5h-50q-35 0 -47 17t-12 49zM113 652q0 30 12 47.5t29 17.5h68q28 0 37 -16.5t9 -49.5v-246
h-155v247z" />
    <glyph glyph-name="nine" unicode="9" 
d="M267 100q0 -30 -12 -47.5t-29 -17.5h-68q-28 0 -36.5 16.5t-8.5 49.5v137h-33v-166q0 -26 18.5 -48t47.5 -24h89q35 2 50 25.5t15 54.5v592q0 29 -14 53.5t-49 26.5h-95q-30 -2 -46 -23.5t-16 -48.5v-248q0 -9 5.5 -18.5t13.5 -17.5t18.5 -14t20.5 -9h129v-273zM267 651
v-243h-110q-36 5 -44 43v201q0 33 9.5 49t37.5 16h48q35 0 47 -17t12 -49z" />
    <glyph glyph-name="colon" unicode=":" horiz-adv-x="279" 
d="M80 0h43v60h-43v-60zM80 417h43v60h-43v-60z" />
    <glyph glyph-name="semicolon" unicode=";" horiz-adv-x="279" 
d="M80 417h43v60h-43v-60zM80 0h26q-1 -35 -5.5 -54.5t-13.5 -29.5l8 -32q15 16 21.5 43.5t6.5 72.5v60h-43v-60z" />
    <glyph glyph-name="less" unicode="&#x3c;" horiz-adv-x="422" 
d="M227 0h39l-149 390l149 362h-39l-147 -363z" />
    <glyph glyph-name="equal" unicode="=" horiz-adv-x="526" 
d="M80 471v-35h290v35h-290zM80 340v-35h290v35h-290z" />
    <glyph glyph-name="greater" unicode="&#x3e;" horiz-adv-x="422" 
d="M119 0h-39l149 390l-149 362h39l147 -363z" />
    <glyph glyph-name="question" unicode="?" 
d="M267 447q0 -20 -4.5 -32t-32.5 -12h-23q-6 0 -15.5 -4t-17.5 -11t-14 -16.5t-6 -21.5v-142h33v118q0 21 9 31.5t38 10.5h9q18 0 37.5 13t19.5 42v249q0 31 -15 54.5t-50 25.5h-89q-29 -2 -47.5 -24t-18.5 -48v-166h34v137q0 33 8 49.5t36 16.5h68q25 0 33 -17.5t8 -47.5
v-205zM147 0h43v60h-43v-60z" />
    <glyph glyph-name="at" unicode="@" horiz-adv-x="658" 
d="M220 175l68 451h26l68 -421h84v458q0 27 -8.5 40.5t-33.5 13.5h-270q-17 0 -29 -19t-12 -49v-556q0 -29 12.5 -43.5t46.5 -14.5h268v-35h-297q-35 2 -49 26.5t-14 53.5v592q0 31 15 54.5t50 25.5h291q29 -2 47.5 -24t18.5 -48v-505h-143l-27 154h-60l-24 -154h-28z
M277 352h50l-27 205z" />
    <glyph glyph-name="A" unicode="A" horiz-adv-x="514" 
d="M322 0h36l-120 752h-43l-115 -752h36l37 256h128zM217 681l58 -386h-117z" />
    <glyph glyph-name="B" unicode="B" horiz-adv-x="473" 
d="M80 0h120q33 0 55.5 20.5t36 52t19.5 70t6 74.5q0 66 -15 113.5t-44 67.5q22 26 32.5 72t10.5 93q0 42 -5 77t-17 59.5t-32 38.5t-50 14h-117v-752zM113 405v312h70q27 -3 43.5 -14t25 -30t11 -46.5t2.5 -63.5q0 -54 -9.5 -92t-26.5 -54q-14 -12 -43 -12h-73zM113 35v331
h79q15 0 27.5 -1t21.5 -8q20 -15 30 -55.5t10 -95.5q0 -73 -22 -115t-62 -56h-84z" />
    <glyph glyph-name="FL0043h" unicode="C" 
d="M113 101v551q0 30 12 47.5t29 17.5h68q28 0 36.5 -16t8.5 -49v-138h33v166q0 26 -18.5 48t-47.5 24h-89q-31 0 -48 -24.5t-17 -55.5v-592q0 -29 14 -53.5t49 -26.5h97q30 2 45 24.5t15 49.5v164h-33v-137q0 -33 -8.5 -49.5t-36.5 -16.5h-52q-35 0 -46 17t-11 49z" />
    <glyph glyph-name="D" unicode="D" horiz-adv-x="458" 
d="M80 0h85q21 0 41 15.5t34 40.5q9 16 20 42.5t20 64t15.5 86.5t6.5 110v19q0 100 -10.5 178t-31.5 127q-17 26 -40 47.5t-48 21.5h-92v-752zM113 35v682h42q12 0 22.5 -5.5t20.5 -14.5q34 -29 48 -102q4 -11 7.5 -32t6.5 -47.5t5 -55.5t2 -57q0 -55 -4 -102t-6 -73
q-2 -21 -8.5 -53t-18.5 -62t-30.5 -52.5t-44.5 -25.5h-42z" />
    <glyph glyph-name="E" unicode="E" horiz-adv-x="457" 
d="M80 0h221v35h-188v335h167v35h-167v312h188v35h-221v-752z" />
    <glyph glyph-name="F" unicode="F" horiz-adv-x="457" 
d="M80 0h33v370h167v35h-167v312h188v35h-221v-752z" />
    <glyph glyph-name="G" unicode="G" 
d="M113 101v551q0 30 12 47.5t29 17.5h68q28 0 36.5 -16.5t8.5 -49.5v-137h33v166q0 26 -18.5 48t-47.5 24h-89q-35 0 -50 -24.5t-15 -55.5v-592q0 -29 14 -53.5t49 -26.5h95q30 2 46 23.5t16 48.5v307h-99v-35h66v-243q0 -33 -9.5 -49.5t-37.5 -16.5h-48q-35 0 -47 17
t-12 49z" />
    <glyph glyph-name="H" unicode="H" horiz-adv-x="455" 
d="M113 371h153v-371h33v752h-33v-346h-153v346h-33v-752h33v371z" />
    <glyph glyph-name="I" unicode="I" horiz-adv-x="321" 
d="M138 752l-18 21l-15 -21q-11 -97 -18 -193t-7 -193q0 -94 6 -183t17 -183l18 -22l15 22q14 97 21.5 191.5t7.5 191.5q0 184 -27 369z" />
    <glyph glyph-name="J" unicode="J" horiz-adv-x="454" 
d="M265 101q0 -32 -12 -49t-47 -17h-48q-28 0 -36.5 16.5t-8.5 49.5v137h-33v-164q0 -27 15 -49.5t45 -24.5h95q35 2 49 26.5t14 53.5v672h-33v-651z" />
    <glyph glyph-name="K" unicode="K" horiz-adv-x="462" 
d="M80 0h33v280l48 116l111 -396h34l-123 444l118 308h-35l-153 -393v393h-33v-752z" />
    <glyph glyph-name="L" unicode="L" horiz-adv-x="458" 
d="M80 0h222v35h-189v717h-33v-752z" />
    <glyph glyph-name="M" unicode="M" horiz-adv-x="707" 
d="M331 0l187 656v-656h33v752h-36l-197 -681l-203 681h-35v-752h34v656l189 -656h28z" />
    <glyph glyph-name="N" unicode="N" 
d="M113 0v622l151 -622h36v752h-33v-625l-150 625h-37v-752h33z" />
    <glyph glyph-name="O" unicode="O" 
d="M300 680q0 26 -18.5 48t-47.5 24h-89q-36 0 -50.5 -24.5t-14.5 -55.5v-592q0 -29 14 -53.5t49 -26.5h97q30 2 45 24.5t15 49.5v606zM113 101v551q0 30 12 47.5t29 17.5h68q28 0 36.5 -16.5t8.5 -49.5v-550q0 -33 -8.5 -49.5t-36.5 -16.5h-50q-35 0 -47 17t-12 49z" />
    <glyph glyph-name="P" unicode="P" horiz-adv-x="453" 
d="M80 0h33v333h86q16 0 33.5 13t32 39t23.5 66.5t9 94.5q0 46 -9 84t-23 65t-31.5 42t-33.5 15h-120v-752zM113 368v349h62q28 0 44.5 -16t26 -41t13.5 -55.5t6 -60.5q-3 -27 -6 -58t-10.5 -57.5t-22 -43.5t-41.5 -17h-72z" />
    <glyph glyph-name="Q" unicode="Q" 
d="M207 -88v88h33q30 2 45 24.5t15 49.5v606q0 26 -18.5 48t-47.5 24h-89q-35 0 -50 -24.5t-15 -55.5v-592q0 -29 14 -53.5t49 -26.5h31v-88h33zM113 101v551q0 30 12 47.5t29 17.5h68q28 0 36.5 -16.5t8.5 -49.5v-550q0 -33 -8.5 -49.5t-36.5 -16.5h-15v340h-33v-340h-2
q-35 0 -47 17t-12 49z" />
    <glyph glyph-name="R" unicode="R" horiz-adv-x="475" 
d="M80 0h33v333h57q9 -6 18 -15.5t18.5 -28.5t19.5 -51t21 -84l33 -154h39l-48 205q-10 42 -19.5 71.5t-29.5 61.5q29 14 52 65.5t23 142.5q0 46 -9 84t-23 65t-31.5 42t-33.5 15h-120v-752zM113 368v349h62q28 0 44.5 -16t26 -41t13.5 -55.5t6 -60.5q-3 -27 -6 -58
t-10.5 -57.5t-22 -43.5t-41.5 -17h-72z" />
    <glyph glyph-name="S" unicode="S" horiz-adv-x="457" 
d="M114 652v-205q0 -20 4.5 -32t32.5 -12h96q6 0 15.5 -4t17.5 -11t14 -16.5t6 -21.5v-270q0 -31 -15 -54.5t-50 -25.5h-89q-29 2 -47.5 24t-18.5 48v166h33v-138q0 -33 8.5 -49t36.5 -16h68q23 0 32 17.5t9 47.5v226q0 21 -9 31.5t-38 10.5h-82q-18 0 -37.5 13t-19.5 42
v249q0 31 15 54.5t50 25.5h89q29 -2 47.5 -24t18.5 -48v-166h-33v137q0 33 -8.5 49.5t-36.5 16.5h-68q-25 0 -33 -17.5t-8 -47.5z" />
    <glyph glyph-name="T" unicode="T" horiz-adv-x="458" 
d="M80 752v-35h94v-717h34v717h94v35h-222z" />
    <glyph glyph-name="U" unicode="U" 
d="M113 101v651h-33v-672q0 -29 14 -53.5t49 -26.5h97q30 2 45 24.5t15 49.5v678h-33v-651q0 -33 -8.5 -49.5t-36.5 -16.5h-50q-35 0 -47 17t-12 49z" />
    <glyph glyph-name="FL0056h" unicode="V" horiz-adv-x="514" 
d="M217 73l105 679h36l-120 -752h-43l-115 752h36z" />
    <glyph glyph-name="W" unicode="W" horiz-adv-x="742" 
d="M443 71l-99 681h-22l-107 -681l-99 681h-36l113 -752h43l97 619l88 -619h43l122 752h-36z" />
    <glyph glyph-name="X" unicode="X" horiz-adv-x="455" 
d="M119 0l71 371l70 -371h39l-76 391l76 361h-39l-70 -350l-73 350h-37l75 -361l-75 -391h39z" />
    <glyph glyph-name="Y" unicode="Y" horiz-adv-x="454" 
d="M172 371h-20q-13 0 -25.5 3.5t-23 11t-17 19.5t-6.5 29v318h33v-301q0 -45 42 -45h72q38 0 38 42v304h33v-321q0 -16 -7 -27t-17.5 -18.5t-23 -11t-23.5 -3.5h-20v-371h-35v371z" />
    <glyph glyph-name="Z" unicode="Z" horiz-adv-x="457" 
d="M301 717l-184 -682h184v-35h-219v35l182 682h-184v35h221v-35z" />
    <glyph glyph-name="bracketleft" unicode="[" horiz-adv-x="306" 
d="M80 -104h70v35h-38v845h37v35h-69v-915z" />
    <glyph glyph-name="backslash" unicode="\" horiz-adv-x="455" 
d="M260 0l-180 752h39l180 -752h-39z" />
    <glyph glyph-name="bracketright" unicode="]" horiz-adv-x="306" 
d="M150 -104h-70v35h38v845h-37v35h69v-915z" />
    <glyph glyph-name="asciicircum" unicode="^" horiz-adv-x="342" 
d="M113 676l20 43l20 -43h33l-35 76h-36l-35 -76h33z" />
    <glyph glyph-name="underscore" unicode="_" horiz-adv-x="457" 
d="M80 0h221v35h-221v-35z" />
    <glyph glyph-name="grave" unicode="`" horiz-adv-x="293" 
d="M137 676l-21 76h-36l35 -76h22z" />
    <glyph glyph-name="a" unicode="a" horiz-adv-x="514" 
d="M217 679l105 -679h36l-120 752h-43l-115 -752h36z" />
    <glyph glyph-name="b" unicode="b" horiz-adv-x="473" 
d="M80 0h120q33 0 55.5 20.5t36 52t19.5 70t6 74.5q0 66 -15 113.5t-44 67.5q22 26 32.5 72t10.5 93q0 42 -5 77t-17 59.5t-32 38.5t-50 14h-117v-752zM113 405v312h70q27 -3 43.5 -14t25 -30t11 -46.5t2.5 -63.5q0 -54 -9.5 -92t-26.5 -54q-14 -12 -43 -12h-73zM113 35v331
h79q15 0 27.5 -1t21.5 -8q20 -15 30 -55.5t10 -95.5q0 -73 -22 -115t-62 -56h-84z" />
    <glyph glyph-name="c" unicode="c" 
d="M113 101v551q0 30 12 47.5t29 17.5h68q28 0 36.5 -16t8.5 -49v-138h33v166q0 26 -18.5 48t-47.5 24h-89q-31 0 -48 -24.5t-17 -55.5v-592q0 -29 14 -53.5t49 -26.5h97q30 2 45 24.5t15 49.5v164h-33v-137q0 -33 -8.5 -49.5t-36.5 -16.5h-52q-35 0 -46 17t-11 49z" />
    <glyph glyph-name="d" unicode="d" horiz-adv-x="458" 
d="M80 0h85q21 0 41 15.5t34 40.5q9 16 20 42.5t20 64t15.5 86.5t6.5 110v19q0 100 -10.5 178t-31.5 127q-17 26 -40 47.5t-48 21.5h-92v-752zM113 35v682h42q12 0 22.5 -5.5t20.5 -14.5q34 -29 48 -102q4 -11 7.5 -32t6.5 -47.5t5 -55.5t2 -57q0 -55 -4 -102t-6 -73
q-2 -21 -8.5 -53t-18.5 -62t-30.5 -52.5t-44.5 -25.5h-42z" />
    <glyph glyph-name="e" unicode="e" horiz-adv-x="457" 
d="M80 0h221v35h-188v335h167v35h-167v312h188v35h-221v-752z" />
    <glyph glyph-name="f" unicode="f" horiz-adv-x="457" 
d="M80 0h33v370h167v35h-167v312h188v35h-221v-752z" />
    <glyph glyph-name="g" unicode="g" 
d="M113 101v551q0 30 12 47.5t29 17.5h68q28 0 36.5 -16.5t8.5 -49.5v-137h33v166q0 26 -18.5 48t-47.5 24h-89q-29 0 -47 -24.5t-18 -55.5v-592q0 -29 14 -53.5t49 -26.5h95q30 2 46 23.5t16 48.5v307h-99v-35h66v-243q0 -33 -9.5 -49.5t-37.5 -16.5h-48q-35 0 -47 17
t-12 49z" />
    <glyph glyph-name="h" unicode="h" horiz-adv-x="455" 
d="M113 371h153v-371h33v752h-33v-346h-153v346h-33v-752h33v371z" />
    <glyph glyph-name="i" unicode="i" horiz-adv-x="272" 
d="M80 0h36v752h-36v-752z" />
    <glyph glyph-name="j" unicode="j" horiz-adv-x="454" 
d="M265 101q0 -32 -12 -49t-47 -17h-48q-28 0 -36.5 16.5t-8.5 49.5v137h-33v-164q0 -27 15 -49.5t45 -24.5h95q35 2 49 26.5t14 53.5v672h-33v-651z" />
    <glyph glyph-name="k" unicode="k" horiz-adv-x="462" 
d="M80 0h33v280l48 116l111 -396h34l-123 444l118 308h-35l-153 -393v393h-33v-752z" />
    <glyph glyph-name="l" unicode="l" horiz-adv-x="458" 
d="M80 0h222v35h-189v717h-33v-752z" />
    <glyph glyph-name="m" unicode="m" horiz-adv-x="707" 
d="M331 0l187 656v-656h33v752h-36l-197 -681l-203 681h-35v-752h34v656l189 -656h28z" />
    <glyph glyph-name="n" unicode="n" 
d="M113 0v622l151 -622h36v752h-33v-625l-150 625h-37v-752h33z" />
    <glyph glyph-name="o" unicode="o" 
d="M300 680q0 26 -18.5 48t-47.5 24h-89q-35 0 -50 -24.5t-15 -55.5v-592q0 -29 14 -53.5t49 -26.5h97q30 2 45 24.5t15 49.5v606zM113 101v551q0 30 12 47.5t29 17.5h68q28 0 36.5 -16.5t8.5 -49.5v-550q0 -33 -8.5 -49.5t-36.5 -16.5h-54q-35 0 -45 17t-10 49z" />
    <glyph glyph-name="p" unicode="p" horiz-adv-x="453" 
d="M80 0h33v333h86q16 0 33.5 13t32 39t23.5 66.5t9 94.5q0 52 -11.5 91t-27.5 64.5t-32 38t-26 12.5h-120v-752zM113 368v349h64q24 0 40.5 -16t26 -41t14.5 -55.5t7 -60.5q-3 -27 -6 -58t-10.5 -57.5t-22 -43.5t-41.5 -17h-72z" />
    <glyph glyph-name="q" unicode="q" 
d="M240 0q30 2 45 24.5t15 49.5v606q0 26 -18.5 48t-47.5 24h-89q-35 0 -50 -24.5t-15 -55.5v-592q0 -29 14 -53.5t49 -26.5h97zM113 101v551q0 30 12 47.5t29 17.5h68q28 0 36.5 -16.5t8.5 -49.5v-550q0 -33 -8.5 -49.5t-36.5 -16.5h-15v340h-33v-340h-2q-35 0 -47 17
t-12 49z" />
    <glyph glyph-name="r" unicode="r" horiz-adv-x="475" 
d="M80 0h33v333h57q9 -6 18 -15.5t18.5 -28.5t19.5 -51t21 -84l33 -154h39l-48 205q-10 42 -19.5 71.5t-29.5 61.5q29 14 52 65.5t23 142.5q0 46 -9 84t-23 65t-31.5 42t-33.5 15h-120v-752zM113 368v349h62q28 0 44.5 -16t26 -41t13.5 -55.5t6 -60.5q-3 -27 -6 -58
t-10.5 -57.5t-22 -43.5t-41.5 -17h-72z" />
    <glyph glyph-name="s" unicode="s" horiz-adv-x="457" 
d="M114 652v-205q0 -20 4.5 -32t32.5 -12h96q6 0 15.5 -4t17.5 -11t14 -16.5t6 -21.5v-270q0 -31 -15 -54.5t-50 -25.5h-89q-29 2 -47.5 24t-18.5 48v166h33v-138q0 -33 8.5 -49t36.5 -16h68q23 0 32 17.5t9 47.5v226q0 21 -9 31.5t-38 10.5h-82q-18 0 -37.5 13t-19.5 42
v249q0 31 15 54.5t50 25.5h89q29 -2 47.5 -24t18.5 -48v-166h-33v137q0 33 -8.5 49.5t-36.5 16.5h-68q-25 0 -33 -17.5t-8 -47.5z" />
    <glyph glyph-name="t" unicode="t" horiz-adv-x="458" 
d="M80 752v-35h94v-717h34v717h94v35h-222z" />
    <glyph glyph-name="u" unicode="u" 
d="M113 101v651h-33v-672q0 -29 14 -53.5t49 -26.5h97q30 2 45 24.5t15 49.5v678h-33v-651q0 -33 -8.5 -49.5t-36.5 -16.5h-50q-35 0 -47 17t-12 49z" />
    <glyph glyph-name="FL0076h" unicode="v" horiz-adv-x="514" 
d="M217 73l105 679h36l-120 -752h-43l-115 752h36z" />
    <glyph glyph-name="w" unicode="w" horiz-adv-x="742" 
d="M443 71l-99 681h-22l-107 -681l-99 681h-36l113 -752h43l97 619l88 -619h43l122 752h-36z" />
    <glyph glyph-name="x" unicode="x" horiz-adv-x="455" 
d="M113 0l77 371l74 -371h35l-76 391l76 361h-35l-74 -350l-76 350h-34l75 -361l-75 -391h33z" />
    <glyph glyph-name="y" unicode="y" horiz-adv-x="454" 
d="M172 371h-20q-13 0 -25.5 3.5t-23 11t-17 19.5t-6.5 29v318h33v-301q0 -45 42 -45h72q38 0 38 42v304h33v-321q0 -16 -7 -27t-17.5 -18.5t-23 -11t-23.5 -3.5h-20v-371h-35v371z" />
    <glyph glyph-name="z" unicode="z" horiz-adv-x="457" 
d="M301 717l-184 -682h184v-35h-219v35l182 682h-184v35h221v-35z" />
    <glyph glyph-name="braceleft" unicode="{" horiz-adv-x="339" 
d="M80 382v-81q13 -2 21 -21q9 -18 11 -53q2 -17 3 -46.5t1 -74.5t0.5 -76t1.5 -50q6 -75 29 -101q7 -7 25 -7h10v59h-5q-16 0 -22 22t-8 55q-1 3 -1 14v23v76q0 104 -9 151q-5 23 -11 40.5t-16 28.5q8 11 13.5 23t10 27.5t7 35t4.5 46.5q1 4 1 9v13v35v104q0 32 1 52.5
t4 29.5q4 9 10.5 23.5t15.5 14.5h6v57h-11q-14 0 -22 -5q-14 -12 -22 -39.5t-11 -88.5q-1 -5 -1 -17v-23v-68q0 -42 -1 -70t-3 -45q-2 -34 -10 -53t-22 -20z" />
    <glyph glyph-name="bar" unicode="|" horiz-adv-x="268" 
d="M80 -104h32v915h-32v-915z" />
    <glyph glyph-name="braceright" unicode="}" horiz-adv-x="339" 
d="M183 382v-81q-14 -2 -21 -21q-9 -18 -11 -53q-2 -17 -3 -46.5t-1 -74.5t-0.5 -76t-1.5 -50q-6 -75 -29 -101q-7 -7 -25 -7h-10v59h5q16 0 22 22t8 55q1 3 1 14v23v76q0 104 9 151q5 23 11 40.5t16 28.5q-8 11 -13.5 23t-10 27.5t-7 35t-4.5 46.5q-1 4 -1 9v13v35v104
q0 32 -1 52.5t-4 29.5q-4 9 -10.5 23.5t-15.5 14.5h-6v57h11q14 0 22 -5q14 -12 22 -39.5t11 -88.5q1 -5 1 -17v-23v-68q0 -42 1 -70t3 -45q2 -34 10 -53t22 -20z" />
    <glyph glyph-name="FL007Eh" unicode="~" horiz-adv-x="378" 
d="M189 424l-19 -41l-19 41h-36l-35 -76h33l19 41l19 -41h36l35 76h-33z" />
    <glyph glyph-name="FL007Fh" horiz-adv-x="178" 
 />
    <glyph glyph-name="quotesinglbase" unicode="&#x201a;" horiz-adv-x="279" 
d="M80 0h26q-1 -35 -5.5 -54.5t-13.5 -29.5l8 -32q15 16 21.5 43.5t6.5 72.5v60h-43v-60z" />
    <glyph glyph-name="FL00B6h" unicode="&#x192;" 
d="M113 100q0 -30 12 -47.5t29 -17.5h68q28 0 36.5 16.5t8.5 49.5v137h33v-166q0 -26 -18.5 -48t-47.5 -24h-89q-35 2 -50 25.5t-15 54.5v592q0 29 14 53.5t49 26.5h95q30 -2 46 -23.5t16 -48.5v-248q0 -9 -5.5 -18.5t-13.5 -17.5t-18.5 -14t-20.5 -9h-129v-273zM113 651
v-243h110q36 5 44 43v201q0 33 -9.5 49t-37.5 16h-48q-35 0 -47 -17t-12 -49z" />
    <glyph glyph-name="quotedblbase" unicode="&#x201e;" horiz-adv-x="402" 
d="M203 0h26q-1 -35 -5.5 -54.5t-13.5 -29.5l8 -32q15 16 21.5 43.5t6.5 72.5v60h-43v-60zM80 0h26q-1 -35 -5.5 -54.5t-13.5 -29.5l8 -32q15 16 21.5 43.5t6.5 72.5v60h-43v-60z" />
    <glyph glyph-name="ellipsis" unicode="&#x2026;" horiz-adv-x="525" 
d="M326 0h43v60h-43v-60zM203 0h43v60h-43v-60zM80 0h43v60h-43v-60z" />
    <glyph glyph-name="dagger" unicode="&#x2020;" horiz-adv-x="526" 
d="M208 0h33v436h129v35h-129v281h-33v-281h-128v-35h128v-436z" />
    <glyph glyph-name="daggerdbl" unicode="&#x2021;" horiz-adv-x="526" 
d="M80 340v-35h128v-305h33v305h129v35h-129v96h129v35h-129v281h-33v-281h-128v-35h128v-96h-128z" />
    <glyph glyph-name="circumflex" unicode="&#x2c6;" horiz-adv-x="342" 
d="M113 676l20 43l20 -43h33l-35 76h-36l-35 -76h33z" />
    <glyph glyph-name="perthousand" unicode="&#x2030;" horiz-adv-x="701" 
d="M170 0l180 752h-39l-180 -752h39zM190 716q0 13 -9.5 23.5t-23.5 12.5h-45q-17 -2 -24.5 -13.5t-7.5 -26.5v-296q0 -15 7 -27.5t24 -12.5h49q15 0 22.5 11.5t7.5 25.5v303zM105 426v275q0 27 16 27h27q11 0 14 -7t3 -21v-274q0 -14 -3 -20.5t-14 -6.5h-20q-14 0 -18.5 7
t-4.5 20zM402 340q0 13 -9.5 23.5t-23.5 12.5h-45q-17 -2 -24.5 -13.5t-7.5 -26.5v-296q0 -15 7 -27.5t24 -12.5h49q15 0 22.5 11.5t7.5 25.5v303zM317 50v275q0 27 16 27h27q11 0 14 -7t3 -21v-274q0 -14 -3 -20.5t-14 -6.5h-20q-14 0 -18.5 7t-4.5 20zM545 340
q0 13 -9.5 23.5t-23.5 12.5h-45q-17 -2 -24.5 -13.5t-7.5 -26.5v-296q0 -15 7 -27.5t24 -12.5h49q15 0 22.5 11.5t7.5 25.5v303zM460 50v275q0 27 16 27h27q11 0 14 -7t3 -21v-274q0 -14 -3 -20.5t-14 -6.5h-20q-14 0 -18.5 7t-4.5 20z" />
    <glyph glyph-name="Scaron" unicode="&#x160;" horiz-adv-x="457" 
d="M192 829l20 43h33l-35 -76h-36l-35 76h33zM114 652v-205q0 -20 4.5 -32t32.5 -12h96q6 0 15.5 -4t17.5 -11t14 -16.5t6 -21.5v-270q0 -31 -15 -54.5t-50 -25.5h-89q-29 2 -47.5 24t-18.5 48v166h33v-138q0 -33 8.5 -49t36.5 -16h68q23 0 32 17.5t9 47.5v226q0 21 -9 31.5
t-38 10.5h-82q-18 0 -37.5 13t-19.5 42v249q0 31 15 54.5t50 25.5h89q29 -2 47.5 -24t18.5 -48v-166h-33v137q0 33 -8.5 49.5t-36.5 16.5h-68q-25 0 -33 -17.5t-8 -47.5z" />
    <glyph glyph-name="guilsinglleft" unicode="&#x2039;" horiz-adv-x="312" 
d="M156 367l-43 20l43 20v33l-76 -35v-36l76 -35v33z" />
    <glyph glyph-name="OE" unicode="&#x152;" horiz-adv-x="669" 
d="M292 752v-39q-8 16 -23 26.5t-35 12.5h-89q-35 -2 -50 -25.5t-15 -54.5v-592q0 -29 14 -53.5t49 -26.5h97q19 2 31.5 11.5t20.5 24.5v-36h221v35h-188v335h167v35h-167v312h188v35h-221zM113 101v551q0 30 12 47.5t29 17.5h68q28 0 36 -16.5t8 -49.5v-137h26v-276h-26
v-137q0 -33 -8 -49.5t-36 -16.5h-50q-35 0 -47 17t-12 49z" />
    <glyph glyph-name="quoteleft" unicode="&#x2018;" horiz-adv-x="269" 
d="M88 751h17l8 -105v-110h-33v110z" />
    <glyph glyph-name="quoteright" unicode="&#x2019;" horiz-adv-x="269" 
d="M88 537h17l8 105v110h-33v-110z" />
    <glyph glyph-name="quotedblleft" unicode="&#x201c;" horiz-adv-x="372" 
d="M88 751h17l8 -105v-110h-33v110zM191 751h17l8 -105v-110h-33v110z" />
    <glyph glyph-name="quotedblright" unicode="&#x201d;" horiz-adv-x="372" 
d="M88 537h17l8 105v110h-33v-110zM191 537h17l8 105v110h-33v-110z" />
    <glyph glyph-name="bullet" unicode="&#x2022;" horiz-adv-x="390" 
d="M80 101v551q0 30 12 47.5t29 17.5h68q28 0 36.5 -16.5t8.5 -49.5v-550q0 -33 -8.5 -49.5t-36.5 -16.5h-54q-35 0 -45 17t-10 49z" />
    <glyph glyph-name="endash" unicode="&#x2013;" horiz-adv-x="449" 
d="M80 370h213v35h-213v-35z" />
    <glyph glyph-name="emdash" unicode="&#x2014;" horiz-adv-x="526" 
d="M80 405v-35h290v35h-290z" />
    <glyph glyph-name="FL02DCh" unicode="&#x2dc;" horiz-adv-x="378" 
d="M189 752l-19 -41l-19 41h-36l-35 -76h33l19 41l19 -41h36l35 76h-33z" />
    <glyph glyph-name="FL2123h" unicode="&#x2122;" horiz-adv-x="544" 
d="M80 802v-14h38v-287h13v287h38v14h-89zM300 501l75 262v-262h13v301h-14l-79 -273l-81 273h-14v-301h14v262l75 -262h11z" />
    <glyph glyph-name="scaron" unicode="&#x161;" horiz-adv-x="457" 
d="M192 829l20 43h33l-35 -76h-36l-35 76h33zM114 652v-205q0 -20 4.5 -32t32.5 -12h96q6 0 15.5 -4t17.5 -11t14 -16.5t6 -21.5v-270q0 -31 -15 -54.5t-50 -25.5h-89q-29 2 -47.5 24t-18.5 48v166h33v-138q0 -33 8.5 -49t36.5 -16h68q23 0 32 17.5t9 47.5v226q0 21 -9 31.5
t-38 10.5h-82q-18 0 -37.5 13t-19.5 42v249q0 31 15 54.5t50 25.5h89q29 -2 47.5 -24t18.5 -48v-166h-33v137q0 33 -8.5 49.5t-36.5 16.5h-68q-25 0 -33 -17.5t-8 -47.5z" />
    <glyph glyph-name="guilsinglright" unicode="&#x203a;" horiz-adv-x="312" 
d="M80 367l43 20l-43 20v33l76 -35v-36l-76 -35v33z" />
    <glyph glyph-name="oe" unicode="&#x153;" horiz-adv-x="669" 
d="M292 752v-39q-8 16 -23 26.5t-35 12.5h-89q-35 -2 -50 -25.5t-15 -54.5v-592q0 -29 14 -53.5t49 -26.5h97q19 2 31.5 11.5t20.5 24.5v-36h221v35h-188v335h167v35h-167v312h188v35h-221zM113 101v551q0 30 12 47.5t29 17.5h68q28 0 36 -16.5t8 -49.5v-137h26v-276h-26
v-137q0 -33 -8 -49.5t-36 -16.5h-50q-35 0 -47 17t-12 49z" />
    <glyph glyph-name="Ydieresis" unicode="&#x178;" horiz-adv-x="454" 
d="M172 0h35v371h20q11 0 23.5 3.5t23 11t17.5 18.5t7 27v321h-33v-304q0 -42 -38 -42h-72q-42 0 -42 45v301h-33v-318q0 -17 6.5 -29t17 -19.5t23 -11t25.5 -3.5h20v-371zM126 796h43v60h-43v-60zM254 856h-43v-60h43v60z" />
    <glyph glyph-name="exclamdown" unicode="&#xa1;" horiz-adv-x="279" 
d="M118 574h-33v-574h33v574zM123 752h-43v-60h43v60z" />
    <glyph glyph-name="cent" unicode="&#xa2;" 
d="M176 811v-59h-31q-31 0 -48 -24.5t-17 -55.5v-592q0 -29 14 -53.5t49 -26.5h33v-104h32v104h32q30 2 45 24.5t15 49.5v164h-33v-137q0 -33 -8.5 -49.5t-36.5 -16.5h-14v682h14q28 0 36.5 -16t8.5 -49v-138h33v166q0 26 -18.5 48t-47.5 24h-26v59h-32zM113 101v551
q0 30 12 47.5t29 17.5h22v-682h-6q-35 0 -46 17t-11 49z" />
    <glyph glyph-name="FL00A3h" unicode="&#xa3;" horiz-adv-x="645" 
d="M80 406h131v266q0 31 15 54.5t50 25.5h89v-35h-80q-17 0 -29 -17.5t-12 -47.5v-246h150v-35h-150v-270q0 -31 9.5 -48.5t40.5 -17.5h195v-35h-409v35h140q-5 10 -7 21.5t-2 23.5v291h-131v35z" />
    <glyph glyph-name="FL00A4h" unicode="&#xa4;" horiz-adv-x="455" 
d="M80 0h33l41 200q2 -1 10 -1h49q7 0 11 2l40 -201h35l-56 288v198l56 266h-35l-39 -183q-5 4 -15 6h-45q-5 -1 -7.5 -2t-4.5 -2l-39 181h-34l53 -255v-221zM158 249v275q0 27 16 27h27q11 0 14 -7t3 -21v-274q0 -14 -3 -20.5t-14 -6.5h-20q-14 0 -18.5 7t-4.5 20z" />
    <glyph glyph-name="FL00A5h" unicode="&#xa5;" horiz-adv-x="526" 
d="M80 273h128v98h-20q-13 0 -25.5 3.5t-23 11t-17 19.5t-6.5 29v318h33v-301q0 -45 42 -45h72q38 0 38 42v304h33v-321q0 -16 -7 -27t-17.5 -18.5t-23 -11t-23.5 -3.5h-20v-98h127v-35h-127v-96h127v-35h-127v-107h-35v107h-128v35h128v96h-128v35z" />
    <glyph glyph-name="brokenbar" unicode="&#xa6;" horiz-adv-x="268" 
d="M80 -104h32v915h-32v-915z" />
    <glyph glyph-name="FL00A7h" unicode="&#xa7;" horiz-adv-x="455" 
d="M80 0h33l41 200q2 -1 10 -1h49q9 0 15 3.5t9.5 13t4.5 27t1 45.5v198l56 266h-35l-39 -183q-5 4 -15 6h-45q-18 0 -25 -16.5t-7 -61.5v-221zM158 249v275q0 27 16 27h27q11 0 14 -7t3 -21v-274q0 -14 -3 -20.5t-14 -6.5h-20q-14 0 -18.5 7t-4.5 20z" />
    <glyph glyph-name="dieresis" unicode="&#xa8;" horiz-adv-x="364" 
d="M80 692h43v60h-43v-60zM208 752h-43v-60h43v60z" />
    <glyph glyph-name="copyright" unicode="&#xa9;" horiz-adv-x="436" 
d="M180 802q26 0 48 -13q27 -14 38 -37q14 -23 14 -50q0 -23 -14 -49q-6 -13 -15 -21t-22 -16q-23 -9 -35.5 -11t-13.5 -2q-25 0 -50 13q-11 8 -20 16t-17 21q-13 22 -13 49q0 14 3.5 25.5t9.5 24.5q7 11 16 20.5t22 16.5q25 13 49 13zM180 786q-21 0 -41 -10.5t-31 -31.5
q-11 -20 -11 -42q0 -20 11 -40q12 -18 30 -31l6 -2q31 -9 36 -9q21 0 41 11q18 9 31 31q11 20 11 40q0 22 -11 42t-32 31q-20 11 -40 11zM212 687l16 -5q-10 -37 -48 -37q-24 0 -38 15t-14 42q0 28 14 42.5t39 14.5q34 0 45 -32l-16 -3q-9 20 -29 20q-35 0 -35 -42
q0 -40 33 -40q27 0 33 25z" />
    <glyph glyph-name="FL00AAh" unicode="&#xaa;" horiz-adv-x="377" 
d="M126 578l23 157l23 -157h-46zM195 426h26l-58 376h-28l-55 -376h25l16 125h54z" />
    <glyph glyph-name="guillemotleft" unicode="&#xab;" horiz-adv-x="443" 
d="M287 367l-43 20l43 20v33l-76 -35v-36l76 -35v33zM156 367l-43 20l43 20v33l-76 -35v-36l76 -35v33z" />
    <glyph glyph-name="logicalnot" unicode="&#xac;" horiz-adv-x="486" 
d="M80 405v-35h215v-108h35v143h-250z" />
    <glyph glyph-name="FL00ADh" unicode="&#xad;" horiz-adv-x="373" 
d="M80 370h137v35h-137v-35z" />
    <glyph glyph-name="registered" unicode="&#xae;" horiz-adv-x="436" 
d="M180 801q26 0 48 -13q27 -14 38 -37q14 -23 14 -50q0 -23 -14 -49q-11 -23 -37 -37q-20 -10 -34 -11.5t-15 -1.5q-28 0 -50 13q-21 13 -37 37q-13 22 -13 49q0 14 3.5 25.5t9.5 24.5q7 11 16 20.5t22 16.5q25 13 49 13zM180 785q-21 0 -41 -10.5t-31 -31.5
q-11 -20 -11 -42l3 -10.5t8 -30.5q9 -17 30 -30l6 -2q31 -9 36 -9q21 0 41 11q18 12 31 30q5 20 8 30.5l3 10.5q0 22 -11 42t-32 31q-20 11 -40 11zM137 647v107h36q21 0 28 -4q7 -3 12 -9q6 -8 6 -17q0 -11 -8.5 -19.5t-22.5 -9.5q8 -4 12.5 -10t12.5 -17l14 -21h-22l-9 16
q-12 22 -19 25q-4 4 -13 4h-10v-45h-17zM154 706h20q16 0 21.5 4.5t5.5 12.5q0 11 -10 15q-1 1 -18 1h-19v-33z" />
    <glyph glyph-name="FL00AFh" unicode="&#xaf;" horiz-adv-x="457" 
d="M80 718h221v35h-221v-35z" />
    <glyph glyph-name="degree" unicode="&#xb0;" horiz-adv-x="279" 
d="M80 692h43v60h-43v-60z" />
    <glyph glyph-name="plusminus" unicode="&#xb1;" horiz-adv-x="486" 
d="M188 512v-107h-108v-35h108v-108h35v108h107v35h-107v107h-35zM80 35v-35h250v35h-250z" />
    <glyph glyph-name="FL00B2h" unicode="&#xb2;" horiz-adv-x="346" 
d="M167 749q0 13 -3 20.5t-12 7.5h-32q-11 0 -13.5 -7.5t-2.5 -21.5v-70h-24v85q0 14 9.5 25.5t25.5 13.5h41q19 -2 26.5 -14.5t7.5 -28.5v-122q0 -17 -10 -24t-20 -7h-39q-11 0 -14 -4t-3 -12v-111q0 -14 3 -21.5t12 -7.5h71v-24h-75q-19 1 -27 13.5t-8 29.5v132
q0 13 11 21.5t18 8.5h45q10 0 11.5 4.5t1.5 12.5v101z" />
    <glyph glyph-name="FL00B3h" unicode="&#xb3;" horiz-adv-x="346" 
d="M145 450h-25q-11 0 -14 7.5t-3 21.5v71h-23v-84q0 -14 8 -27t24 -13h45q19 1 26 14t7 29v290q0 16 -7.5 28.5t-26.5 14.5h-41q-16 -2 -25.5 -13.5t-9.5 -25.5v-85h23v70q0 14 3 21.5t14 7.5h32q6 0 10.5 -7.5t4.5 -20.5v-116h-70v-26h70v-128q0 -14 -4 -21.5t-18 -7.5z
" />
    <glyph glyph-name="acute" unicode="&#xb4;" horiz-adv-x="293" 
d="M80 676l21 76h36l-35 -76h-22z" />
    <glyph glyph-name="FL00B5h" unicode="&#xb5;" horiz-adv-x="453" 
d="M296 0h-33v333h-86q-17 0 -34 13t-31.5 39t-23.5 66.5t-9 94.5q0 52 11.5 91t27 64.5t32 38t26.5 12.5h120v-752zM263 368v349h-64q-24 0 -40.5 -16t-26 -41t-14.5 -55.5t-7 -60.5q3 -27 6 -58t10.5 -57.5t22 -43.5t41.5 -17h72z" />
    <glyph glyph-name="FL2122h" unicode="&#xb6;" horiz-adv-x="878" 
d="M848 255l-1 -2l-11 -25h-48l31 -47q2 -2 2 -7v-5q0 -19 -16 -26l-54 13l-6 -71q-6 -14 -21 -14q-13 0 -23.5 5.5t-26.5 14.5l-6 3l-52 -64l-28 -7l-33 36l-103 -59l-17 6v35l-135 -23l-17 12l6 29l-140 13v22l17 21l-88 18q-16 0 -16 23l34 30l-61 31l-5 29l59 12l-31 43
l4 35l64 -6q0 85 25 85h3l60 -24q21 32 35.5 48.5t29.5 22.5l49 -34l98 54l21 -20l-4 -17l4 -7l108 24l39 -4l-6 -37h129l11 -12q0 -33 -21 -34l110 -33v-7q0 -28 -40 -34q71 -30 71 -46zM831 246l-5 12l-88 49l55 17h7l-7 12l-125 31l44 36h-146l11 42l-142 -24l-4 37
l-11 4l-98 -53l-43 36l-58 -70q-7 -4 -14 -4q-18 0 -53 26l-10 -85l-70 7l4 -25l38 -54l-69 -5l92 -54l-61 -30l131 -33l-43 -33l150 -7l-16 -41l135 28l17 -24l-5 -23l108 60l49 -37l54 74l70 -26l5 85l72 -13q1 5 1.5 6l0.5 1q0 15 -45 72zM725 289l-10 -78l-16 2l3 82z
M717 178l-15 -17l-12 13l12 11zM675 184q-23 0 -57 52v-51l-16 -2v106l54 -69l3 75l16 -6v-105zM586 185l-13 3q-9 25 -23 25q-11 0 -23 -25h-21q8 56 40 106q1 3 13 3q17 0 27 -34v-78zM497 295l-6 -105l-23 -7l10 106zM450 180q-22 0 -58 51v-50l-17 -3v107l56 -68l4 72
l15 -4v-105zM364 255q-9 -75 -36 -75q-5 -1 -9 -1.5t-7 -0.5q-25 0 -33 17q0 70 36 94h10q32 0 39 -34zM272 293l-2 -27q-2 2 -3.5 2.5l-1.5 0.5q0 1 -5 1q-13 0 -26 -15q-14 -20 -14 -44q0 -21 20 -21q15 0 18 3l2 -18q-8 -2 -11.5 -3.5t-8.5 -1.5q-28 0 -37 47q-1 1 -1 8
v6q0 50 70 62zM192 289l-6 -103l-20 -8l9 108zM568 236l-12 36l-18 -36h30zM346 239q0 10 -2 12q-8 14 -18 14q-16 0 -28 -34v-7q0 -26 15 -26q9 0 25 10q5 8 6.5 15t1.5 16z" />
    <glyph glyph-name="FL00B7h" unicode="&#xb7;" horiz-adv-x="279" 
d="M80 359h43v60h-43v-60z" />
    <glyph glyph-name="FL00B9h" unicode="&#xb8;" horiz-adv-x="288" 
d="M97 0h35v-107h-70v35h35v72z" />
    <glyph glyph-name="FL00BBh" unicode="&#xb9;" horiz-adv-x="298" 
d="M80 802v-24h40v-351h22v375h-62z" />
    <glyph glyph-name="FL00BAh" unicode="&#xba;" horiz-adv-x="346" 
d="M190 766q0 13 -9.5 23.5t-23.5 12.5h-45q-17 -2 -24.5 -13.5t-7.5 -26.5v-296q0 -15 7 -27.5t24 -12.5h49q15 0 22.5 11.5t7.5 25.5v303zM105 476v275q0 27 16 27h27q11 0 14 -7t3 -21v-274q0 -14 -3 -20.5t-14 -6.5h-20q-14 0 -18.5 7t-4.5 20z" />
    <glyph glyph-name="guillemotright" unicode="&#xbb;" horiz-adv-x="443" 
d="M80 367l43 20l-43 20v33l76 -35v-36l-76 -35v33zM211 367l43 20l-43 20v33l76 -35v-36l-76 -35v33z" />
    <glyph glyph-name="FL00BCh" unicode="&#xbc;" horiz-adv-x="539" 
d="M150 0l180 752h-39l-180 -752h39zM80 751v-24h40v-351h22v375h-62zM361 0h22v376h-22v-169h-64v169h-23v-195h87v-181z" />
    <glyph glyph-name="FL00BDh" unicode="&#xbd;" horiz-adv-x="537" 
d="M358 323v-101q0 -8 -1.5 -12.5t-11.5 -4.5h-45q-7 0 -18 -8.5t-11 -21.5v-132q0 -17 8 -30t27 -13h75v24h-71q-9 0 -12 7.5t-3 21.5v111q0 8 3 12t14 4h39q10 0 20 7t10 24v122q0 16 -7.5 28.5t-26.5 14.5h-41q-16 -2 -25.5 -13.5t-9.5 -25.5v-85h24v70q0 14 2.5 21.5
t13.5 7.5h32q9 0 12 -7.5t3 -20.5zM150 0l180 752h-39l-180 -752h39zM80 751v-24h40v-351h22v375h-62z" />
    <glyph glyph-name="FL00BEh" unicode="&#xbe;" horiz-adv-x="558" 
d="M169 0l180 752h-39l-180 -752h39zM380 0h22v376h-22v-169h-64v169h-23v-195h87v-181zM145 399h-25q-11 0 -14 7.5t-3 21.5v71h-23v-84q0 -14 8 -27t24 -13h45q19 1 26 14t7 29v290q0 16 -7.5 28.5t-26.5 14.5h-41q-16 -2 -25.5 -13.5t-9.5 -25.5v-85h23v70q0 14 3 21.5
t14 7.5h32q6 0 10.5 -7.5t4.5 -20.5v-116h-70v-26h70v-128q0 -14 -4 -21.5t-18 -7.5z" />
    <glyph glyph-name="questiondown" unicode="&#xbf;" 
d="M113 305q0 20 4.5 32t32.5 12h23q6 0 15.5 4t17.5 11t14 16.5t6 21.5v142h-33v-118q0 -21 -9 -31.5t-38 -10.5h-9q-18 0 -37.5 -13t-19.5 -42v-249q0 -31 15 -54.5t50 -25.5h89q29 2 47.5 24t18.5 48v166h-34v-137q0 -33 -8 -49.5t-36 -16.5h-68q-25 0 -33 17.5t-8 47.5
v205zM233 752h-43v-60h43v60z" />
    <glyph glyph-name="FL00C0h" unicode="&#xc0;" horiz-adv-x="514" 
d="M238 796l-21 76h-36l35 -76h22zM322 0h36l-120 752h-43l-115 -752h36l37 256h128zM217 681l58 -386h-117z" />
    <glyph glyph-name="FL00C1h" unicode="&#xc1;" horiz-adv-x="514" 
d="M217 796l35 76h-36l-21 -76h22zM322 0h36l-120 752h-43l-115 -752h36l37 256h128zM217 681l58 -386h-117z" />
    <glyph glyph-name="FL00C2h" unicode="&#xc2;" horiz-adv-x="514" 
d="M197 796l20 43l20 -43h33l-35 76h-36l-35 -76h33zM322 0h36l-120 752h-43l-115 -752h36l37 256h128zM217 681l58 -386h-117z" />
    <glyph glyph-name="FL00C3h" unicode="&#xc3;" horiz-adv-x="514" 
d="M254 872l-19 -41l-19 41h-36l-35 -76h33l19 41l19 -41h36l35 76h-33zM322 0h36l-120 752h-43l-115 -752h36l37 256h128zM217 681l58 -386h-117z" />
    <glyph glyph-name="FL00C4h" unicode="&#xc4;" horiz-adv-x="514" 
d="M322 0h36l-120 752h-43l-115 -752h36l37 256h128zM217 681l58 -386h-117zM152 796h43v60h-43v-60zM280 856h-43v-60h43v60z" />
    <glyph glyph-name="FL00C5h" unicode="&#xc5;" horiz-adv-x="514" 
d="M322 0h36l-120 752h-43l-115 -752h36l37 256h128zM217 681l58 -386h-117zM195 796h43v60h-43v-60z" />
    <glyph glyph-name="FL00C6h" unicode="&#xc6;" horiz-adv-x="700" 
d="M322 0l-41 256h-128l-37 -256h-36l115 752h43l85 -533v533h221v-35h-188v-312h167v-35h-167v-335h188v-35h-222zM217 681l-59 -386h117z" />
    <glyph glyph-name="FL00C7h" unicode="&#xc7;" 
d="M113 101q0 -32 11 -49t46 -17h52q28 0 36.5 16.5t8.5 49.5v137h33v-164q0 -27 -15 -49.5t-45 -24.5h-27v-107h-70v35h35v72h-35q-35 2 -49 26.5t-14 53.5v592q0 31 17 55.5t48 24.5h89q29 -2 47.5 -24t18.5 -48v-166h-33v138q0 33 -8.5 49t-36.5 16h-68q-17 0 -29 -17.5
t-12 -47.5v-551z" />
    <glyph glyph-name="Egrave" unicode="&#xc8;" horiz-adv-x="457" 
d="M80 0h221v35h-188v335h167v35h-167v312h188v35h-221v-752zM211 796l-21 76h-36l35 -76h22z" />
    <glyph glyph-name="Eacute" unicode="&#xc9;" horiz-adv-x="457" 
d="M80 0h221v35h-188v335h167v35h-167v312h188v35h-221v-752zM191 796l35 76h-36l-21 -76h22z" />
    <glyph glyph-name="Ecircumflex" unicode="&#xca;" horiz-adv-x="457" 
d="M80 0h221v35h-188v335h167v35h-167v312h188v35h-221v-752zM172 796l20 43l20 -43h33l-35 76h-36l-35 -76h33z" />
    <glyph glyph-name="Edieresis" unicode="&#xcb;" horiz-adv-x="457" 
d="M80 0h221v35h-188v335h167v35h-167v312h188v35h-221v-752zM126 796h43v60h-43v-60zM254 856h-43v-60h43v60z" />
    <glyph glyph-name="FL00CCh" unicode="&#xcc;" horiz-adv-x="272" 
d="M80 0h36v752h-36v-752zM123 797l-21 76h-36l35 -76h22z" />
    <glyph glyph-name="FL00CDh" unicode="&#xcd;" horiz-adv-x="272" 
d="M80 0h36v752h-36v-752zM94 797l35 76h-36l-21 -76h22z" />
    <glyph glyph-name="FL00CEh" unicode="&#xce;" horiz-adv-x="272" 
d="M80 0h36v752h-36v-752zM78 796l20 43l20 -43h33l-35 76h-36l-35 -76h33z" />
    <glyph glyph-name="FL00CFh" unicode="&#xcf;" horiz-adv-x="272" 
d="M80 0h36v752h-36v-752zM35 796h43v60h-43v-60zM163 856h-43v-60h43v60z" />
    <glyph glyph-name="Eth" unicode="&#xd0;" horiz-adv-x="534" 
d="M80 370h76v-370h85q21 0 41 15.5t34 40.5q9 16 20 42.5t20 64t15.5 86.5t6.5 110v19q0 100 -10.5 178t-31.5 127q-17 26 -40 47.5t-48 21.5h-92v-347h-76v-35zM189 35v335h71v35h-71v312h42q12 0 22.5 -5.5t20.5 -14.5q34 -29 48 -102q4 -11 7.5 -32t6.5 -47.5t5 -55.5
t2 -57q0 -55 -4 -102t-6 -73q-2 -21 -8.5 -53t-18.5 -62t-30.5 -52.5t-44.5 -25.5h-42z" />
    <glyph glyph-name="Ntilde" unicode="&#xd1;" 
d="M113 0v622l151 -622h36v752h-33v-625l-150 625h-37v-752h33zM230 872l-19 -41l-19 41h-36l-35 -76h33l19 41l19 -41h36l35 76h-33z" />
    <glyph glyph-name="Ograve" unicode="&#xd2;" 
d="M300 680q0 26 -18.5 48t-47.5 24h-89q-35 0 -50 -24.5t-15 -55.5v-592q0 -29 14 -53.5t49 -26.5h97q30 2 45 24.5t15 49.5v606zM113 101v551q0 30 12 47.5t29 17.5h68q28 0 36.5 -16.5t8.5 -49.5v-550q0 -33 -8.5 -49.5t-36.5 -16.5h-54q-35 0 -45 17t-10 49zM211 796
l-21 76h-36l35 -76h22z" />
    <glyph glyph-name="Oacute" unicode="&#xd3;" 
d="M300 680q0 26 -18.5 48t-47.5 24h-89q-35 0 -50 -24.5t-15 -55.5v-592q0 -29 14 -53.5t49 -26.5h97q30 2 45 24.5t15 49.5v606zM113 101v551q0 30 12 47.5t29 17.5h68q28 0 36.5 -16.5t8.5 -49.5v-550q0 -33 -8.5 -49.5t-36.5 -16.5h-54q-35 0 -45 17t-10 49zM191 796
l35 76h-36l-21 -76h22z" />
    <glyph glyph-name="Ocircumflex" unicode="&#xd4;" 
d="M300 680q0 26 -18.5 48t-47.5 24h-89q-35 0 -50 -24.5t-15 -55.5v-592q0 -29 14 -53.5t49 -26.5h97q30 2 45 24.5t15 49.5v606zM113 101v551q0 30 12 47.5t29 17.5h68q28 0 36.5 -16.5t8.5 -49.5v-550q0 -33 -8.5 -49.5t-36.5 -16.5h-54q-35 0 -45 17t-10 49zM172 796
l20 43l20 -43h33l-35 76h-36l-35 -76h33z" />
    <glyph glyph-name="Otilde" unicode="&#xd5;" 
d="M300 680q0 26 -18.5 48t-47.5 24h-89q-35 0 -50 -24.5t-15 -55.5v-592q0 -29 14 -53.5t49 -26.5h97q30 2 45 24.5t15 49.5v606zM113 101v551q0 30 12 47.5t29 17.5h68q28 0 36.5 -16.5t8.5 -49.5v-550q0 -33 -8.5 -49.5t-36.5 -16.5h-54q-35 0 -45 17t-10 49zM230 872
l-19 -41l-19 41h-36l-35 -76h33l19 41l19 -41h36l35 76h-33z" />
    <glyph glyph-name="Odieresis" unicode="&#xd6;" 
d="M126 796h43v60h-43v-60zM254 856h-43v-60h43v60zM300 680q0 26 -18.5 48t-47.5 24h-89q-35 0 -50 -24.5t-15 -55.5v-592q0 -29 14 -53.5t49 -26.5h97q30 2 45 24.5t15 49.5v606zM113 101v551q0 30 12 47.5t29 17.5h68q28 0 36.5 -16.5t8.5 -49.5v-550q0 -33 -8.5 -49.5
t-36.5 -16.5h-54q-35 0 -45 17t-10 49z" />
    <glyph glyph-name="multiply" unicode="&#xd7;" horiz-adv-x="437" 
d="M256 487l-75 -75l-77 76l-24 -25l76 -76l-76 -76l24 -25l77 76l75 -75l25 24l-76 76l76 76z" />
    <glyph glyph-name="Oslash" unicode="&#xd8;" 
d="M300 680q0 26 -18.5 48t-47.5 24h-89q-35 0 -50 -24.5t-15 -55.5v-592q0 -29 14 -53.5t49 -26.5h97q30 2 45 24.5t15 49.5v606zM222 35h-54q-23 0 -37 8l136 595v-537q0 -33 -8.5 -49.5t-36.5 -16.5zM113 652q0 30 12 47.5t29 17.5h68q10 0 23 -5l-132 -580v520z" />
    <glyph glyph-name="Ugrave" unicode="&#xd9;" 
d="M267 101q0 -32 -12 -49t-47 -17h-50q-28 0 -36.5 16.5t-8.5 49.5v651h-33v-678q0 -27 15 -49.5t45 -24.5h97q35 2 49 26.5t14 53.5v672h-33v-651zM211 796l-21 76h-36l35 -76h22z" />
    <glyph glyph-name="Uacute" unicode="&#xda;" 
d="M191 796l35 76h-36l-21 -76h22zM267 101q0 -32 -12 -49t-47 -17h-50q-28 0 -36.5 16.5t-8.5 49.5v651h-33v-678q0 -27 15 -49.5t45 -24.5h97q35 2 49 26.5t14 53.5v672h-33v-651z" />
    <glyph glyph-name="Ucircumflex" unicode="&#xdb;" 
d="M267 101q0 -32 -12 -49t-47 -17h-50q-28 0 -36.5 16.5t-8.5 49.5v651h-33v-678q0 -27 15 -49.5t45 -24.5h97q35 2 49 26.5t14 53.5v672h-33v-651zM172 796l20 43l20 -43h33l-35 76h-36l-35 -76h33z" />
    <glyph glyph-name="Udieresis" unicode="&#xdc;" 
d="M113 101v651h-33v-672q0 -29 14 -53.5t49 -26.5h97q30 2 45 24.5t15 49.5v678h-33v-651q0 -33 -8.5 -49.5t-36.5 -16.5h-50q-35 0 -47 17t-12 49zM126 796h43v60h-43v-60zM254 856h-43v-60h43v60z" />
    <glyph glyph-name="Yacute" unicode="&#xdd;" horiz-adv-x="454" 
d="M172 0h35v371h20q11 0 23.5 3.5t23 11t17.5 18.5t7 27v321h-33v-304q0 -42 -38 -42h-72q-42 0 -42 45v301h-33v-318q0 -17 6.5 -29t17 -19.5t23 -11t25.5 -3.5h20v-371zM191 796l35 76h-36l-21 -76h22z" />
    <glyph glyph-name="FL00DEh" unicode="&#xde;" horiz-adv-x="453" 
d="M80 0v752h33v-162h87q10 0 26 -12.5t32 -38t27.5 -64.5t11.5 -91q0 -54 -9 -94.5t-23.5 -66.5t-32 -39t-33.5 -13h-86v-171h-33zM113 206h72q27 0 41.5 17t22 43.5t10.5 57.5t6 58q-2 30 -7 60.5t-14.5 55.5t-26 41t-40.5 16h-64v-349z" />
    <glyph glyph-name="FL00DFh" unicode="&#xdf;" 
d="M80 -104v784q0 26 18.5 48t47.5 24h89q35 -2 50 -25.5t15 -54.5v-592q0 -29 -14 -53.5t-49 -26.5h-60v35h33q35 0 46 17t11 49v270h-90v35h90v246q0 30 -12 47.5t-29 17.5h-68q-28 0 -37 -16.5t-9 -49.5v-755h-32z" />
    <glyph glyph-name="FL00E0h" unicode="&#xe0;" horiz-adv-x="514" 
d="M217 679l105 -679h36l-120 752h-43l-115 -752h36zM238 796l-21 76h-36l35 -76h22z" />
    <glyph glyph-name="FL00E1h" unicode="&#xe1;" horiz-adv-x="514" 
d="M217 679l105 -679h36l-120 752h-43l-115 -752h36zM217 796l35 76h-36l-21 -76h22z" />
    <glyph glyph-name="FL00E2h" unicode="&#xe2;" horiz-adv-x="514" 
d="M217 679l105 -679h36l-120 752h-43l-115 -752h36zM197 796l20 43l20 -43h33l-35 76h-36l-35 -76h33z" />
    <glyph glyph-name="FL00E3h" unicode="&#xe3;" horiz-adv-x="514" 
d="M217 679l105 -679h36l-120 752h-43l-115 -752h36zM254 872l-19 -41l-19 41h-36l-35 -76h33l19 41l19 -41h36l35 76h-33z" />
    <glyph glyph-name="FL00E4h" unicode="&#xe4;" horiz-adv-x="514" 
d="M217 679l105 -679h36l-120 752h-43l-115 -752h36zM152 796h43v60h-43v-60zM280 856h-43v-60h43v60z" />
    <glyph glyph-name="FL00E5h" unicode="&#xe5;" horiz-adv-x="514" 
d="M217 679l105 -679h36l-120 752h-43l-115 -752h36zM195 796h43v60h-43v-60z" />
    <glyph glyph-name="FL00E6h" unicode="&#xe6;" horiz-adv-x="698" 
d="M217 679l-101 -679h-36l115 752h43l83 -520v520h221v-35h-188v-312h167v-35h-167v-335h188v-35h-221z" />
    <glyph glyph-name="FL00E7h" unicode="&#xe7;" 
d="M113 101q0 -32 11 -49t46 -17h52q28 0 36.5 16.5t8.5 49.5v137h33v-164q0 -27 -15 -49.5t-45 -24.5h-27v-107h-70v35h35v72h-35q-35 2 -49 26.5t-14 53.5v592q0 31 17 55.5t48 24.5h89q29 -2 47.5 -24t18.5 -48v-166h-33v138q0 33 -8.5 49t-36.5 16h-68q-17 0 -29 -17.5
t-12 -47.5v-551z" />
    <glyph glyph-name="egrave" unicode="&#xe8;" horiz-adv-x="457" 
d="M80 0h221v35h-188v335h167v35h-167v312h188v35h-221v-752zM211 796l-21 76h-36l35 -76h22z" />
    <glyph glyph-name="eacute" unicode="&#xe9;" horiz-adv-x="457" 
d="M80 0h221v35h-188v335h167v35h-167v312h188v35h-221v-752zM191 796l35 76h-36l-21 -76h22z" />
    <glyph glyph-name="ecircumflex" unicode="&#xea;" horiz-adv-x="457" 
d="M80 0h221v35h-188v335h167v35h-167v312h188v35h-221v-752zM172 796l20 43l20 -43h33l-35 76h-36l-35 -76h33z" />
    <glyph glyph-name="edieresis" unicode="&#xeb;" horiz-adv-x="457" 
d="M80 0h221v35h-188v335h167v35h-167v312h188v35h-221v-752zM126 796h43v60h-43v-60zM254 856h-43v-60h43v60z" />
    <glyph glyph-name="FL00ECh" unicode="&#xec;" horiz-adv-x="272" 
d="M80 0h36v752h-36v-752zM123 797l-21 76h-36l35 -76h22z" />
    <glyph glyph-name="FL00EDh" unicode="&#xed;" horiz-adv-x="272" 
d="M80 0h36v752h-36v-752zM94 797l35 76h-36l-21 -76h22z" />
    <glyph glyph-name="FL00EEh" unicode="&#xee;" horiz-adv-x="272" 
d="M80 0h36v752h-36v-752zM78 796l20 43l20 -43h33l-35 76h-36l-35 -76h33z" />
    <glyph glyph-name="FL00EFh" unicode="&#xef;" horiz-adv-x="272" 
d="M80 0h36v752h-36v-752zM35 796h43v60h-43v-60zM163 856h-43v-60h43v60z" />
    <glyph glyph-name="eth" unicode="&#xf0;" 
d="M267 652q0 30 -12 47.5t-29 17.5h-69q-28 0 -36 -16.5t-8 -49.5v-137h-33v166q0 26 18.5 48t47.5 24h89q35 -2 50 -25.5t15 -54.5v-592q0 -29 -14 -53.5t-49 -26.5h-95q-30 2 -46 23.5t-16 48.5v244q0 19 16 38t36 25h135v273zM267 101v243h-110q-37 -5 -44 -42v-201
q0 -33 9.5 -49.5t37.5 -16.5h48q35 0 47 17t12 49z" />
    <glyph glyph-name="ntilde" unicode="&#xf1;" 
d="M113 0v622l151 -622h36v752h-33v-625l-150 625h-37v-752h33zM230 872l-19 -41l-19 41h-36l-35 -76h33l19 41l19 -41h36l35 76h-33z" />
    <glyph glyph-name="ograve" unicode="&#xf2;" 
d="M300 680q0 26 -18.5 48t-47.5 24h-89q-35 0 -50 -24.5t-15 -55.5v-592q0 -29 14 -53.5t49 -26.5h97q30 2 45 24.5t15 49.5v606zM113 101v551q0 30 12 47.5t29 17.5h68q28 0 36.5 -16.5t8.5 -49.5v-550q0 -33 -8.5 -49.5t-36.5 -16.5h-54q-35 0 -45 17t-10 49zM211 796
l-21 76h-36l35 -76h22z" />
    <glyph glyph-name="oacute" unicode="&#xf3;" 
d="M300 680q0 26 -18.5 48t-47.5 24h-89q-35 0 -50 -24.5t-15 -55.5v-592q0 -29 14 -53.5t49 -26.5h97q30 2 45 24.5t15 49.5v606zM113 101v551q0 30 12 47.5t29 17.5h68q28 0 36.5 -16.5t8.5 -49.5v-550q0 -33 -8.5 -49.5t-36.5 -16.5h-54q-35 0 -45 17t-10 49zM191 796
l35 76h-36l-21 -76h22z" />
    <glyph glyph-name="ocircumflex" unicode="&#xf4;" 
d="M300 680q0 26 -18.5 48t-47.5 24h-89q-35 0 -50 -24.5t-15 -55.5v-592q0 -29 14 -53.5t49 -26.5h97q30 2 45 24.5t15 49.5v606zM113 101v551q0 30 12 47.5t29 17.5h68q28 0 36.5 -16.5t8.5 -49.5v-550q0 -33 -8.5 -49.5t-36.5 -16.5h-54q-35 0 -45 17t-10 49zM172 796
l20 43l20 -43h33l-35 76h-36l-35 -76h33z" />
    <glyph glyph-name="otilde" unicode="&#xf5;" 
d="M300 680q0 26 -18.5 48t-47.5 24h-89q-35 0 -50 -24.5t-15 -55.5v-592q0 -29 14 -53.5t49 -26.5h97q30 2 45 24.5t15 49.5v606zM113 101v551q0 30 12 47.5t29 17.5h68q28 0 36.5 -16.5t8.5 -49.5v-550q0 -33 -8.5 -49.5t-36.5 -16.5h-54q-35 0 -45 17t-10 49zM230 872
l-19 -41l-19 41h-36l-35 -76h33l19 41l19 -41h36l35 76h-33z" />
    <glyph glyph-name="odieresis" unicode="&#xf6;" 
d="M126 796h43v60h-43v-60zM254 856h-43v-60h43v60zM300 680q0 26 -18.5 48t-47.5 24h-89q-35 0 -50 -24.5t-15 -55.5v-592q0 -29 14 -53.5t49 -26.5h97q30 2 45 24.5t15 49.5v606zM113 101v551q0 30 12 47.5t29 17.5h68q28 0 36.5 -16.5t8.5 -49.5v-550q0 -33 -8.5 -49.5
t-36.5 -16.5h-54q-35 0 -45 17t-10 49z" />
    <glyph glyph-name="FL00F7h" unicode="&#xf7;" horiz-adv-x="526" 
d="M80 405v-35h290v35h-290zM207 441h43v60h-43v-60zM249 329h-43v-60h43v60z" />
    <glyph glyph-name="oslash" unicode="&#xf8;" 
d="M300 680q0 26 -18.5 48t-47.5 24h-89q-35 0 -50 -24.5t-15 -55.5v-592q0 -29 14 -53.5t49 -26.5h97q30 2 45 24.5t15 49.5v606zM222 35h-54q-23 0 -37 8l136 595v-537q0 -33 -8.5 -49.5t-36.5 -16.5zM113 652q0 30 12 47.5t29 17.5h68q10 0 23 -5l-132 -580v520z" />
    <glyph glyph-name="ugrave" unicode="&#xf9;" 
d="M267 101q0 -32 -12 -49t-47 -17h-50q-28 0 -36.5 16.5t-8.5 49.5v651h-33v-678q0 -27 15 -49.5t45 -24.5h97q35 2 49 26.5t14 53.5v672h-33v-651zM211 796l-21 76h-36l35 -76h22z" />
    <glyph glyph-name="uacute" unicode="&#xfa;" 
d="M267 101q0 -32 -12 -49t-47 -17h-50q-28 0 -36.5 16.5t-8.5 49.5v651h-33v-678q0 -27 15 -49.5t45 -24.5h97q35 2 49 26.5t14 53.5v672h-33v-651zM191 796l35 76h-36l-21 -76h22z" />
    <glyph glyph-name="ucircumflex" unicode="&#xfb;" 
d="M267 101q0 -32 -12 -49t-47 -17h-50q-28 0 -36.5 16.5t-8.5 49.5v651h-33v-678q0 -27 15 -49.5t45 -24.5h97q35 2 49 26.5t14 53.5v672h-33v-651zM172 796l20 43l20 -43h33l-35 76h-36l-35 -76h33z" />
    <glyph glyph-name="udieresis" unicode="&#xfc;" 
d="M113 101v651h-33v-672q0 -29 14 -53.5t49 -26.5h97q30 2 45 24.5t15 49.5v678h-33v-651q0 -33 -8.5 -49.5t-36.5 -16.5h-50q-35 0 -47 17t-12 49zM126 796h43v60h-43v-60zM254 856h-43v-60h43v60z" />
    <glyph glyph-name="yacute" unicode="&#xfd;" horiz-adv-x="454" 
d="M172 0h35v371h20q11 0 23.5 3.5t23 11t17.5 18.5t7 27v321h-33v-304q0 -42 -38 -42h-72q-42 0 -42 45v301h-33v-318q0 -17 6.5 -29t17 -19.5t23 -11t25.5 -3.5h20v-371zM191 796l35 76h-36l-21 -76h22z" />
    <glyph glyph-name="FL00FEh" unicode="&#xfe;" horiz-adv-x="453" 
d="M80 0v752h33v-162h87q10 0 26 -12.5t32 -38t27.5 -64.5t11.5 -91q0 -54 -9 -94.5t-23.5 -66.5t-32 -39t-33.5 -13h-86v-171h-33zM113 206h72q27 0 41.5 17t22 43.5t10.5 57.5t6 58q-2 30 -7 60.5t-14.5 55.5t-26 41t-40.5 16h-64v-349z" />
    <glyph glyph-name="ydieresis" unicode="&#xff;" horiz-adv-x="454" 
d="M172 0h35v371h20q11 0 23.5 3.5t23 11t17.5 18.5t7 27v321h-33v-304q0 -42 -38 -42h-72q-42 0 -42 45v301h-33v-318q0 -17 6.5 -29t17 -19.5t23 -11t25.5 -3.5h20v-371zM126 796h43v60h-43v-60zM254 856h-43v-60h43v60z" />
  </font>
</defs>
</svg>
