<?xml version="1.0" standalone="no"?>
<!DOCTYPE svg PUBLIC "-//W3C//DTD SVG 1.1//EN" "http://www.w3.org/Graphics/SVG/1.1/DTD/svg11.dtd" >
<svg xmlns="http://www.w3.org/2000/svg" xmlns:xlink="http://www.w3.org/1999/xlink" version="1.1">
<metadata></metadata>
<defs>
<font id="aileronheavy" horiz-adv-x="1314" >
<font-face units-per-em="2048" ascent="1577" descent="-471" />
<missing-glyph horiz-adv-x="380" />
<glyph unicode="&#xfb01;" horiz-adv-x="1290" d="M41 879v204h117v15q0 84 2 121q7 79 37 137t89.5 101t157 65t234.5 22q77 0 170 -14v-217q-138 9 -216 -1.5t-111.5 -39t-39.5 -82.5q-4 -29 -4 -88v-19h690v-1083h-319v879h-371v-879h-319v879h-117z" />
<glyph unicode="&#xfb02;" horiz-adv-x="1300" d="M41 879v204h96v15q0 69 2 106q7 79 39.5 139.5t96.5 106.5t169 70t248 24q279 0 447 -57v-1114q0 -72 4 -101q4 -48 31 -64t92 -11v-203q-102 -12 -207 -12q-107 0 -169.5 49t-68.5 153q-2 53 -2 183v942q-48 14 -129 14q-217 0 -229 -133q-4 -29 -4 -88v-19h223v-204 h-223v-879h-320v879h-96z" />
<glyph horiz-adv-x="0" />
<glyph horiz-adv-x="682" />
<glyph unicode=" "  horiz-adv-x="380" />
<glyph unicode="&#x09;" horiz-adv-x="380" />
<glyph unicode="&#xa0;" horiz-adv-x="380" />
<glyph unicode="!" horiz-adv-x="555" d="M106 141q0 75 47.5 122.5t122.5 47.5t124 -47.5t49 -122.5t-49 -122.5t-124 -47.5t-122.5 47.5t-47.5 122.5zM127 1413h301l-25 -997h-251z" />
<glyph unicode="&#x22;" horiz-adv-x="802" d="M88 1505h277l-29 -581h-217zM453 1505h276l-31 -581h-217z" />
<glyph unicode="#" d="M145 422v176h211l47 219h-196v176h233l90 420h187l-90 -420h180l90 420h186l-90 -420h176v-176h-213l-47 -219h199v-176h-236l-90 -422h-186l90 422h-180l-90 -422h-187l90 422h-174zM543 598h180l47 219h-180z" />
<glyph unicode="$" d="M92 403h307q13 -78 59 -127.5t117 -68.5v375q-106 36 -180.5 74.5t-131.5 90t-85 118t-28 151.5q0 94 34 171t93.5 127t134.5 81t163 41v161h185v-159q207 -22 319 -135t135 -293h-309q-19 156 -145 196v-358q248 -79 354.5 -185t106.5 -282q0 -173 -127 -279t-334 -127 v-159h-185v159q-213 19 -339 125t-144 303zM446 1051q0 -66 31 -104t98 -64v327q-61 -15 -95 -56t-34 -103zM760 201q149 28 149 161q0 60 -34 104t-115 73v-338z" />
<glyph unicode="%" horiz-adv-x="1581" d="M70 1100q0 161 85 250.5t236 89.5q150 0 236 -90t86 -250q0 -161 -86 -251.5t-236 -90.5q-151 0 -236 90.5t-85 251.5zM223 0l916 1413h233l-915 -1413h-234zM279 1100q0 -182 112 -182q55 0 84 47t29 135q0 180 -113 180q-112 0 -112 -180zM868 313q0 160 86 250t236 90 q151 0 236 -89.5t85 -250.5t-85 -251.5t-236 -90.5q-150 0 -236 90.5t-86 251.5zM1077 313q0 -88 29 -135t84 -47q113 0 113 182q0 181 -113 181q-55 0 -84 -46.5t-29 -134.5z" />
<glyph unicode="&#x26;" horiz-adv-x="1392" d="M100 362q0 145 91 239.5t247 121.5q-116 33 -187 118t-71 199q0 191 142.5 296.5t396.5 105.5q123 0 215 -21v-233q-96 16 -209 16q-207 0 -207 -178q0 -89 48.5 -133t129.5 -49q37 -2 117 -2h57v176h322v-176h190v-250h-190v-567q-241 -54 -516 -54q-130 0 -230.5 19.5 t-180.5 63.5t-122.5 121.5t-42.5 186.5zM438 403q0 -107 61.5 -150.5t184.5 -43.5q99 0 186 16v367h-82q-67 0 -108 -2q-119 -7 -180.5 -55.5t-61.5 -131.5z" />
<glyph unicode="'" horiz-adv-x="428" d="M68 1505h276l-31 -581h-217z" />
<glyph unicode="(" horiz-adv-x="780" d="M233 717q0 535 304 880h165q-270 -399 -270 -880q0 -482 270 -881h-165q-304 345 -304 881z" />
<glyph unicode=")" horiz-adv-x="776" d="M72 -164q270 399 270 881q0 481 -270 880h166q301 -345 301 -880q0 -536 -301 -881h-166z" />
<glyph unicode="*" horiz-adv-x="1255" d="M217 575l64 201l268 -117l-27 314h211l-26 -314l268 117l63 -201l-286 -65l211 -244l-170 -123l-166 271l-164 -271l-170 123l211 244z" />
<glyph unicode="+" d="M205 567v164h360v408h185v-408h360v-164h-360v-407h-185v407h-360z" />
<glyph unicode="," horiz-adv-x="522" d="M-55 -252l161 567h306v-20l-213 -547h-254z" />
<glyph unicode="-" horiz-adv-x="622" d="M66 492v176h491v-176h-491z" />
<glyph unicode="." horiz-adv-x="522" d="M80 158q0 83 52 134.5t134 51.5q83 0 135 -51.5t52 -134.5q0 -82 -52 -134.5t-135 -52.5q-82 0 -134 52.5t-52 134.5z" />
<glyph unicode="/" horiz-adv-x="686" d="M-10 -61l514 1536h192l-514 -1536h-192z" />
<glyph unicode="0" d="M92 707q0 176 31.5 309t98.5 230t176 146.5t259 49.5q566 0 566 -735q0 -736 -566 -736q-565 0 -565 736zM430 707q0 -261 55 -379.5t172 -118.5t172.5 118.5t55.5 379.5q0 263 -55.5 380t-172.5 117t-172 -117t-55 -380z" />
<glyph unicode="1" d="M248 852v293l338 196q126 72 254 72h149v-1413h-321v1077z" />
<glyph unicode="2" d="M121 0v145l461 445q154 147 213 237t59 189q0 89 -47.5 140.5t-134.5 51.5q-93 0 -142.5 -59t-60.5 -180l-2 -21h-322l2 21q23 231 164 354t389 123q235 0 363.5 -111.5t128.5 -302.5q0 -129 -73 -246t-273 -311l-230 -223h564v-252h-1059z" />
<glyph unicode="3" d="M74 440h321l2 -20q15 -95 79 -153t163 -58q103 0 166 54t63 140q0 98 -66.5 150t-193.5 57h-51v215l51 2q106 6 167 61.5t61 143.5q0 79 -48.5 125.5t-132.5 46.5q-86 0 -136 -56.5t-58 -148.5l-2 -20h-320l2 20q10 93 48 172.5t104.5 140.5t167.5 95.5t227 34.5 q233 0 359.5 -105.5t126.5 -267.5q0 -124 -67 -206.5t-198 -114.5q297 -65 297 -334q0 -201 -154 -322t-407 -121q-252 0 -399.5 117t-169.5 332z" />
<glyph unicode="4" d="M76 326v174l647 913h346v-835h174v-252h-174v-326h-321v326h-672zM416 578h332v485q-56 -95 -86 -139z" />
<glyph unicode="5" d="M117 412h321l2 -21q26 -182 201 -182q110 0 169.5 69t59.5 185q0 114 -59.5 184t-163.5 70q-78 0 -128 -35t-81 -111h-297l103 842h907v-250h-643l-51 -356l63 94q90 53 219 53q218 0 343.5 -128.5t125.5 -352.5q0 -119 -45.5 -216t-123 -158.5t-175 -94.5t-205.5 -33 q-248 0 -382.5 102t-157.5 318z" />
<glyph unicode="6" d="M104 670q0 187 44 334.5t123.5 242.5t188.5 145t240 50q219 0 346.5 -107t151.5 -295l2 -20h-323l-5 20q-23 85 -69 124.5t-121 39.5q-236 0 -250 -461l68 127q55 44 114 61t138 17q114 0 203.5 -35.5t145.5 -98t84.5 -144.5t28.5 -178q0 -162 -77 -282.5t-200.5 -179.5 t-272.5 -59q-280 0 -420 170.5t-140 528.5zM444 461q0 -113 58.5 -182.5t156.5 -69.5q101 0 159.5 70t58.5 174q0 118 -57.5 188t-162.5 70q-91 0 -152 -66.5t-61 -183.5z" />
<glyph unicode="7" d="M113 1163v250h1112v-174l-668 -1239h-350l637 1163h-731z" />
<glyph unicode="8" d="M100 399q0 131 78.5 220.5t196.5 130.5q-207 73 -207 297q0 178 134.5 286.5t373.5 108.5q237 0 370.5 -108.5t133.5 -286.5q0 -116 -66 -189.5t-170 -107.5q116 -38 192 -128.5t76 -222.5q0 -112 -43.5 -196.5t-121 -134.5t-176.5 -74.5t-218 -24.5q-260 0 -406.5 104.5 t-146.5 325.5zM436 414q0 -97 58 -152t163 -55q112 0 167 53.5t55 149.5t-58.5 154.5t-165.5 58.5q-99 0 -159 -57.5t-60 -151.5zM498 1034q0 -85 45 -131.5t127 -46.5q83 0 131.5 47t48.5 131q0 78 -47.5 124t-130.5 46q-78 0 -126 -46t-48 -124z" />
<glyph unicode="9" d="M100 922q0 122 44.5 222t121 164.5t175.5 99t210 34.5q279 0 418 -170t139 -529q0 -373 -161 -572.5t-435 -199.5q-223 0 -349.5 107t-145.5 297l-2 20h323l4 -20q19 -86 65 -126t126 -40q236 0 250 463l-70 -129q-55 -43 -113.5 -60.5t-136.5 -17.5q-92 0 -168.5 23.5 t-130.5 65t-91.5 99t-55 125t-17.5 144.5zM438 961q0 -118 56.5 -188.5t162.5 -70.5q90 0 150.5 66.5t60.5 183.5q0 114 -58 183t-157 69t-157 -69.5t-58 -173.5z" />
<glyph unicode=":" horiz-adv-x="522" d="M80 158q0 83 52 134.5t134 51.5q83 0 135 -51.5t52 -134.5q0 -82 -52 -134.5t-135 -52.5q-82 0 -134 52.5t-52 134.5zM80 934q0 83 52 134.5t134 51.5q83 0 135 -51.5t52 -134.5q0 -82 -52 -134t-135 -52q-82 0 -134 52t-52 134z" />
<glyph unicode=";" horiz-adv-x="522" d="M-55 -252l161 574h306v-37l-213 -537h-254zM80 934q0 83 52 134.5t134 51.5q83 0 135 -51.5t52 -134.5q0 -82 -52 -134t-135 -52q-82 0 -134 52t-52 134z" />
<glyph unicode="&#x3c;" d="M217 422v244l930 374v-217l-727 -278l727 -281v-217z" />
<glyph unicode="=" d="M174 362v164h967v-164h-967zM174 772v164h967v-164h-967z" />
<glyph unicode="&#x3e;" d="M143 47v215l725 281l-725 278v219l928 -374v-244z" />
<glyph unicode="?" horiz-adv-x="1161" d="M63 981q6 214 147.5 337.5t377.5 123.5q228 0 355.5 -103.5t127.5 -285.5q0 -115 -50.5 -201t-166.5 -186q-84 -73 -116.5 -123t-39.5 -127h-268q4 111 35.5 180.5t105.5 151.5q92 99 127 158.5t35 121.5q0 86 -42 131t-124 45q-168 0 -180 -223h-324zM397 141 q0 75 47.5 122.5t122.5 47.5t123.5 -47.5t48.5 -122.5t-48.5 -122.5t-123.5 -47.5t-122.5 47.5t-47.5 122.5z" />
<glyph unicode="@" horiz-adv-x="1865" d="M96 510q0 262 124.5 471.5t333.5 323.5t460 114q178 0 324 -57.5t240 -156t145 -225.5t51 -269q0 -149 -38 -261.5t-104.5 -178t-149 -97t-179.5 -31.5q-110 0 -184 48.5t-101 142.5l-57 -119q-85 -68 -187 -68q-56 0 -103.5 17t-88.5 55t-64.5 107t-23.5 163 q0 143 50.5 259t143 183.5t209.5 67.5q115 0 162 -57l31 -111l40 132h273l-82 -338q-31 -137 -31 -187q0 -119 82 -119q86 0 144.5 98.5t58.5 276.5q0 258 -153.5 402.5t-413.5 144.5q-135 0 -262 -49.5t-228.5 -138.5t-163 -227.5t-61.5 -303.5q0 -283 160.5 -443.5 t447.5 -160.5q279 0 471 141l68 -155q-129 -84 -275.5 -124t-287.5 -40q-113 0 -221.5 26.5t-211 86t-179 147t-123 219t-46.5 291.5zM795 512q0 -143 86 -143q48 0 80 39.5t47 101.5l28 129q15 68 -4.5 103.5t-66.5 35.5q-73 0 -121.5 -76.5t-48.5 -189.5z" />
<glyph unicode="A" horiz-adv-x="1413" d="M20 0l510 1413h398l504 -1413h-349l-129 399h-460l-132 -399h-342zM573 651h301l-149 484z" />
<glyph unicode="B" horiz-adv-x="1368" d="M174 0v1413h539q110 0 182 -8q170 -22 265 -117.5t95 -238.5q0 -210 -215 -285q267 -70 267 -340q0 -94 -34.5 -171t-92.5 -126.5t-126 -79t-143 -39.5q-70 -8 -200 -8h-537zM496 252h225q65 0 92 2q67 5 112.5 51.5t45.5 122.5q0 82 -45.5 126t-118.5 50q-33 4 -98 4 h-213v-356zM496 844h192q50 0 94 6q138 22 138 156q0 131 -140 151q-44 6 -98 6h-186v-319z" />
<glyph unicode="C" horiz-adv-x="1484" d="M106 698q0 174 53.5 316t147 235t220 143t272.5 50q143 0 257.5 -37t190 -103.5t119.5 -155t55 -194.5l2 -20h-321l-4 20q-51 252 -303 252q-158 0 -254.5 -128.5t-96.5 -358.5q0 -253 97.5 -380.5t251.5 -127.5q122 0 198 70t101 198l4 21h321l-2 -21 q-25 -238 -195 -372t-440 -134q-145 0 -268.5 49t-213.5 140t-141 229.5t-51 308.5z" />
<glyph unicode="D" horiz-adv-x="1513" d="M174 0v1413h508q108 0 180 -8q126 -14 231 -61.5t186.5 -128.5t127 -206t45.5 -284t-46 -289.5t-127 -218.5t-187.5 -141t-231.5 -68q-72 -8 -180 -8h-506zM496 252h143q96 0 143 4q152 18 242 141t90 324q0 195 -88.5 306.5t-241.5 129.5q-71 6 -143 6h-145v-911z" />
<glyph unicode="E" horiz-adv-x="1282" d="M174 0v1413h1028v-250h-706v-329h659v-250h-659v-332h727v-252h-1049z" />
<glyph unicode="F" horiz-adv-x="1234" d="M174 0v1413h1028v-250h-706v-329h639v-250h-639v-584h-322z" />
<glyph unicode="G" horiz-adv-x="1529" d="M106 698q0 174 55.5 316t151.5 235t224.5 143t275.5 50q283 0 441.5 -135t181.5 -355l2 -20h-320l-4 20q-51 252 -305 252q-160 0 -262.5 -129.5t-102.5 -357.5q0 -253 100.5 -380.5t260.5 -127.5q124 0 205.5 71t109.5 205h-286v250h591v-735h-254l-24 223l-64 -147 q-60 -55 -139.5 -80t-195.5 -25q-293 0 -467.5 193t-174.5 534z" />
<glyph unicode="H" horiz-adv-x="1556" d="M174 0v1413h322v-594h618v594h320v-1413h-320v567h-618v-567h-322z" />
<glyph unicode="I" horiz-adv-x="618" d="M174 0v1413h322v-1413h-322z" />
<glyph unicode="J" horiz-adv-x="1259" d="M102 526h320l4 -67q9 -134 62 -192t149 -58q172 0 188 201q4 47 4 143v860h322v-819q0 -107 -6 -203q-11 -194 -140.5 -307t-381.5 -113q-256 0 -384.5 128.5t-134.5 359.5z" />
<glyph unicode="K" horiz-adv-x="1454" d="M174 0v1413h322v-655l577 655h383l-618 -672l594 -741h-408l-420 561l-108 -121v-440h-322z" />
<glyph unicode="L" horiz-adv-x="1259" d="M174 0v1413h322v-1143h727v-270h-1049z" />
<glyph unicode="M" horiz-adv-x="1861" d="M174 0v1413h504l285 -1108l284 1108h492v-1413h-322v627q0 324 4 469q-50 -249 -116 -467l-179 -629h-340l-182 629q-72 248 -112 465q4 -145 4 -467v-627h-322z" />
<glyph unicode="N" horiz-adv-x="1587" d="M174 0v1413h412l569 -1040q-10 184 -10 411v629h319v-1413h-428l-553 1012q13 -195 13 -398v-614h-322z" />
<glyph unicode="O" horiz-adv-x="1587" d="M106 707q0 337 191.5 536t519.5 199q326 0 517.5 -199t191.5 -536q0 -336 -191.5 -536t-517.5 -200q-327 0 -519 200t-192 536zM438 707q0 -235 100.5 -366.5t278.5 -131.5q176 0 276.5 131.5t100.5 366.5q0 236 -100.5 366.5t-276.5 130.5q-178 0 -278.5 -130.5 t-100.5 -366.5z" />
<glyph unicode="P" horiz-adv-x="1296" d="M174 0v1413h510q121 0 211 -10q168 -20 276.5 -133t108.5 -305q0 -97 -31 -177.5t-85 -134t-122 -85.5t-147 -42q-90 -10 -211 -10h-188v-516h-322zM496 768h176q83 0 112 4q75 9 117.5 57t42.5 136t-42.5 135.5t-117.5 56.5q-29 4 -112 4h-176v-393z" />
<glyph unicode="Q" horiz-adv-x="1591" d="M106 707q0 338 191.5 537.5t519.5 199.5q326 0 517.5 -199.5t191.5 -537.5q0 -142 -51.5 -265.5t-151.5 -208.5q114 -28 233 -129l-157 -204q-97 62 -157.5 83t-129.5 21q-64 0 -149 -18q-67 -15 -146 -15q-327 0 -519 200t-192 536zM438 707q0 -235 100.5 -366.5 t278.5 -131.5q176 0 276.5 131.5t100.5 366.5q0 236 -100.5 367.5t-276.5 131.5q-178 0 -278.5 -131t-100.5 -368z" />
<glyph unicode="R" horiz-adv-x="1363" d="M174 0v1413h537q121 0 213 -10q80 -10 145.5 -35t118 -68.5t81.5 -112.5t29 -159q0 -133 -72.5 -221t-207.5 -127q103 -38 152.5 -119.5t62.5 -210.5q14 -126 38 -207.5t66 -142.5h-350q-51 143 -67 301q-28 240 -185 252q-39 2 -112 2h-127v-555h-322zM496 791h166 q79 0 108 2q193 19 193 184q0 90 -47 131t-134 51q-58 4 -108 4h-178v-372z" />
<glyph unicode="S" horiz-adv-x="1261" d="M80 424h323q21 -105 95.5 -160t175.5 -55q90 0 149.5 43.5t59.5 114.5q0 76 -59 127t-199 84q-97 24 -168 49.5t-134 62.5t-102 82.5t-61.5 108.5t-22.5 143q0 128 73 224.5t189.5 145t255.5 48.5q128 0 227.5 -34.5t163 -97t100 -142.5t48.5 -179h-324q-12 101 -69 158 t-156 57q-78 0 -125 -37.5t-47 -111.5q0 -81 65.5 -129.5t233.5 -87.5q230 -55 338.5 -165t108.5 -280q0 -100 -44 -181t-119.5 -133t-172 -80t-203.5 -28q-266 0 -424 114.5t-176 338.5z" />
<glyph unicode="T" horiz-adv-x="1284" d="M39 1163v250h1261v-250h-471v-1163h-319v1163h-471z" />
<glyph unicode="U" horiz-adv-x="1452" d="M154 596v817h319v-864q0 -65 2 -94q9 -118 80 -182t201 -64t200 64t78 182q4 29 4 94v864h320v-817q0 -106 -6 -180q-6 -93 -42.5 -170.5t-105.5 -140.5t-183.5 -98.5t-264.5 -35.5t-264.5 35.5t-184 98.5t-106 140.5t-43.5 170.5q-4 74 -4 180z" />
<glyph unicode="V" horiz-adv-x="1458" d="M66 1413h348l358 -1165l365 1165h340l-510 -1413h-398z" />
<glyph unicode="W" horiz-adv-x="2048" d="M53 1413h344l217 -1163l220 1143h456l213 -1153l232 1173h329l-368 -1413h-426l-213 1145l-228 -1145h-428z" />
<glyph unicode="X" horiz-adv-x="1421" d="M35 0l506 713l-471 700h372l293 -500l314 500h368l-493 -694l501 -719h-374l-328 510l-305 -510h-383z" />
<glyph unicode="Y" horiz-adv-x="1316" d="M31 1413h362l307 -590l295 590h353l-498 -868v-545h-320v541z" />
<glyph unicode="Z" horiz-adv-x="1298" d="M104 0v244l742 919h-684v250h1069v-248l-733 -913h743v-252h-1137z" />
<glyph unicode="[" horiz-adv-x="786" d="M217 -164v1761h504v-176h-320v-1409h320v-176h-504z" />
<glyph unicode="\" horiz-adv-x="686" d="M-10 1475h192l514 -1536h-192z" />
<glyph unicode="]" horiz-adv-x="780" d="M61 12h320v1409h-320v176h502v-1761h-502v176z" />
<glyph unicode="^" d="M201 440l350 822h211l350 -822h-207l-250 643l-252 -643h-202z" />
<glyph unicode="_" horiz-adv-x="1024" d="M102 -4h820v-176h-820v176z" />
<glyph unicode="`" horiz-adv-x="614" d="M-29 1423h287l172 -249h-176z" />
<glyph unicode="a" horiz-adv-x="1173" d="M66 291q0 180 154.5 278.5t441.5 98.5h69v18q0 57 -4 94q-5 52 -44 85.5t-108 33.5q-74 0 -115.5 -44t-47.5 -126h-308q3 122 68.5 211.5t173.5 134.5t242 45q118 0 205 -24.5t139 -71t79 -105.5t33 -135q7 -89 7 -176v-332q0 -125 20 -276h-313l-23 160l-49 -117 q-115 -72 -270 -72q-94 0 -172.5 36t-128 110t-49.5 174zM395 317q0 -60 40 -92t108 -32q77 0 132.5 54t55.5 150v80q-36 3 -68 3q-107 0 -177 -31q-90 -40 -91 -132z" />
<glyph unicode="b" horiz-adv-x="1341" d="M121 0v1505h321v-577l82 121q45 34 120 52.5t161 18.5q222 0 352.5 -153t130.5 -398q0 -143 -41.5 -258.5t-113.5 -188.5t-165 -112t-200 -39q-69 0 -141.5 16t-112.5 42l-72 114v-143h-321zM442 510q0 -85 21.5 -148.5t58 -99t79 -52.5t91.5 -17q121 0 193.5 91.5 t72.5 264.5q0 160 -70.5 255t-185.5 95q-119 0 -189.5 -81.5t-70.5 -258.5v-49z" />
<glyph unicode="c" horiz-adv-x="1173" d="M53 537q0 137 44 248.5t120 184t177 111.5t218 39q223 0 360.5 -122t149.5 -310h-313q-32 211 -205 211q-104 0 -162.5 -86.5t-58.5 -255.5q0 -184 58.5 -274t162.5 -90q75 0 129 50.5t72 143.5h317q-32 -202 -175 -309t-361 -107q-114 0 -211 37t-169 106.5t-112.5 178 t-40.5 244.5z" />
<glyph unicode="d" horiz-adv-x="1343" d="M53 524q0 143 41.5 257.5t113.5 187.5t165 112t200 39q69 0 141.5 -15.5t112.5 -41.5l72 -115v557h322v-1505h-322v164l-82 -121q-45 -35 -120 -53.5t-160 -18.5q-223 0 -353.5 153t-130.5 400zM383 543q0 -160 70.5 -255t185.5 -95q118 0 189 81t71 258v52 q0 161 -73.5 238t-176.5 77q-121 0 -193.5 -91.5t-72.5 -264.5z" />
<glyph unicode="e" horiz-adv-x="1204" d="M53 543q0 164 68 294.5t198 206.5t299 76q126 0 228.5 -45.5t167 -123t99 -176.5t34.5 -210q0 -43 -6 -102h-766q13 -148 71.5 -209t157.5 -61q84 0 138.5 43t68.5 120h317q-43 -186 -184.5 -285.5t-345.5 -99.5q-116 0 -214 36t-172.5 105t-116.5 179.5t-42 251.5z M383 666h430q-13 115 -66.5 174t-142.5 59q-182 0 -221 -233z" />
<glyph unicode="f" horiz-adv-x="729" d="M41 879v204h117v29q0 86 2 123q12 150 117 229.5t319 79.5q58 0 123 -14v-217q-41 8 -76 8q-51 0 -90 -17q-65 -28 -72 -98q-4 -29 -4 -90v-33h223v-204h-223v-879h-319v879h-117z" />
<glyph unicode="g" horiz-adv-x="1343" d="M53 537q0 142 41.5 255t113.5 183.5t165 107.5t200 37q69 0 141.5 -15.5t112.5 -41.5l72 -115v144h322v-816q0 -151 -2 -210q-9 -256 -168.5 -384t-434.5 -128q-241 0 -378 96.5t-156 279.5l-2 21h311l2 -19q7 -66 69.5 -103.5t162.5 -37.5q122 0 193 59.5t77 178.5 q4 78 4 137v29l-82 -121q-98 -72 -264 -72q-227 0 -363.5 146t-136.5 389zM383 561q0 -159 70 -248.5t186 -89.5q118 0 189 81.5t71 258.5v21q0 161 -73.5 238t-176.5 77q-123 0 -194.5 -83.5t-71.5 -254.5z" />
<glyph unicode="h" horiz-adv-x="1292" d="M121 0v1516h321v-596l90 131q104 69 254 69q170 0 269.5 -78.5t118.5 -222.5q10 -69 10 -203v-616h-322v567q0 97 -4 152q-6 86 -54.5 133t-139.5 47q-66 -1 -114.5 -40t-78 -128.5t-29.5 -224.5v-506h-321z" />
<glyph unicode="i" horiz-adv-x="565" d="M111 1352q0 73 46.5 117t123.5 44t124.5 -44t47.5 -117q0 -75 -47.5 -119.5t-124.5 -44.5t-123.5 44.5t-46.5 119.5zM121 0v1092h321v-1092h-321z" />
<glyph unicode="j" horiz-adv-x="552" d="M-84 -201q28 -3 51 -3q61 0 93 17q45 23 51 89q4 29 4 96v1094h321v-1090q0 -59 -4 -133q-11 -146 -105.5 -222.5t-295.5 -76.5q-62 0 -115 6v223zM104 1352q0 83 42.5 122t129.5 39q170 0 170 -161q0 -164 -170 -164q-87 0 -129.5 40t-42.5 124z" />
<glyph unicode="k" horiz-adv-x="1239" d="M121 0v1505h321v-893l414 480h381l-473 -504l479 -588h-399l-318 418l-84 -92v-326h-321z" />
<glyph unicode="l" horiz-adv-x="595" d="M113 367v1138h321v-1132q0 -72 2 -101q5 -38 30 -51q20 -11 70 -11q12 0 25 1v-219q-102 -10 -192 -10q-241 0 -252 202q-4 53 -4 183z" />
<glyph unicode="m" horiz-adv-x="1921" d="M121 0v1092h321v-170l82 135q97 63 236 63q131 0 217.5 -57.5t122.5 -153.5l110 148q92 63 234 63q153 0 245.5 -76.5t112.5 -195.5q10 -69 10 -203v-645h-321v563q0 93 -8 166q-19 170 -172 170q-185 0 -185 -332v-567h-319v563q0 93 -8 166q-22 170 -174 170 q-183 0 -183 -332v-567h-321z" />
<glyph unicode="n" horiz-adv-x="1292" d="M121 0v1092h321v-172l90 131q104 69 254 69q170 0 269.5 -78.5t118.5 -222.5q10 -69 10 -203v-616h-322v567q0 97 -4 152q-6 86 -54.5 133t-139.5 47q-101 0 -161.5 -96.5t-60.5 -296.5v-506h-321z" />
<glyph unicode="o" horiz-adv-x="1255" d="M53 547q0 259 154 416t422 157q267 0 421 -157.5t154 -415.5q0 -259 -154.5 -417.5t-420.5 -158.5q-268 0 -422 158.5t-154 417.5zM383 547q0 -169 65 -261.5t181 -92.5q115 0 179 92.5t64 261.5t-64 260.5t-179 91.5q-116 0 -181 -91.5t-65 -260.5z" />
<glyph unicode="p" horiz-adv-x="1341" d="M121 -401v1493h321v-164l82 121q45 34 120 52.5t161 18.5q222 0 352.5 -153t130.5 -398q0 -143 -41.5 -258.5t-113.5 -188.5t-165 -112t-200 -39q-69 0 -141.5 16t-112.5 42l-72 114v-544h-321zM442 510q0 -85 21.5 -148.5t58 -99t79 -52.5t91.5 -17q121 0 193.5 91.5 t72.5 264.5q0 160 -70.5 255t-185.5 95q-119 0 -189.5 -81.5t-70.5 -258.5v-49z" />
<glyph unicode="q" horiz-adv-x="1343" d="M53 524q0 143 41.5 257.5t113.5 187.5t165 112t200 39q69 0 141.5 -15.5t112.5 -41.5l72 -115v144h322v-1493h-322v565l-82 -121q-45 -35 -120 -53.5t-160 -18.5q-223 0 -353.5 153t-130.5 400zM383 543q0 -160 70.5 -255t185.5 -95q118 0 189 81t71 258v52 q0 161 -73.5 238t-176.5 77q-121 0 -193.5 -91.5t-72.5 -264.5z" />
<glyph unicode="r" horiz-adv-x="815" d="M121 0v1092h321v-209l82 151q40 41 94.5 63.5t104.5 22.5q32 0 82 -8v-260q-23 1 -44 1q-159 0 -234 -78q-85 -89 -85 -318v-457h-321z" />
<glyph unicode="s" horiz-adv-x="1046" d="M41 336h317q17 -75 67.5 -116.5t119.5 -41.5q62 0 100.5 26.5t38.5 76.5q0 58 -58.5 94.5t-203.5 70.5q-164 41 -251 119t-87 211q0 159 124 251.5t331 92.5q192 0 306.5 -95.5t135.5 -250.5h-317q-28 141 -146 141q-51 0 -81.5 -28t-30.5 -72q0 -56 54 -92t199 -72 q171 -43 259 -122t88 -224q0 -110 -63.5 -187t-165.5 -112t-234 -35q-215 0 -348 92.5t-154 272.5z" />
<glyph unicode="t" horiz-adv-x="774" d="M18 879v204h166v275h322v-275h231v-204h-231v-459q0 -74 2 -103q6 -81 46 -105q31 -18 111 -19q24 0 52 2v-205q-112 -17 -199 -17q-174 0 -247.5 56.5t-82.5 181.5q-4 55 -4 166v502h-166z" />
<glyph unicode="u" horiz-adv-x="1286" d="M102 451v641h320v-572q0 -76 8 -149q22 -176 197 -176q100 0 158.5 82t58.5 231v584h319v-1092h-319v186l-92 -145q-106 -70 -254 -70q-162 0 -263.5 79t-121.5 198q-11 76 -11 203z" />
<glyph unicode="v" horiz-adv-x="1198" d="M0 1092h356l252 -844l250 844h348l-426 -1092h-352z" />
<glyph unicode="w" horiz-adv-x="1734" d="M0 1092h356l170 -824l158 817h383l166 -819l166 826h346l-346 -1092h-361l-164 793l-165 -793h-363z" />
<glyph unicode="x" horiz-adv-x="1153" d="M-4 0l383 553l-369 539h375l197 -342l194 342h369l-375 -541l379 -551h-375l-201 356l-208 -356h-369z" />
<glyph unicode="y" horiz-adv-x="1196" d="M0 1092h358l250 -844l248 844h350l-436 -1115q-93 -235 -196.5 -321t-284.5 -86q-79 0 -139 8v215q29 -4 90 -4q71 0 117.5 29t76.5 98l15 35z" />
<glyph unicode="z" horiz-adv-x="1044" d="M63 0v195l574 682h-541v206h883v-204l-569 -672h575v-207h-922z" />
<glyph unicode="{" horiz-adv-x="815" d="M207 629v176q95 7 131.5 40.5t36.5 86.5q0 59 -21 194q-24 176 -24 240q0 122 65 176.5t213 54.5h84v-176h-41q-80 0 -108.5 -17t-28.5 -69q0 -34 21 -188q24 -156 24 -221q0 -168 -174 -205q174 -37 174 -213q0 -65 -24 -221q-21 -151 -21 -189q0 -52 28.5 -69 t108.5 -17h41v-176h-84q-148 0 -213 55t-65 179q0 62 24 237q21 135 21 195q0 54 -36.5 87.5t-131.5 39.5z" />
<glyph unicode="|" horiz-adv-x="608" d="M201 -410v2048h207v-2048h-207z" />
<glyph unicode="}" horiz-adv-x="815" d="M125 12h39q81 0 110 17t29 69q0 48 -22 189q-23 171 -23 221q0 171 172 205q-172 37 -172 213q0 50 23 221q22 143 22 188q0 52 -29 69t-110 17h-39v176h84q147 0 211.5 -54.5t64.5 -176.5q0 -84 -24 -240q-19 -142 -19 -194q0 -53 36.5 -86.5t131.5 -40.5v-176 q-95 -6 -131.5 -39.5t-36.5 -87.5q0 -52 19 -195q24 -156 24 -237q0 -124 -64.5 -179t-211.5 -55h-84v176z" />
<glyph unicode="~" d="M174 457q0 350 258 350q43 0 87 -12t74 -26t93 -46q54 -29 78.5 -41t54 -21.5t53.5 -9.5q50 0 72.5 36t22.5 120h176q0 -350 -260 -350q-59 0 -109.5 18.5t-142.5 65.5q-76 40 -115.5 55.5t-71.5 15.5q-52 0 -73 -38t-21 -117h-176z" />
<glyph unicode="&#xa1;" horiz-adv-x="555" d="M106 944q0 75 47.5 122.5t122.5 47.5t124 -47.5t49 -122.5t-49 -122.5t-124 -47.5t-122.5 47.5t-47.5 122.5zM127 -328l25 1000h251l25 -1000h-301z" />
<glyph unicode="&#xa2;" horiz-adv-x="1304" d="M123 532q0 240 125.5 390t326.5 184v164h185v-160q191 -21 306 -139t126 -289h-283q-22 149 -149 197v-670q54 23 93 68.5t52 109.5h287q-27 -176 -140.5 -280.5t-291.5 -129.5v-161h-185v159q-203 27 -327.5 173.5t-124.5 383.5zM422 553q0 -135 41.5 -219.5 t111.5 -118.5v657q-70 -34 -111.5 -115t-41.5 -204z" />
<glyph unicode="&#xa3;" d="M131 0v223q209 39 209 234q0 63 -27 149h-163v164h92q-49 119 -49 236q0 200 136 318t357 118q119 0 212 -34t150.5 -94t89.5 -134.5t38 -161.5h-324q-8 88 -50 137t-118 49q-71 0 -112.5 -50t-41.5 -122q0 -64 13.5 -117.5t50.5 -144.5h407v-164h-350q15 -58 15 -110 q0 -79 -44 -142.5t-126 -101.5h692v-252h-1057z" />
<glyph unicode="&#xa4;" d="M238 307l108 109q-57 88 -57 200q0 115 59 201l-110 111l108 108l109 -110q94 59 202 59q109 0 203 -59l109 110l108 -108l-110 -111q59 -86 59 -201q0 -112 -57 -200l108 -109l-108 -108l-109 108q-91 -59 -203 -59q-111 0 -202 59l-109 -108zM479 616 q0 -87 49.5 -140.5t128.5 -53.5q78 0 127.5 53.5t49.5 140.5t-49.5 141t-127.5 54q-79 0 -128.5 -54t-49.5 -141z" />
<glyph unicode="&#xa5;" d="M49 1413h340l277 -631l270 631h330l-359 -647h223v-176h-313v-119h313v-176h-313v-295h-319v295h-314v176h314v119h-314v176h224z" />
<glyph unicode="&#xa6;" horiz-adv-x="583" d="M201 -328v697h182v-697h-182zM201 717v696h182v-696h-182z" />
<glyph unicode="&#xa7;" horiz-adv-x="1255" d="M51 606q0 98 44 174.5t124 124.5q-41 65 -41 150q0 172 125.5 279.5t327.5 107.5q193 0 307 -97t135 -262h-317q-28 154 -142 154q-49 0 -80.5 -34.5t-31.5 -94.5q0 -81 53.5 -126.5t204.5 -84.5q232 -62 338 -158.5t106 -253.5q0 -197 -178 -299q53 -74 53 -180 q0 -113 -63.5 -196.5t-168.5 -124.5t-237 -41q-210 0 -343 92.5t-154 273.5h317q18 -77 68.5 -119.5t117.5 -42.5q62 0 101 33t39 94q0 50 -25 87t-95 75t-194 74q-96 29 -164 61t-121.5 78.5t-79.5 109.5t-26 146zM375 616q0 -68 55 -113.5t170 -80.5q130 -40 215 -80 q66 39 66 115q0 74 -57 123t-193 88q-115 30 -201 71q-55 -36 -55 -123z" />
<glyph unicode="&#xa8;" horiz-adv-x="614" d="M-23 1309q0 61 39 98t101 37t100.5 -37t38.5 -98t-38.5 -98t-100.5 -37t-101 37t-39 98zM360 1309q0 61 38 98t100 37t100.5 -37t38.5 -98t-38.5 -98t-100.5 -37t-100 37t-38 98z" />
<glyph unicode="&#xa9;" horiz-adv-x="1751" d="M43 727q0 235 107 422.5t296.5 292t427.5 104.5q179 0 334 -61.5t264.5 -169t172.5 -260t63 -328.5t-63 -328.5t-172.5 -260t-264.5 -169t-334 -61.5q-238 0 -427.5 104.5t-296.5 292t-107 422.5zM242 727q0 -278 178.5 -458.5t453.5 -180.5q182 0 327 82t226.5 228 t81.5 329q0 184 -81.5 331t-226.5 229.5t-327 82.5q-181 0 -325.5 -82.5t-225.5 -229.5t-81 -331zM428 727q0 212 127 339.5t338 127.5q186 0 296 -100.5t128 -270.5h-273q-17 181 -161 181q-168 0 -168 -275q0 -139 45.5 -209.5t128.5 -70.5q63 0 105 45.5t48 134.5h273 q-27 -174 -137.5 -272.5t-300.5 -98.5q-201 0 -325 126t-124 343z" />
<glyph unicode="&#xab;" horiz-adv-x="1355" d="M289 508l280 340h236l-281 -340l281 -340h-236zM743 508l281 340h236l-281 -340l281 -340h-236z" />
<glyph unicode="&#xac;" d="M236 633v176h821v-436h-183v260h-638z" />
<glyph unicode="&#xad;" horiz-adv-x="622" d="M66 492v176h491v-176h-491z" />
<glyph unicode="&#xae;" horiz-adv-x="1007" d="M74 1135q0 189 120 309.5t310 120.5t310 -120.5t120 -309.5t-120 -309.5t-310 -120.5t-310 120.5t-120 309.5zM190 1135q0 -140 88 -230t226 -90t225.5 90t87.5 230q0 141 -87.5 231t-225.5 90t-226 -90t-88 -231zM340 930v432h156q37 0 55 -2q69 -7 105 -39t36 -82 q0 -41 -23 -67.5t-59 -36.5q53 -16 60 -95q7 -67 26 -110h-133q-7 30 -14 86q-6 55 -60 55h-30v-141h-119zM459 1163h24q27 0 39 2q41 6 41 52t-41 53q-12 2 -39 2h-24v-109z" />
<glyph unicode="&#xaf;" horiz-adv-x="614" d="M16 1210v174h584v-174h-584z" />
<glyph unicode="&#xb0;" horiz-adv-x="645" d="M45 1174q0 118 77.5 193t199.5 75q123 0 200.5 -74.5t77.5 -193.5t-77.5 -194t-200.5 -75q-122 0 -199.5 75.5t-77.5 193.5zM221 1174q0 -45 30 -75t71 -30q42 0 72 30t30 75t-30 74.5t-72 29.5q-41 0 -71 -29.5t-30 -74.5z" />
<glyph unicode="&#xb1;" d="M242 0v164h829v-164h-829zM242 563v176h323v310h185v-310h321v-176h-321v-313h-185v313h-323z" />
<glyph unicode="&#xb4;" horiz-adv-x="614" d="M207 1174l172 249h287l-283 -249h-176z" />
<glyph unicode="&#xb6;" horiz-adv-x="1239" d="M82 1034q0 153 85 260.5t236 116.5q35 2 115 2h598v-1638h-182v1462h-221v-1462h-185v880h-10q-80 0 -115 2q-151 9 -236 116.5t-85 260.5z" />
<glyph unicode="&#xb7;" horiz-adv-x="534" d="M78 625q0 83 52.5 135.5t135.5 52.5q84 0 137.5 -52.5t53.5 -135.5t-54 -136t-137 -53t-135.5 53t-52.5 136z" />
<glyph unicode="&#xb8;" horiz-adv-x="614" d="M92 -287q63 -16 117 -16q123 0 123 63q0 39 -44.5 55t-152.5 9l96 194h162l-53 -102q188 -24 188 -162q0 -65 -44.5 -107.5t-114 -59.5t-164.5 -17q-70 0 -113 14v129z" />
<glyph unicode="&#xbb;" horiz-adv-x="1304" d="M96 168l281 340l-281 340h236l280 -340l-280 -340h-236zM553 168l281 340l-281 340h235l281 -340l-281 -340h-235z" />
<glyph unicode="&#xbf;" horiz-adv-x="1110" d="M109 41q0 114 50.5 200.5t164.5 184.5q84 72 116 123t39 129h269q-4 -112 -35 -182t-105 -152q-92 -98 -127 -158.5t-35 -122.5q0 -86 42 -131t124 -45q81 0 128 56t53 168h321q-6 -215 -146.5 -338t-377.5 -123q-228 0 -354.5 103.5t-126.5 287.5zM440 950 q0 75 47.5 122.5t122.5 47.5t123.5 -47.5t48.5 -122.5t-48.5 -122.5t-123.5 -47.5t-122.5 47.5t-47.5 122.5z" />
<glyph unicode="&#xc0;" horiz-adv-x="1413" d="M20 0l510 1413h398l504 -1413h-349l-129 399h-460l-132 -399h-342zM385 1747h287l168 -242h-176zM573 651h301l-149 484z" />
<glyph unicode="&#xc1;" horiz-adv-x="1413" d="M20 0l510 1413h398l504 -1413h-349l-129 399h-460l-132 -399h-342zM573 651h301l-149 484zM629 1505l168 242h286l-278 -242h-176z" />
<glyph unicode="&#xc2;" horiz-adv-x="1413" d="M20 0l510 1413h398l504 -1413h-349l-129 399h-460l-132 -399h-342zM471 1505l129 242h260l129 -242h-194l-68 146l-63 -146h-193zM573 651h301l-149 484z" />
<glyph unicode="&#xc3;" horiz-adv-x="1413" d="M20 0l510 1413h398l504 -1413h-349l-129 399h-460l-132 -399h-342zM424 1524q0 127 40 184t124 57q43 0 74.5 -6.5t82.5 -27.5q71 -29 93 -29q17 0 23.5 13t6.5 44h168q0 -127 -40 -184t-126 -57q-73 0 -157 34q-71 29 -92 29q-31 0 -31 -57h-166zM573 651h301l-149 484z " />
<glyph unicode="&#xc4;" horiz-adv-x="1413" d="M20 0l510 1413h398l504 -1413h-349l-129 399h-460l-132 -399h-342zM401 1622q0 61 39 98t101 37t99.5 -37t37.5 -98t-37.5 -98t-99.5 -37t-101 37t-39 98zM573 651h301l-149 484zM780 1622q0 61 39 98t101 37t99.5 -37t37.5 -98t-37.5 -98t-99.5 -37t-101 37t-39 98z" />
<glyph unicode="&#xc5;" horiz-adv-x="1413" d="M20 0l510 1413h398l504 -1413h-349l-129 399h-460l-132 -399h-342zM500 1677q0 89 64 146t165 57t165 -57t64 -146t-64 -144.5t-165 -55.5t-165 55.5t-64 144.5zM573 651h301l-149 484zM653 1677q0 -36 21.5 -59t54.5 -23t54.5 23t21.5 59q0 37 -21 59.5t-55 22.5 t-55 -22.5t-21 -59.5z" />
<glyph unicode="&#xc6;" horiz-adv-x="1994" d="M-82 0l756 1413h1241v-250h-764l35 -329h682v-250h-658l35 -332h690v-252h-985l-45 446h-424l-223 -446h-340zM606 696h275l-47 457z" />
<glyph unicode="&#xc7;" horiz-adv-x="1484" d="M106 698q0 174 53.5 316t147 235t220 143t272.5 50q143 0 257.5 -37t190 -103.5t119.5 -155t55 -194.5l2 -20h-321l-4 20q-51 252 -303 252q-158 0 -254.5 -128.5t-96.5 -358.5q0 -253 97.5 -380.5t251.5 -127.5q122 0 198 70t101 198l4 21h321l-2 -21 q-23 -229 -182 -362t-414 -144l-28 -55q188 -24 188 -162q0 -65 -44.5 -107.5t-114.5 -59.5t-165 -17q-69 0 -112 14v129q63 -16 116 -16q123 0 123 63q0 39 -44 55t-152 9l78 156q-253 38 -405.5 226.5t-152.5 491.5z" />
<glyph unicode="&#xc8;" horiz-adv-x="1282" d="M174 0v1413h1028v-250h-706v-329h659v-250h-659v-332h727v-252h-1049zM350 1747h287l168 -242h-176z" />
<glyph unicode="&#xc9;" horiz-adv-x="1282" d="M174 0v1413h1028v-250h-706v-329h659v-250h-659v-332h727v-252h-1049zM594 1505l168 242h287l-279 -242h-176z" />
<glyph unicode="&#xca;" horiz-adv-x="1282" d="M174 0v1413h1028v-250h-706v-329h659v-250h-659v-332h727v-252h-1049zM436 1505l129 242h260l129 -242h-194l-68 146l-63 -146h-193z" />
<glyph unicode="&#xcb;" horiz-adv-x="1282" d="M174 0v1413h1028v-250h-706v-329h659v-250h-659v-332h727v-252h-1049zM367 1622q0 61 38.5 98t100.5 37t99.5 -37t37.5 -98t-37.5 -98t-99.5 -37t-100.5 37t-38.5 98zM745 1622q0 61 39 98t101 37t99.5 -37t37.5 -98t-37.5 -98t-99.5 -37t-101 37t-39 98z" />
<glyph unicode="&#xcc;" horiz-adv-x="618" d="M-10 1747h286l168 -242h-176zM174 0v1413h322v-1413h-322z" />
<glyph unicode="&#xcd;" horiz-adv-x="618" d="M174 0v1413h322v-1413h-322zM233 1505l168 242h287l-278 -242h-177z" />
<glyph unicode="&#xce;" horiz-adv-x="618" d="M76 1505l129 242h260l129 -242h-195l-67 146l-64 -146h-192zM174 0v1413h322v-1413h-322z" />
<glyph unicode="&#xcf;" horiz-adv-x="618" d="M6 1622q0 61 38.5 98t100.5 37t100 -37t38 -98t-38 -98t-100 -37t-100.5 37t-38.5 98zM174 0v1413h322v-1413h-322zM385 1622q0 61 38.5 98t100.5 37t100 -37t38 -98t-38 -98t-100 -37t-100.5 37t-38.5 98z" />
<glyph unicode="&#xd0;" horiz-adv-x="1525" d="M66 606v176h120v631h508q108 0 180 -8q126 -14 230.5 -61t186 -128.5t126.5 -206.5t45 -284t-46 -289.5t-126.5 -218.5t-186.5 -141t-231 -68q-72 -8 -180 -8h-506v606h-120zM506 252h145q97 0 142 4q152 18 242.5 141t90.5 324q0 195 -88.5 306.5t-240.5 129.5 q-70 6 -144 6h-147v-381h227v-176h-227v-354z" />
<glyph unicode="&#xd1;" horiz-adv-x="1587" d="M174 0v1413h412l569 -1040q-10 184 -10 411v629h319v-1413h-428l-553 1012q13 -195 13 -398v-614h-322zM506 1524q0 127 40 184t124 57q43 0 74.5 -6.5t82.5 -27.5q71 -29 93 -29q17 0 23.5 13t6.5 44h168q0 -127 -40 -184t-126 -57q-73 0 -157 34q-71 29 -93 29 q-30 0 -30 -57h-166z" />
<glyph unicode="&#xd2;" horiz-adv-x="1587" d="M106 707q0 337 191.5 536t519.5 199q326 0 517.5 -199t191.5 -536q0 -336 -191.5 -536t-517.5 -200q-327 0 -519 200t-192 536zM438 707q0 -235 100.5 -366.5t278.5 -131.5q176 0 276.5 131.5t100.5 366.5q0 236 -100.5 366.5t-276.5 130.5q-178 0 -278.5 -130.5 t-100.5 -366.5zM473 1747h287l168 -242h-176z" />
<glyph unicode="&#xd3;" horiz-adv-x="1587" d="M106 707q0 337 191.5 536t519.5 199q326 0 517.5 -199t191.5 -536q0 -336 -191.5 -536t-517.5 -200q-327 0 -519 200t-192 536zM438 707q0 -235 100.5 -366.5t278.5 -131.5q176 0 276.5 131.5t100.5 366.5q0 236 -100.5 366.5t-276.5 130.5q-178 0 -278.5 -130.5 t-100.5 -366.5zM717 1505l168 242h286l-278 -242h-176z" />
<glyph unicode="&#xd4;" horiz-adv-x="1587" d="M106 707q0 337 191.5 536t519.5 199q326 0 517.5 -199t191.5 -536q0 -336 -191.5 -536t-517.5 -200q-327 0 -519 200t-192 536zM438 707q0 -235 100.5 -366.5t278.5 -131.5q176 0 276.5 131.5t100.5 366.5q0 236 -100.5 366.5t-276.5 130.5q-178 0 -278.5 -130.5 t-100.5 -366.5zM559 1505l129 242h260l129 -242h-194l-68 146l-63 -146h-193z" />
<glyph unicode="&#xd5;" horiz-adv-x="1587" d="M106 707q0 337 191.5 536t519.5 199q326 0 517.5 -199t191.5 -536q0 -336 -191.5 -536t-517.5 -200q-327 0 -519 200t-192 536zM438 707q0 -235 100.5 -366.5t278.5 -131.5q176 0 276.5 131.5t100.5 366.5q0 236 -100.5 366.5t-276.5 130.5q-178 0 -278.5 -130.5 t-100.5 -366.5zM512 1524q0 127 40 184t124 57q43 0 75.5 -6.5t82.5 -27.5q71 -29 92 -29q17 0 23.5 13t6.5 44h168q0 -127 -40 -184t-126 -57q-73 0 -157 34q-71 29 -92 29q-31 0 -31 -57h-166z" />
<glyph unicode="&#xd6;" horiz-adv-x="1587" d="M106 707q0 337 191.5 536t519.5 199q326 0 517.5 -199t191.5 -536q0 -336 -191.5 -536t-517.5 -200q-327 0 -519 200t-192 536zM438 707q0 -235 100.5 -366.5t278.5 -131.5q176 0 276.5 131.5t100.5 366.5q0 236 -100.5 366.5t-276.5 130.5q-178 0 -278.5 -130.5 t-100.5 -366.5zM489 1622q0 61 39 98t101 37t99.5 -37t37.5 -98t-37.5 -98t-99.5 -37t-101 37t-39 98zM868 1622q0 61 39 98t101 37t99.5 -37t37.5 -98t-37.5 -98t-99.5 -37t-101 37t-39 98z" />
<glyph unicode="&#xd7;" d="M221 358l307 308l-307 307l129 129l307 -307l308 307l129 -129l-308 -307l308 -308l-129 -127l-308 308l-307 -308z" />
<glyph unicode="&#xd8;" horiz-adv-x="1595" d="M98 115l138 137q-125 189 -125 455q0 337 191 536t517 199q281 0 461 -148l133 133l127 -129l-137 -137q127 -184 127 -454q0 -336 -192 -536t-519 -200q-275 0 -459 148l-133 -133zM442 707q0 -119 29 -220l608 609q-95 108 -260 108q-176 0 -276.5 -130.5 t-100.5 -366.5zM561 319q96 -110 258 -110q178 0 278.5 131.5t100.5 366.5q0 130 -29 221z" />
<glyph unicode="&#xd9;" horiz-adv-x="1452" d="M154 596v817h319v-864q0 -65 2 -94q9 -118 80 -182t201 -64t200 64t78 182q4 29 4 94v864h320v-817q0 -106 -6 -180q-6 -93 -42.5 -170.5t-105.5 -140.5t-183.5 -98.5t-264.5 -35.5t-264.5 35.5t-184 98.5t-106 140.5t-43.5 170.5q-4 74 -4 180zM412 1747h286l168 -242 h-176z" />
<glyph unicode="&#xda;" horiz-adv-x="1452" d="M154 596v817h319v-864q0 -65 2 -94q9 -118 80 -182t201 -64t200 64t78 182q4 29 4 94v864h320v-817q0 -106 -6 -180q-6 -93 -42.5 -170.5t-105.5 -140.5t-183.5 -98.5t-264.5 -35.5t-264.5 35.5t-184 98.5t-106 140.5t-43.5 170.5q-4 74 -4 180zM655 1505l168 242h287 l-279 -242h-176z" />
<glyph unicode="&#xdb;" horiz-adv-x="1452" d="M154 596v817h319v-864q0 -65 2 -94q9 -118 80 -182t201 -64t200 64t78 182q4 29 4 94v864h320v-817q0 -106 -6 -180q-6 -93 -42.5 -170.5t-105.5 -140.5t-183.5 -98.5t-264.5 -35.5t-264.5 35.5t-184 98.5t-106 140.5t-43.5 170.5q-4 74 -4 180zM498 1505l129 242h260 l129 -242h-195l-67 146l-64 -146h-192z" />
<glyph unicode="&#xdc;" horiz-adv-x="1452" d="M154 596v817h319v-864q0 -65 2 -94q9 -118 80 -182t201 -64t200 64t78 182q4 29 4 94v864h320v-817q0 -106 -6 -180q-6 -93 -42.5 -170.5t-105.5 -140.5t-183.5 -98.5t-264.5 -35.5t-264.5 35.5t-184 98.5t-106 140.5t-43.5 170.5q-4 74 -4 180zM428 1622q0 61 38.5 98 t100.5 37t100 -37t38 -98t-38 -98t-100 -37t-100.5 37t-38.5 98zM807 1622q0 61 38.5 98t100.5 37t99.5 -37t37.5 -98t-37.5 -98t-99.5 -37t-100.5 37t-38.5 98z" />
<glyph unicode="&#xdd;" horiz-adv-x="1316" d="M31 1413h362l307 -590l295 590h353l-498 -868v-545h-320v541zM590 1505l168 242h286l-278 -242h-176z" />
<glyph unicode="&#xde;" horiz-adv-x="1325" d="M174 0v1413h322v-180h204q121 0 211 -10q164 -20 266.5 -125.5t102.5 -292.5t-102.5 -293.5t-266.5 -126.5q-90 -10 -211 -10h-204v-375h-322zM496 627h174q52 0 114 4q160 20 160 174q0 152 -160 172q-31 4 -114 4h-174v-354z" />
<glyph unicode="&#xdf;" horiz-adv-x="1335" d="M121 0v907q0 119 4 193q13 211 158.5 327.5t388.5 116.5q244 0 382 -106t138 -281q0 -102 -55 -182q-65 -36 -94 -74t-29 -86q0 -43 24.5 -84t81.5 -96q88 -88 121 -153t33 -175q0 -101 -58 -174.5t-147.5 -107t-198.5 -33.5q-162 0 -262 20v244q106 -27 193 -27 q67 0 101 30.5t34 86.5q0 44 -22.5 85.5t-77.5 94.5q-91 91 -125.5 149t-34.5 140q0 151 149 238q29 42 29 100q0 74 -48.5 114t-146.5 40q-97 0 -152 -55t-61 -156q-4 -58 -4 -172v-924h-321z" />
<glyph unicode="&#xe0;" horiz-adv-x="1173" d="M66 291q0 180 154.5 278.5t441.5 98.5h69v18q0 57 -4 94q-5 52 -44 85.5t-108 33.5q-74 0 -115.5 -44t-47.5 -126h-308q3 122 68.5 211.5t173.5 134.5t242 45q118 0 205 -24.5t139 -71t79 -105.5t33 -135q7 -89 7 -176v-332q0 -125 20 -276h-313l-23 160l-49 -117 q-115 -72 -270 -72q-94 0 -172.5 36t-128 110t-49.5 174zM250 1423h287l172 -249h-177zM395 317q0 -60 40 -92t108 -32q77 0 132.5 54t55.5 150v80q-155 12 -245.5 -28t-90.5 -132z" />
<glyph unicode="&#xe1;" horiz-adv-x="1173" d="M66 291q0 180 154.5 278.5t441.5 98.5h69v18q0 57 -4 94q-5 52 -44 85.5t-108 33.5q-74 0 -115.5 -44t-47.5 -126h-308q3 122 68.5 211.5t173.5 134.5t242 45q118 0 205 -24.5t139 -71t79 -105.5t33 -135q7 -89 7 -176v-332q0 -125 20 -276h-313l-23 160l-49 -117 q-115 -72 -270 -72q-94 0 -172.5 36t-128 110t-49.5 174zM395 317q0 -60 40 -92t108 -32q77 0 132.5 54t55.5 150v80q-155 12 -245.5 -28t-90.5 -132zM485 1174l172 249h287l-282 -249h-177z" />
<glyph unicode="&#xe2;" horiz-adv-x="1173" d="M66 291q0 180 154.5 278.5t441.5 98.5h69v18q0 57 -4 94q-5 52 -44 85.5t-108 33.5q-74 0 -115.5 -44t-47.5 -126h-308q3 122 68.5 211.5t173.5 134.5t242 45q118 0 205 -24.5t139 -71t79 -105.5t33 -135q7 -89 7 -176v-332q0 -125 20 -276h-313l-23 160l-49 -117 q-115 -72 -270 -72q-94 0 -172.5 36t-128 110t-49.5 174zM328 1174l129 249h260l129 -249h-193l-67 147l-68 -147h-190zM395 317q0 -60 40 -92t108 -32q77 0 132.5 54t55.5 150v80q-155 12 -245.5 -28t-90.5 -132z" />
<glyph unicode="&#xe3;" horiz-adv-x="1173" d="M66 291q0 180 154.5 278.5t441.5 98.5h69v18q0 57 -4 94q-5 52 -44 85.5t-108 33.5q-74 0 -115.5 -44t-47.5 -126h-308q3 122 68.5 211.5t173.5 134.5t242 45q118 0 205 -24.5t139 -71t79 -105.5t33 -135q7 -89 7 -176v-332q0 -125 20 -276h-313l-23 160l-49 -117 q-115 -72 -270 -72q-94 0 -172.5 36t-128 110t-49.5 174zM281 1190q0 127 39.5 184.5t123.5 57.5q43 0 75 -7t83 -30q71 -29 92 -29q17 0 24 13.5t7 45.5h168q0 -128 -40 -185.5t-126 -57.5q-66 0 -158 37q-76 28 -92 28q-31 0 -31 -57h-165zM395 317q0 -60 40 -92t108 -32 q77 0 132.5 54t55.5 150v80q-155 12 -245.5 -28t-90.5 -132z" />
<glyph unicode="&#xe4;" horiz-adv-x="1173" d="M66 291q0 180 154.5 278.5t441.5 98.5h69v18q0 57 -4 94q-5 52 -44 85.5t-108 33.5q-74 0 -115.5 -44t-47.5 -126h-308q3 122 68.5 211.5t173.5 134.5t242 45q118 0 205 -24.5t139 -71t79 -105.5t33 -135q7 -89 7 -176v-332q0 -125 20 -276h-313l-23 160l-49 -117 q-115 -72 -270 -72q-94 0 -172.5 36t-128 110t-49.5 174zM256 1309q0 61 38.5 98t100.5 37t101 -37t39 -98t-39 -98t-101 -37t-100.5 37t-38.5 98zM395 317q0 -60 40 -92t108 -32q77 0 132.5 54t55.5 150v80q-155 12 -245.5 -28t-90.5 -132zM639 1309q0 61 37.5 98t99.5 37 t100.5 -37t38.5 -98t-38.5 -98t-100.5 -37t-99.5 37t-37.5 98z" />
<glyph unicode="&#xe5;" horiz-adv-x="1173" d="M66 291q0 180 154.5 278.5t441.5 98.5h69v18q0 57 -4 94q-5 52 -44 85.5t-108 33.5q-74 0 -115.5 -44t-47.5 -126h-308q3 122 68.5 211.5t173.5 134.5t242 45q118 0 205 -24.5t139 -71t79 -105.5t33 -135q7 -89 7 -176v-332q0 -125 20 -276h-313l-23 160l-49 -117 q-115 -72 -270 -72q-94 0 -172.5 36t-128 110t-49.5 174zM356 1368q0 92 64 149.5t166 57.5q101 0 165 -57.5t64 -149.5t-64 -149.5t-165 -57.5q-102 0 -166 57.5t-64 149.5zM395 317q0 -60 40 -92t108 -32q77 0 132.5 54t55.5 150v80q-155 12 -245.5 -28t-90.5 -132z M510 1368q0 -41 21 -64.5t55 -23.5t55 23.5t21 64.5t-21 64.5t-55 23.5t-55 -23.5t-21 -64.5z" />
<glyph unicode="&#xe6;" horiz-adv-x="1951" d="M66 299q0 183 158 275t442 92h106v24q0 209 -180 209q-79 0 -127.5 -44.5t-52.5 -125.5h-308q1 122 66 211.5t173.5 134.5t244.5 45q289 0 385 -190q65 94 170 142t237 48q121 0 220.5 -45.5t162.5 -123t97 -177t34 -209.5q0 -43 -6 -102h-768q24 -270 230 -270 q86 0 140 43t66 120h318q-42 -185 -183 -285t-345 -100q-311 0 -445 236l-117 -150q-122 -86 -305 -86q-189 0 -301 85t-112 243zM395 324q0 -131 166 -131q96 0 154.5 65t58.5 178v27q-196 9 -287.5 -22t-91.5 -117zM1130 666h431q-14 114 -67 173.5t-142 59.5 q-88 0 -146 -58.5t-76 -174.5z" />
<glyph unicode="&#xe7;" horiz-adv-x="1173" d="M53 537q0 137 44 248.5t120 184t177 111.5t218 39q223 0 360.5 -122t149.5 -310h-313q-32 211 -205 211q-104 0 -162.5 -86.5t-58.5 -255.5q0 -184 58.5 -274t162.5 -90q75 0 129 50.5t72 143.5h317q-29 -187 -155.5 -293.5t-319.5 -120.5l-31 -57q189 -24 189 -162 q0 -65 -44.5 -107.5t-114.5 -59.5t-165 -17q-69 0 -112 14v129q63 -16 116 -16q123 0 123 63q0 39 -44 55t-152 9l75 153q-196 30 -315 175t-119 385z" />
<glyph unicode="&#xe8;" horiz-adv-x="1204" d="M53 543q0 164 68 294.5t198 206.5t299 76q126 0 228.5 -45.5t167 -123t99 -176.5t34.5 -210q0 -43 -6 -102h-766q13 -148 71.5 -209t157.5 -61q84 0 138.5 43t68.5 120h317q-43 -186 -184.5 -285.5t-345.5 -99.5q-116 0 -214 36t-172.5 105t-116.5 179.5t-42 251.5z M270 1423h287l172 -249h-176zM383 666h430q-13 115 -66.5 174t-142.5 59q-182 0 -221 -233z" />
<glyph unicode="&#xe9;" horiz-adv-x="1204" d="M53 543q0 164 68 294.5t198 206.5t299 76q126 0 228.5 -45.5t167 -123t99 -176.5t34.5 -210q0 -43 -6 -102h-766q13 -148 71.5 -209t157.5 -61q84 0 138.5 43t68.5 120h317q-43 -186 -184.5 -285.5t-345.5 -99.5q-116 0 -214 36t-172.5 105t-116.5 179.5t-42 251.5z M383 666h430q-13 115 -66.5 174t-142.5 59q-182 0 -221 -233zM506 1174l172 249h287l-283 -249h-176z" />
<glyph unicode="&#xea;" horiz-adv-x="1204" d="M53 543q0 164 68 294.5t198 206.5t299 76q126 0 228.5 -45.5t167 -123t99 -176.5t34.5 -210q0 -43 -6 -102h-766q13 -148 71.5 -209t157.5 -61q84 0 138.5 43t68.5 120h317q-43 -186 -184.5 -285.5t-345.5 -99.5q-116 0 -214 36t-172.5 105t-116.5 179.5t-42 251.5z M348 1174l129 249h260l129 -249h-192l-68 147l-67 -147h-191zM383 666h430q-13 115 -66.5 174t-142.5 59q-182 0 -221 -233z" />
<glyph unicode="&#xeb;" horiz-adv-x="1204" d="M53 543q0 164 68 294.5t198 206.5t299 76q126 0 228.5 -45.5t167 -123t99 -176.5t34.5 -210q0 -43 -6 -102h-766q13 -148 71.5 -209t157.5 -61q84 0 138.5 43t68.5 120h317q-43 -186 -184.5 -285.5t-345.5 -99.5q-116 0 -214 36t-172.5 105t-116.5 179.5t-42 251.5z M276 1309q0 61 39 98t101 37t100.5 -37t38.5 -98t-38.5 -98t-100.5 -37t-101 37t-39 98zM383 666h430q-13 115 -66.5 174t-142.5 59q-182 0 -221 -233zM659 1309q0 61 38 98t100 37t100.5 -37t38.5 -98t-38.5 -98t-100.5 -37t-100 37t-38 98z" />
<glyph unicode="&#xec;" horiz-adv-x="565" d="M-55 1423h286l172 -249h-176zM121 0v1092h321v-1092h-321z" />
<glyph unicode="&#xed;" horiz-adv-x="565" d="M121 0v1092h321v-1092h-321zM180 1174l172 249h287l-283 -249h-176z" />
<glyph unicode="&#xee;" horiz-adv-x="565" d="M23 1174l129 249h260l129 -249h-193l-67 147l-68 -147h-190zM121 0v1092h321v-1092h-321z" />
<glyph unicode="&#xef;" horiz-adv-x="565" d="M-49 1309q0 61 38.5 98t100.5 37t100.5 -37t38.5 -98t-38.5 -98t-100.5 -37t-100.5 37t-38.5 98zM121 0v1092h321v-1092h-321zM334 1309q0 61 37.5 98t99.5 37t100.5 -37t38.5 -98t-38.5 -98t-100.5 -37t-99.5 37t-37.5 98z" />
<glyph unicode="&#xf0;" horiz-adv-x="1316" d="M53 543q0 136 41.5 247t114 182t168 109.5t205.5 38.5q100 0 200 -59l90 -115q-19 149 -108 260l-264 -61l-29 137l162 39q-64 42 -148 76l267 129q129 -58 211 -129l167 39l29 -140l-86 -20q154 -222 154 -647q0 -141 -34 -255t-90 -187.5t-132 -123.5t-157 -71 t-169 -21q-147 0 -260.5 42t-185.5 119t-109 180.5t-37 230.5zM389 547q0 -168 66.5 -253t191.5 -85q120 0 184 86t64 237v60q0 136 -69.5 214.5t-176.5 78.5q-124 0 -192 -91t-68 -247z" />
<glyph unicode="&#xf1;" horiz-adv-x="1292" d="M121 0v1092h321v-172l90 131q104 69 254 69q170 0 269.5 -78.5t118.5 -222.5q10 -69 10 -203v-616h-322v567q0 97 -4 152q-6 86 -54.5 133t-139.5 47q-101 0 -161.5 -96.5t-60.5 -296.5v-506h-321zM344 1190q0 126 40 184t124 58q43 0 75 -7t83 -30q71 -29 92 -29 q17 0 23.5 13t6.5 46h168q0 -128 -40 -185.5t-125 -57.5q-66 0 -158 37q-76 28 -92 28q-31 0 -31 -57h-166z" />
<glyph unicode="&#xf2;" horiz-adv-x="1255" d="M53 547q0 259 154 416t422 157q267 0 421 -157.5t154 -415.5q0 -259 -154.5 -417.5t-420.5 -158.5q-268 0 -422 158.5t-154 417.5zM293 1423h287l172 -249h-177zM383 547q0 -169 65 -261.5t181 -92.5q115 0 179 92.5t64 261.5t-64 260.5t-179 91.5q-116 0 -181 -91.5 t-65 -260.5z" />
<glyph unicode="&#xf3;" horiz-adv-x="1255" d="M53 547q0 259 154 416t422 157q267 0 421 -157.5t154 -415.5q0 -259 -154.5 -417.5t-420.5 -158.5q-268 0 -422 158.5t-154 417.5zM383 547q0 -169 65 -261.5t181 -92.5q115 0 179 92.5t64 261.5t-64 260.5t-179 91.5q-116 0 -181 -91.5t-65 -260.5zM528 1174l172 249 h287l-282 -249h-177z" />
<glyph unicode="&#xf4;" horiz-adv-x="1255" d="M53 547q0 259 154 416t422 157q267 0 421 -157.5t154 -415.5q0 -259 -154.5 -417.5t-420.5 -158.5q-268 0 -422 158.5t-154 417.5zM371 1174l129 249h260l129 -249h-193l-67 147l-68 -147h-190zM383 547q0 -169 65 -261.5t181 -92.5q115 0 179 92.5t64 261.5t-64 260.5 t-179 91.5q-116 0 -181 -91.5t-65 -260.5z" />
<glyph unicode="&#xf5;" horiz-adv-x="1255" d="M53 547q0 259 154 416t422 157q267 0 421 -157.5t154 -415.5q0 -259 -154.5 -417.5t-420.5 -158.5q-268 0 -422 158.5t-154 417.5zM324 1190q0 127 39.5 184.5t123.5 57.5q43 0 75 -7t83 -30q71 -29 92 -29q17 0 24 13.5t7 45.5h168q0 -128 -40 -185.5t-126 -57.5 q-66 0 -158 37q-76 28 -92 28q-31 0 -31 -57h-165zM383 547q0 -169 65 -261.5t181 -92.5q115 0 179 92.5t64 261.5t-64 260.5t-179 91.5q-116 0 -181 -91.5t-65 -260.5z" />
<glyph unicode="&#xf6;" horiz-adv-x="1255" d="M53 547q0 259 154 416t422 157q267 0 421 -157.5t154 -415.5q0 -259 -154.5 -417.5t-420.5 -158.5q-268 0 -422 158.5t-154 417.5zM299 1309q0 61 38.5 98t100.5 37t101 -37t39 -98t-39 -98t-101 -37t-100.5 37t-38.5 98zM383 547q0 -169 65 -261.5t181 -92.5 q115 0 179 92.5t64 261.5t-64 260.5t-179 91.5q-116 0 -181 -91.5t-65 -260.5zM682 1309q0 61 37.5 98t99.5 37t100.5 -37t38.5 -98t-38.5 -98t-100.5 -37t-99.5 37t-37.5 98z" />
<glyph unicode="&#xf7;" d="M174 563v176h967v-176h-967zM506 279q0 64 44 107.5t107 43.5q65 0 108.5 -43.5t43.5 -107.5q0 -65 -43.5 -108.5t-108.5 -43.5q-63 0 -107 44t-44 108zM506 1020q0 64 44 107.5t107 43.5q65 0 108.5 -43.5t43.5 -107.5t-43.5 -108t-108.5 -44q-63 0 -107 44t-44 108z " />
<glyph unicode="&#xf8;" horiz-adv-x="1298" d="M45 72l121 121q-103 142 -103 354q0 258 154.5 415.5t421.5 157.5q208 0 354 -100l131 131l129 -131l-133 -133q94 -142 94 -340q0 -259 -154.5 -417.5t-420.5 -158.5q-199 0 -342 92l-123 -122zM393 547q0 -59 10 -117l400 399q-64 70 -164 70q-116 0 -181 -91.5 t-65 -260.5zM485 252q59 -59 154 -59q116 0 180 92t64 262q0 53 -6 96z" />
<glyph unicode="&#xf9;" horiz-adv-x="1286" d="M102 451v641h320v-572q0 -76 8 -149q22 -176 197 -176q100 0 158.5 82t58.5 231v584h319v-1092h-319v186l-92 -145q-106 -70 -254 -70q-162 0 -263.5 79t-121.5 198q-11 76 -11 203zM297 1423h287l172 -249h-176z" />
<glyph unicode="&#xfa;" horiz-adv-x="1286" d="M102 451v641h320v-572q0 -76 8 -149q22 -176 197 -176q100 0 158.5 82t58.5 231v584h319v-1092h-319v186l-92 -145q-106 -70 -254 -70q-162 0 -263.5 79t-121.5 198q-11 76 -11 203zM532 1174l173 249h286l-282 -249h-177z" />
<glyph unicode="&#xfb;" horiz-adv-x="1286" d="M102 451v641h320v-572q0 -76 8 -149q22 -176 197 -176q100 0 158.5 82t58.5 231v584h319v-1092h-319v186l-92 -145q-106 -70 -254 -70q-162 0 -263.5 79t-121.5 198q-11 76 -11 203zM375 1174l129 249h260l129 -249h-193l-67 147l-68 -147h-190z" />
<glyph unicode="&#xfc;" horiz-adv-x="1286" d="M102 451v641h320v-572q0 -76 8 -149q22 -176 197 -176q100 0 158.5 82t58.5 231v584h319v-1092h-319v186l-92 -145q-106 -70 -254 -70q-162 0 -263.5 79t-121.5 198q-11 76 -11 203zM303 1309q0 61 38.5 98t100.5 37t101 -37t39 -98t-39 -98t-101 -37t-100.5 37t-38.5 98 zM686 1309q0 61 37.5 98t99.5 37t101 -37t39 -98t-39 -98t-101 -37t-99.5 37t-37.5 98z" />
<glyph unicode="&#xfd;" horiz-adv-x="1196" d="M0 1092h358l250 -844l248 844h350l-436 -1115q-93 -235 -196.5 -321t-284.5 -86q-79 0 -139 8v215q29 -4 90 -4q71 0 117.5 29t76.5 98l15 35zM492 1174l172 249h286l-282 -249h-176z" />
<glyph unicode="&#xfe;" horiz-adv-x="1341" d="M121 -401v1906h321v-577l82 121q45 34 120 52.5t161 18.5q222 0 352.5 -153t130.5 -398q0 -143 -41.5 -258.5t-113.5 -188.5t-165 -112t-200 -39q-69 0 -141.5 16t-112.5 42l-72 114v-544h-321zM442 510q0 -85 21.5 -148.5t58 -99t79 -52.5t91.5 -17q121 0 193.5 91.5 t72.5 264.5q0 160 -70.5 255t-185.5 95q-119 0 -189.5 -81.5t-70.5 -258.5v-49z" />
<glyph unicode="&#xff;" horiz-adv-x="1196" d="M0 1092h358l250 -844l248 844h350l-436 -1115q-93 -235 -196.5 -321t-284.5 -86q-79 0 -139 8v215q29 -4 90 -4q71 0 117.5 29t76.5 98l15 35zM262 1309q0 61 38.5 98t100.5 37t101 -37t39 -98t-39 -98t-101 -37t-100.5 37t-38.5 98zM645 1309q0 61 37.5 98t99.5 37 t101 -37t39 -98t-39 -98t-101 -37t-99.5 37t-37.5 98z" />
<glyph unicode="&#x152;" horiz-adv-x="2301" d="M106 707q0 329 181.5 532t462.5 203q140 0 221 -25t159 -92l64 -141v229h1026v-250h-707v-329h662v-250h-662v-332h728v-252h-1047v229l-64 -139q-77 -68 -159.5 -93.5t-220.5 -25.5q-184 0 -330.5 91t-230 259.5t-83.5 385.5zM438 707q0 -233 101 -365.5t278 -132.5 q175 0 276 132.5t101 365.5q0 235 -100.5 366t-276.5 131q-178 0 -278.5 -131t-100.5 -366z" />
<glyph unicode="&#x153;" horiz-adv-x="2025" d="M53 547q0 259 154 416t422 157q279 0 413 -219q133 219 412 219q121 0 220.5 -45.5t162.5 -123t97 -177t34 -209.5q0 -43 -6 -102h-768q24 -270 229 -270q86 0 140.5 43t66.5 120h318q-42 -185 -182.5 -285t-340.5 -100q-265 0 -393 207q-130 -207 -403 -207 q-268 0 -422 158.5t-154 417.5zM383 547q0 -169 65 -261.5t181 -92.5q115 0 179 92.5t64 261.5t-64 260.5t-179 91.5q-116 0 -181 -91.5t-65 -260.5zM1204 666h430q-14 114 -67 173.5t-142 59.5q-88 0 -145.5 -58.5t-75.5 -174.5z" />
<glyph unicode="&#x178;" horiz-adv-x="1316" d="M31 1413h362l307 -590l295 590h353l-498 -868v-545h-320v541zM362 1622q0 61 39 98t101 37t99.5 -37t37.5 -98t-37.5 -98t-99.5 -37t-101 37t-39 98zM741 1622q0 61 39 98t101 37t99.5 -37t37.5 -98t-37.5 -98t-99.5 -37t-101 37t-39 98z" />
<glyph unicode="&#x2c6;" horiz-adv-x="614" d="M49 1174l129 249h260l129 -249h-192l-68 147l-67 -147h-191z" />
<glyph unicode="&#x2dc;" horiz-adv-x="614" d="M2 1190q0 126 40 184t124 58q43 0 75 -7t83 -30q71 -29 92 -29q17 0 23.5 13t6.5 46h168q0 -128 -40 -185.5t-125 -57.5q-66 0 -158 37q-76 28 -92 28q-31 0 -31 -57h-166z" />
<glyph unicode="&#x2000;" horiz-adv-x="940" />
<glyph unicode="&#x2001;" horiz-adv-x="1880" />
<glyph unicode="&#x2002;" horiz-adv-x="940" />
<glyph unicode="&#x2003;" horiz-adv-x="1880" />
<glyph unicode="&#x2004;" horiz-adv-x="626" />
<glyph unicode="&#x2005;" horiz-adv-x="470" />
<glyph unicode="&#x2006;" horiz-adv-x="313" />
<glyph unicode="&#x2007;" horiz-adv-x="313" />
<glyph unicode="&#x2008;" horiz-adv-x="235" />
<glyph unicode="&#x2009;" horiz-adv-x="376" />
<glyph unicode="&#x200a;" horiz-adv-x="104" />
<glyph unicode="&#x2010;" horiz-adv-x="622" d="M66 492v176h491v-176h-491z" />
<glyph unicode="&#x2011;" horiz-adv-x="622" d="M66 492v176h491v-176h-491z" />
<glyph unicode="&#x2012;" horiz-adv-x="622" d="M66 492v176h491v-176h-491z" />
<glyph unicode="&#x2013;" horiz-adv-x="1024" d="M174 508v176h676v-176h-676z" />
<glyph unicode="&#x2014;" horiz-adv-x="2048" d="M174 508v176h1700v-176h-1700z" />
<glyph unicode="&#x2018;" horiz-adv-x="620" d="M117 924v20l215 561h252l-162 -581h-305z" />
<glyph unicode="&#x2019;" horiz-adv-x="620" d="M37 924l164 581h303v-20l-215 -561h-252z" />
<glyph unicode="&#x201a;" horiz-adv-x="522" d="M-55 -252l161 567h306v-20l-213 -547h-254z" />
<glyph unicode="&#x201c;" horiz-adv-x="1077" d="M117 924v20l215 563h252l-164 -583h-303zM573 924v20l215 563h252l-163 -583h-304z" />
<glyph unicode="&#x201d;" horiz-adv-x="1077" d="M37 924l164 581h303v-20l-215 -561h-252zM494 924l161 581h306v-20l-216 -561h-251z" />
<glyph unicode="&#x201e;" horiz-adv-x="976" d="M-55 -252l161 567h306v-20l-213 -547h-254zM399 -252l164 567h303v-20l-213 -547h-254z" />
<glyph unicode="&#x2022;" horiz-adv-x="788" d="M141 625q0 113 70 183.5t184 70.5q112 0 182 -70.5t70 -183.5t-69.5 -182.5t-182.5 -69.5q-114 0 -184 69.5t-70 182.5z" />
<glyph unicode="&#x2026;" horiz-adv-x="1587" d="M80 158q0 83 52 134.5t134 51.5q83 0 135 -51.5t52 -134.5q0 -82 -52 -134.5t-135 -52.5q-82 0 -134 52.5t-52 134.5zM612 158q0 83 52.5 134.5t134.5 51.5q83 0 134.5 -51.5t51.5 -134.5q0 -82 -51.5 -134.5t-134.5 -52.5q-82 0 -134.5 52.5t-52.5 134.5zM1145 158 q0 83 52 134.5t134 51.5q83 0 135 -51.5t52 -134.5q0 -82 -52 -134.5t-135 -52.5q-82 0 -134 52.5t-52 134.5z" />
<glyph unicode="&#x202f;" horiz-adv-x="376" />
<glyph unicode="&#x2039;" horiz-adv-x="901" d="M287 508l280 340h236l-281 -340l281 -340h-236z" />
<glyph unicode="&#x203a;" horiz-adv-x="849" d="M96 168l281 340l-281 340h236l280 -340l-280 -340h-236z" />
<glyph unicode="&#x205f;" horiz-adv-x="470" />
<glyph unicode="&#x20ac;" d="M72 477l37 176h114v47q0 40 2 58h-96l37 176h80q54 253 217.5 380.5t398.5 127.5q271 0 395 -127l-116 -199q-60 47 -122 67.5t-142 20.5q-233 0 -293 -270h503l-38 -176h-488v-49v-56h467l-35 -176h-411q31 -147 106 -207.5t199 -60.5q165 0 301 80v-234 q-78 -45 -161.5 -64.5t-213.5 -19.5q-494 0 -573 506h-168z" />
<glyph unicode="&#x2122;" horiz-adv-x="1101" d="M45 1262v90h414v-90h-148v-328h-118v328h-148zM508 934v416h178l74 -297l71 297h173v-416h-119l4 291l-72 -283h-121l-71 281l2 -289h-119z" />
<glyph unicode="&#x25fc;" horiz-adv-x="1095" d="M0 0v1096h1096v-1096h-1096z" />
</font>
</defs>
</svg>
