<?xml version="1.0" standalone="no"?>
<!DOCTYPE svg PUBLIC "-//W3C//DTD SVG 1.1//EN" "http://www.w3.org/Graphics/SVG/1.1/DTD/svg11.dtd" >
<svg xmlns="../../../../external.html?link=http://www.w3.org/2000/svg">
<metadata>Generated by IcoMoon</metadata>
<defs>
<font id="icomoon" horiz-adv-x="512">
<font-face units-per-em="512" ascent="480" descent="-32" />
<missing-glyph horiz-adv-x="512" />
<glyph unicode="&#x20;" d="" horiz-adv-x="256" />
<glyph unicode="&#xe600;" d="M21.777 66.134c-0.904 0-1.826 0.137-2.73 0.426-4.471 1.502-6.861 6.366-5.359 10.803l100.625 298.666c1.16 3.481 4.421 5.803 8.090 5.803v0c3.669 0 6.912-2.338 8.090-5.803l100.608-298.666c1.502-4.471-0.887-9.301-5.359-10.803s-9.302 0.921-10.803 5.359l-92.519 274.671-92.535-274.654c-1.212-3.55-4.54-5.803-8.107-5.803zM46.489 164.267h153.6v-17.067h-153.6v17.067zM490.24 61.866h-205.175c-3.175 0-6.041 1.741-7.526 4.505-1.467 2.765-1.297 6.144 0.426 8.772l196.096 293.922h-154.505c-4.711 0-8.534 3.823-8.534 8.534s3.823 8.534 8.534 8.534h170.462c3.175 0 6.041-1.741 7.526-4.505s1.297-6.144-0.426-8.755l-196.079-293.939h189.201c4.693 0 8.534-3.84 8.534-8.534s-3.84-8.534-8.534-8.534zM302.507 232.534h-85.334c-4.71 0-8.534 3.823-8.534 8.534s3.823 8.534 8.534 8.534h85.334c4.694 0 8.534-3.823 8.534-8.534s-3.84-8.534-8.534-8.534zM276.702 180.531c-1.894 0-3.84 0.632-5.427 1.928-3.635 2.969-4.164 8.363-1.161 11.998l38.229 46.575-38.23 46.575c-3.003 3.653-2.474 9.029 1.161 12.015 3.67 3.004 9.029 2.457 12.032-1.178l42.666-52.002c2.56-3.157 2.56-7.68 0-10.838l-42.666-52.002c-1.707-1.997-4.147-3.072-6.605-3.072z" />
<glyph unicode="&#xe601;" d="M41.319 12.373c-0.819 0-1.656 0.12-2.474 0.358-4.523 1.365-7.066 6.127-5.7 10.666l122.88 406.152c1.365 4.522 6.127 7.082 10.649 5.7 4.506-1.365 7.065-6.127 5.683-10.632l-122.88-406.187c-1.109-3.67-4.471-6.058-8.158-6.058zM293.171 12.373c-3.652 0-7.048 2.406-8.175 6.058l-122.88 406.17c-1.365 4.505 1.178 9.267 5.683 10.632 4.506 1.382 9.267-1.178 10.649-5.7l122.897-406.17c1.365-4.522-1.161-9.267-5.7-10.632-0.853-0.239-1.656-0.358-2.474-0.358zM398.267 20.122c-14.831 0-29.509 2.491-42.206 8.123-21.999 9.796-34.287 28.091-34.56 51.558-0.239 17.322 5.99 31.914 18.466 43.366 39.065 35.857 127.761 27.631 131.533 27.255 4.693-0.443 8.123-4.625 7.663-9.301-0.426-4.694-4.693-8.175-9.301-7.663-0.837 0.068-84.941 7.868-118.358-22.87-8.858-8.141-13.090-18.142-12.937-30.567 0.222-16.862 8.448-29.031 24.457-36.164 31.488-13.995 81.169-3.891 101.342 13.841 3.55 3.106 8.909 2.765 12.049-0.785 3.106-3.533 2.748-8.909-0.785-12.032-16.64-14.661-47.377-24.747-77.363-24.764zM256.683 118.255h-170.667c-4.71 0-8.534 3.823-8.534 8.534s3.823 8.534 8.534 8.534h170.667c4.711 0 8.534-3.823 8.534-8.534s-3.84-8.534-8.534-8.534zM469.999 24.389c-4.693 0-8.534 3.823-8.534 8.534v158.139c-6.229 11.23-15.002 18.245-26.829 21.504-39.731 10.854-97.365-25.156-97.911-25.498-3.976-2.509-9.25-1.331-11.776 2.646-2.509 3.976-1.331 9.25 2.663 11.776 2.594 1.656 64.632 40.328 111.531 27.512 17.067-4.659 30.003-15.411 38.469-31.914 0.615-1.195 0.938-2.526 0.938-3.909v-160.29c-0.017-4.693-3.84-8.499-8.55-8.499z" />
<glyph unicode="&#xe602;" d="M359.56 232.534c-4.711 0-8.534 3.823-8.534 8.534v155.733c0 40.789-27.067 66.133-70.605 66.133h-21.334c-37.939 0-78.745-20.685-78.745-66.133v-155.733c0-4.71-3.84-8.534-8.534-8.534-4.71 0-8.534 3.823-8.534 8.534v155.733c0.017 48.214 40.311 83.2 95.846 83.2h21.334c53.214 0 87.637-32.649 87.637-83.2v-155.733c0-4.71-3.823-8.534-8.534-8.534zM316.894-32h-292.438c-2.73 0-5.325 1.314-6.912 3.55-1.604 2.202-2.048 5.051-1.195 7.663l106.666 324.267c1.144 3.499 4.421 5.871 8.124 5.871h277.334c3.67 0 6.929-2.355 8.123-5.854l46.814-141.159c1.467-4.454-0.973-9.301-5.41-10.786-4.522-1.467-9.301 0.955-10.786 5.376l-44.868 135.356h-265.046l-101.052-307.2h280.644c4.676 0 8.534-3.857 8.534-8.534s-3.823-8.55-8.534-8.55zM487.56 53.334h-119.466c-4.711 0-8.534 3.84-8.534 8.534s3.823 8.534 8.534 8.534h119.466c4.676 0 8.534-3.84 8.534-8.534s-3.823-8.534-8.534-8.534zM436.361 121.6v-119.466c0-4.711-3.84-8.534-8.534-8.534s-8.534 3.823-8.534 8.534v119.466c0 4.676 3.84 8.534 8.534 8.534s8.534-3.84 8.534-8.534z" />
<glyph unicode="&#xe603;" d="M494.933 202.666h-477.866c-4.71 0-8.534 3.84-8.534 8.534 0 4.711 3.823 8.534 8.534 8.534h477.866c4.693 0 8.534-3.823 8.534-8.534 0-4.694-3.84-8.534-8.534-8.534zM409.413-19.2h-298.666c-3.977 0-7.441 2.748-8.311 6.639l-51.013 221.867c-1.058 4.608 1.809 9.182 6.4 10.24 4.625 1.058 9.182-1.809 10.223-6.4l49.477-215.227h284.945l45.005 215.091c0.973 4.608 5.41 7.577 10.103 6.605 4.625-0.973 7.56-5.478 6.622-10.087l-46.421-221.866c-0.837-4.010-4.301-6.861-8.363-6.861zM110.746 209.067c-2.184 0-4.369 0.837-6.041 2.491-3.328 3.328-3.328 8.738 0 12.083l85.334 85.334c3.328 3.328 8.738 3.328 12.066 0 3.328-3.345 3.328-8.738 0-12.066l-85.334-85.333c-1.656-1.673-3.84-2.509-6.025-2.509zM409.413 209.067c-2.185 0-4.386 0.837-6.041 2.491l-85.334 85.334c-3.328 3.328-3.328 8.721 0 12.066 3.328 3.328 8.738 3.328 12.066 0l85.334-85.333c3.328-3.345 3.328-8.738 0-12.083-1.656-1.639-3.84-2.474-6.024-2.474zM418.134 330.667c-4.693 0-8.534 3.823-8.534 8.534v119.466c0 4.71 3.84 8.533 8.534 8.533s8.534-3.823 8.534-8.533v-119.466c0-4.711-3.84-8.534-8.534-8.534zM477.866 390.4h-119.466c-4.693 0-8.534 3.823-8.534 8.534s3.84 8.534 8.534 8.534h119.466c4.693 0 8.534-3.823 8.534-8.534s-3.84-8.534-8.534-8.534z" />
<glyph unicode="&#xe604;" d="M426.24 79.991h-234.667c-3.55 0-6.707 2.168-7.97 5.462l-89.174 233.472h-57.002v-17.066c0-4.71-3.823-8.534-8.534-8.534-4.694 0-8.534 3.823-8.534 8.534v25.6c0 4.711 3.84 8.534 8.534 8.534h71.424c3.55 0 6.707-2.184 7.97-5.495l89.157-233.438h222.873l51.166 138.155-302.046 44.339c-4.659 0.683-7.885 5.017-7.202 9.677 0.683 4.642 4.95 7.885 9.66 7.202l312.457-45.875c2.509-0.375 4.762-1.877 6.075-4.096 1.297-2.202 1.553-4.898 0.666-7.322l-56.901-153.6c-1.212-3.345-4.386-5.546-7.953-5.546zM247.245 53.197c14.404 0 26.095-11.707 26.095-26.061 0-14.438-11.707-26.061-26.095-26.061s-26.061 11.69-26.061 26.061c0.017 14.404 11.69 26.061 26.061 26.061zM247.245 70.264c-23.791 0-43.127-19.337-43.127-43.127s19.353-43.127 43.127-43.127c23.808 0 43.161 19.387 43.161 43.127 0 23.757-19.353 43.127-43.161 43.127v0zM370.534 53.197c14.404 0 26.061-11.707 26.061-26.061 0-14.438-11.673-26.061-26.061-26.061-14.421 0-26.061 11.69-26.061 26.061 0 14.404 11.639 26.061 26.061 26.061zM370.534 70.264c-23.808 0-43.127-19.337-43.127-43.127s19.337-43.127 43.127-43.127 43.127 19.387 43.127 43.127c-0.034 23.757-19.353 43.127-43.127 43.127v0zM421.427 327.458c-4.693 0-8.534 3.823-8.534 8.534v119.466c0 4.711 3.84 8.534 8.534 8.534s8.534-3.823 8.534-8.534v-119.466c0-4.71-3.789-8.534-8.534-8.534zM472.627 387.192h-102.4c-4.693 0-8.534 3.823-8.534 8.534s3.84 8.534 8.534 8.534h102.4c4.693 0 8.534-3.823 8.534-8.534s-3.789-8.534-8.534-8.534z" />
<glyph unicode="&#xe605;" d="M277.334-32h-213.333c-4.71 0-8.534 3.84-8.534 8.534v375.842c0 2.185 0.837 4.284 2.338 5.871l112.879 119.091c1.605 1.707 3.857 2.663 6.195 2.663h262.587c4.693 0 8.534-3.823 8.534-8.534v-315.733c0-4.694-3.84-8.534-8.534-8.534s-8.534 3.84-8.534 8.534v307.2h-250.385l-108.015-113.954v-363.913h204.8c4.694 0 8.534-3.84 8.534-8.534s-3.84-8.533-8.534-8.533zM183.466 343.466h-110.933c-4.71 0-8.534 3.823-8.534 8.534s3.823 8.534 8.534 8.534h102.4v102.4c0 4.711 3.823 8.534 8.534 8.534s8.534-3.823 8.534-8.534v-110.933c0-4.711-3.823-8.534-8.534-8.534zM388.267-23.466c-4.694 0-8.534 3.84-8.534 8.534v119.466c0 4.693 3.84 8.534 8.534 8.534s8.534-3.84 8.534-8.534v-119.466c0-4.693-3.84-8.534-8.534-8.534zM448 36.267h-119.466c-4.693 0-8.534 3.84-8.534 8.534s3.84 8.534 8.534 8.534h119.466c4.693 0 8.534-3.84 8.534-8.534s-3.84-8.534-8.534-8.534z" />
<glyph unicode="&#xe606;" d="M20.992 77.073c-1.655 0-3.311 0.426-4.779 1.467-3.909 2.594-4.915 7.953-2.27 11.793l47.411 69.905-47.411 69.905c-2.646 3.909-1.621 9.216 2.27 11.845s9.216 1.638 11.861-2.287l50.671-74.667c1.963-2.885 1.963-6.69 0-9.591l-50.671-74.666c-1.639-2.373-4.335-3.704-7.082-3.704zM490.087 352.256h-358.4c-4.71 0-8.534 3.823-8.534 8.534 0 4.694 3.823 8.534 8.534 8.534h358.4c4.693 0 8.534-3.84 8.534-8.534 0-4.71-3.84-8.534-8.534-8.534zM268.219 283.99h-136.534c-4.71 0-8.534 3.823-8.534 8.534 0 4.693 3.823 8.534 8.534 8.534h136.534c4.694 0 8.534-3.84 8.534-8.534 0-4.711-3.84-8.534-8.534-8.534zM404.753 215.723h-273.067c-4.71 0-8.534 3.823-8.534 8.534 0 4.694 3.823 8.534 8.534 8.534h273.067c4.694 0 8.534-3.84 8.534-8.534 0-4.711-3.84-8.534-8.534-8.534zM148.753 164.539h-17.066c-4.71 0-8.534 3.84-8.534 8.534 0 4.659 3.823 8.534 8.534 8.534h17.066c4.71 0 8.534-3.874 8.534-8.534 0-4.711-3.823-8.534-8.534-8.534zM234.087 164.539h-17.066c-4.71 0-8.534 3.84-8.534 8.534 0 4.659 3.823 8.534 8.534 8.534h17.066c4.71 0 8.534-3.874 8.534-8.534 0-4.711-3.823-8.534-8.534-8.534zM319.42 164.539h-17.067c-4.694 0-8.534 3.84-8.534 8.534 0 4.659 3.84 8.534 8.534 8.534h17.067c4.694 0 8.534-3.874 8.534-8.534 0-4.711-3.84-8.534-8.534-8.534zM404.753 164.539h-17.067c-4.694 0-8.534 3.84-8.534 8.534 0 4.659 3.84 8.534 8.534 8.534h17.067c4.694 0 8.534-3.874 8.534-8.534 0-4.711-3.84-8.534-8.534-8.534zM490.087 164.539h-17.067c-4.693 0-8.534 3.84-8.534 8.534 0 4.659 3.84 8.534 8.534 8.534h17.067c4.693 0 8.534-3.874 8.534-8.534 0-4.711-3.84-8.534-8.534-8.534zM148.753 113.339h-17.066c-4.71 0-8.534 3.84-8.534 8.534 0 4.659 3.823 8.534 8.534 8.534h17.066c4.71 0 8.534-3.874 8.534-8.534 0-4.711-3.823-8.534-8.534-8.534zM234.087 113.339h-17.066c-4.71 0-8.534 3.84-8.534 8.534 0 4.659 3.823 8.534 8.534 8.534h17.066c4.71 0 8.534-3.874 8.534-8.534 0-4.711-3.823-8.534-8.534-8.534zM319.42 113.339h-17.067c-4.694 0-8.534 3.84-8.534 8.534 0 4.659 3.84 8.534 8.534 8.534h17.067c4.694 0 8.534-3.874 8.534-8.534 0-4.711-3.84-8.534-8.534-8.534zM404.753 113.339h-17.067c-4.694 0-8.534 3.84-8.534 8.534 0 4.659 3.84 8.534 8.534 8.534h17.067c4.694 0 8.534-3.874 8.534-8.534 0-4.711-3.84-8.534-8.534-8.534zM490.087 113.339h-17.067c-4.693 0-8.534 3.84-8.534 8.534 0 4.659 3.84 8.534 8.534 8.534h17.067c4.693 0 8.534-3.874 8.534-8.534 0-4.711-3.84-8.534-8.534-8.534z" />
<glyph unicode="&#xe607;" d="M353.997 232.806h-221.867c-4.71 0-8.534 3.823-8.534 8.534s3.823 8.534 8.534 8.534h221.867c4.694 0 8.534-3.823 8.534-8.534s-3.823-8.534-8.534-8.534zM405.197 181.334h-273.067c-4.71 0-8.534 3.84-8.534 8.534 0 4.676 3.823 8.534 8.534 8.534h273.067c4.693 0 8.534-3.857 8.534-8.534 0-4.694-3.823-8.534-8.534-8.534zM251.597 130.134h-119.466c-4.71 0-8.534 3.84-8.534 8.534 0 4.676 3.823 8.534 8.534 8.534h119.466c4.71 0 8.533-3.857 8.533-8.534 0-4.693-3.823-8.534-8.534-8.534zM21.453 209.067c-1.655 0-3.311 0.443-4.779 1.467-3.909 2.611-4.915 7.953-2.27 11.81l47.411 69.888-47.394 69.922c-2.646 3.891-1.621 9.216 2.27 11.844 3.891 2.646 9.216 1.639 11.861-2.27l50.671-74.666c1.963-2.885 1.963-6.69 0-9.591l-50.671-74.666c-1.672-2.406-4.369-3.738-7.099-3.738zM149.197 334.933h-17.066c-4.71 0-8.534 3.823-8.534 8.534s3.823 8.534 8.534 8.534h17.066c4.71 0 8.534-3.823 8.534-8.534s-3.823-8.534-8.534-8.534zM234.53 334.933h-17.066c-4.71 0-8.534 3.823-8.534 8.534s3.823 8.534 8.534 8.534h17.066c4.71 0 8.534-3.823 8.534-8.534s-3.823-8.534-8.534-8.534zM319.863 334.933h-17.067c-4.694 0-8.534 3.823-8.534 8.534s3.84 8.534 8.534 8.534h17.067c4.694 0 8.534-3.823 8.534-8.534s-3.823-8.534-8.534-8.534zM405.197 334.933h-17.067c-4.693 0-8.534 3.823-8.534 8.534s3.84 8.534 8.534 8.534h17.067c4.693 0 8.534-3.823 8.534-8.534s-3.823-8.534-8.534-8.534zM490.53 331.725h-17.067c-4.693 0-8.534 3.823-8.534 8.534s3.84 8.534 8.534 8.534h17.067c4.693 0 8.534-3.823 8.534-8.534s-3.823-8.534-8.534-8.534zM149.197 283.733h-17.066c-4.71 0-8.534 3.823-8.534 8.534s3.823 8.534 8.534 8.534h17.066c4.71 0 8.534-3.823 8.534-8.534s-3.823-8.534-8.534-8.534zM234.53 283.733h-17.066c-4.71 0-8.534 3.823-8.534 8.534s3.823 8.534 8.534 8.534h17.066c4.71 0 8.534-3.823 8.534-8.534s-3.823-8.534-8.534-8.534zM319.863 283.733h-17.067c-4.694 0-8.534 3.823-8.534 8.534s3.84 8.534 8.534 8.534h17.067c4.694 0 8.534-3.823 8.534-8.534s-3.823-8.534-8.534-8.534zM405.197 283.733h-17.067c-4.693 0-8.534 3.823-8.534 8.534s3.84 8.534 8.534 8.534h17.067c4.693 0 8.534-3.823 8.534-8.534s-3.823-8.534-8.534-8.534zM490.53 280.525h-17.067c-4.693 0-8.534 3.823-8.534 8.534s3.84 8.534 8.534 8.534h17.067c4.693 0 8.534-3.823 8.534-8.534s-3.823-8.534-8.534-8.534z" />
<glyph unicode="&#xe608;" d="M258.082 114.654c-61.833 0-112.094 68.881-115.985 129.126-13.278 3.601-23.603 15.496-23.603 28.758v42.666c0 12.168 10.718 21.521 17.066 25.993v38.007c0 40.721 28.45 71.577 66.475 72.517 7.749 3.208 40.704 16.025 74.326 16.025 52.275 0 81.067-31.454 81.067-88.542v-34.355c28.433-1.622 34.134-11.913 34.134-29.645v-42.666c0-13.943-8.175-25.088-20.036-28.655-3.584-61.389-51.882-129.229-113.442-129.229zM276.361 450.663c-34.099 0-68.745-15.138-69.086-15.274-1.075-0.495-2.253-0.734-3.447-0.734-29.662 0-51.2-23.33-51.2-55.466v-42.666c0-3.072-1.673-5.922-4.335-7.441-5.342-3.021-12.732-9.541-12.732-13.893v-42.666c0-6.57 7.202-12.8 14.831-12.8 4.71 0 8.534-3.823 8.534-8.534 0-54.118 44.237-119.466 99.157-119.466 53.521 0 96.615 65.365 96.615 119.466 0 4.71 3.823 8.534 8.534 8.534 7.731 0 11.264 6.639 11.264 12.8v42.666c0 9.063 0 12.8-25.6 12.8-4.711 0-8.534 3.823-8.534 8.534v42.666c0 48.094-20.941 71.475-64 71.475zM417.161-19.746c-4.711 0-8.534 3.823-8.534 8.534v119.466c0 4.711 3.823 8.534 8.534 8.534 4.694 0 8.534-3.823 8.534-8.534v-119.466c0-4.728-3.823-8.534-8.534-8.534zM476.894 39.987h-119.466c-4.711 0-8.534 3.823-8.534 8.534s3.823 8.534 8.534 8.534h119.466c4.693 0 8.534-3.823 8.534-8.534s-3.823-8.534-8.534-8.534zM35.106-17.613c-4.71 0-8.534 3.823-8.534 8.534 0 59.99 46.285 100.267 115.2 100.267h27.341l29.047 45.312c2.526 3.942 7.816 5.137 11.793 2.56 3.959-2.526 5.12-7.817 2.577-11.793l-31.573-49.238c-1.57-2.457-4.267-3.909-7.185-3.909h-32c-48.845 0-98.133-25.719-98.133-83.2 0-4.728-3.823-8.534-8.534-8.534z" />
<glyph unicode="&#xe609;" d="M564.702-13.773c-4.693 0-8.534 3.84-8.534 8.534v119.466c0 4.693 3.84 8.534 8.534 8.534s8.534-3.84 8.534-8.534v-119.466c0-4.693-3.84-8.534-8.534-8.534zM615.902 45.961h-102.4c-4.693 0-8.534 3.84-8.534 8.534s3.84 8.534 8.534 8.534h102.4c4.693 0 8.534-3.84 8.534-8.534s-3.84-8.534-8.534-8.534zM394.872 81.596c-63.027 0-98.117 67.891-100.625 134.4-15.889 3.123-36.762 14.114-36.762 29.883v44.458c0 12.561 10.769 22.238 17.067 26.829v39.902c0 38.195 28.262 63.147 72.243 64.137 33.861 23.296 65.263 35.106 93.372 35.106 24.883 0 46.216-9.796 60.041-27.579 14.831-19.097 19.763-46.2 13.278-72.687v-35.772c17.067-3.891 17.067-19.865 17.067-29.918v-44.459c0-15.769-20.856-26.76-36.711-29.866-2.338-68.010-36.284-134.434-98.969-134.434zM440.183 439.262c-24.747 0-54.409-11.589-85.743-33.519-1.433-1.007-3.14-1.536-4.898-1.536-27.973 0-57.89-12.374-57.89-47.104v-44.476c0-3.021-1.622-5.837-4.216-7.373-5.188-3.055-12.851-9.899-12.851-14.899v-44.459c0-4.608 17.067-13.721 28.091-13.721 4.711 0 8.534-3.823 8.534-8.534 0-60.57 29.337-124.945 83.661-124.945 53.299 0 82.091 64.358 82.091 124.945 0 4.71 3.823 8.534 8.534 8.534 11.025 0 28.058 9.113 28.058 13.721v44.459c0 13.209-0.324 13.721-8.534 13.721-4.693 0-8.534 3.823-8.534 8.534v44.476c0 0.717 0.103 1.433 0.307 2.116 5.529 21.76 1.792 43.845-9.967 59.067-10.803 13.739-26.863 20.992-46.643 20.992zM178.193 250.794c-1.775 0-3.533 0.546-5.035 1.638l-58.811 43.025-58.812-42.564c-2.986-2.15-7.048-2.15-10.035 0.034-2.986 2.167-4.233 6.042-3.055 9.558l22.408 67.806-58.675 41.523c-3.055 2.151-4.335 6.025-3.208 9.558 1.127 3.55 4.403 5.957 8.141 5.957h72.704l22.442 69.154c2.304 7.032 13.944 7.032 16.23 0l22.494-69.154h72.704c3.72 0 7.014-2.406 8.141-5.957s-0.171-7.407-3.208-9.558l-58.692-41.438 22.409-68.369c1.161-3.515-0.085-7.39-3.089-9.574-1.519-1.093-3.26-1.638-5.052-1.638zM114.381 314.555c1.775 0 3.533-0.546 5.034-1.638l42.41-31.027-16.094 49.152c-1.161 3.567 0.119 7.475 3.174 9.625l41.882 29.56h-52.002c-3.703 0-6.981 2.389-8.141 5.905l-16.281 50.091-16.248-50.074c-1.144-3.533-4.438-5.922-8.141-5.922h-52.071l41.95-29.645c3.072-2.168 4.352-6.076 3.174-9.643l-16.077-48.709 42.445 30.72c1.468 1.058 3.209 1.605 4.984 1.605zM135.714-11.639c-4.71 0-8.534 3.84-8.534 8.534 0 59.99 46.285 100.267 115.2 100.267h27.17l38.058 63.368c2.457 3.993 7.663 5.342 11.742 2.901 4.027-2.44 5.342-7.663 2.918-11.742l-40.55-67.464c-1.553-2.56-4.318-4.13-7.322-4.13h-32c-48.845 0-98.133-25.736-98.133-83.2-0.017-4.693-3.857-8.534-8.55-8.534z" horiz-adv-x="623" />
<glyph unicode="&#xe60a;" d="M503.466 36.267h-494.933c-4.71 0-8.534 3.84-8.534 8.534v358.4c0 4.71 3.823 8.534 8.534 8.534h494.933c4.693 0 8.534-3.823 8.534-8.534v-358.4c0-4.694-3.84-8.534-8.534-8.534zM17.067 53.334h477.866v341.334h-477.866v-341.334zM494.933 309.333h-477.866c-4.71 0-8.534 3.823-8.534 8.534s3.823 8.534 8.534 8.534h477.866c4.693 0 8.534-3.823 8.534-8.534s-3.84-8.534-8.534-8.534zM89.412 369.067c0-5.888-4.778-10.667-10.666-10.667s-10.666 4.779-10.666 10.667c0 5.888 4.778 10.666 10.666 10.666s10.666-4.779 10.666-10.666zM132.079 369.067c0-5.888-4.778-10.667-10.666-10.667s-10.666 4.779-10.666 10.667c0 5.888 4.778 10.666 10.666 10.666s10.666-4.779 10.666-10.666zM174.745 369.067c0-5.888-4.779-10.667-10.666-10.667s-10.666 4.779-10.666 10.667c0 5.888 4.779 10.666 10.666 10.666s10.666-4.779 10.666-10.666zM401.067 78.933c-4.693 0-8.534 3.84-8.534 8.534v119.466c0 4.693 3.84 8.534 8.534 8.534s8.534-3.84 8.534-8.534v-119.466c0-4.693-3.84-8.534-8.534-8.534zM460.8 138.666h-119.466c-4.694 0-8.534 3.84-8.534 8.534s3.84 8.534 8.534 8.534h119.466c4.694 0 8.534-3.84 8.534-8.534s-3.84-8.534-8.534-8.534z" />
<glyph unicode="&#xe60b;" d="M256-19.2c-134.093 0-243.2 109.107-243.2 243.2s109.107 243.2 243.2 243.2c134.076 0 243.2-109.107 243.2-243.2s-109.125-243.2-243.2-243.2zM256 450.134c-124.689 0-226.133-101.445-226.133-226.134 0-124.706 101.445-226.134 226.133-226.134s226.134 101.427 226.134 226.134c0 124.689-101.445 226.134-226.134 226.134zM347.921 211.2h-187.733c-4.71 0-8.534 3.84-8.534 8.534 0 4.71 3.823 8.534 8.534 8.534h187.733c4.711 0 8.534-3.823 8.534-8.534 0-4.694-3.823-8.534-8.534-8.534zM254.054 117.334c-4.71 0-8.534 3.84-8.534 8.534v187.733c0 4.711 3.823 8.534 8.534 8.534s8.533-3.823 8.533-8.534v-187.733c0-4.694-3.823-8.534-8.534-8.534z" />
<glyph unicode="&#xe60c;" d="M452.079-32h-417.945c-4.71 0-8.534 3.84-8.534 8.534v494.933c0 4.711 3.823 8.534 8.534 8.534h396.613c32.768 0 55.654-25.447 55.654-61.866v-405.334c0-21.572-10.735-44.8-34.321-44.8zM42.666-14.933h409.413c13.654 0 17.255 18.142 17.255 27.733v405.334c0 22.306-11.93 44.8-38.587 44.8h-388.079v-477.866zM85.334-23.466c-4.71 0-8.534 3.84-8.534 8.534v477.866c0 4.711 3.823 8.534 8.534 8.534s8.534-3.823 8.534-8.534v-477.866c0-4.693-3.823-8.534-8.534-8.534zM281.413 249.6c-34.117 0-61.867 27.751-61.867 61.867s27.75 61.866 61.867 61.866 61.866-27.75 61.866-61.866-27.75-61.867-61.866-61.867zM281.413 356.267c-24.695 0-44.8-20.105-44.8-44.8s20.104-44.8 44.8-44.8c24.678 0 44.8 20.104 44.8 44.8s-20.104 44.8-44.8 44.8zM399.087 70.4c-0.12 0-0.222 0-0.341 0h-234.667c-4.71 0-8.534 3.84-8.534 8.534 0 82.927 49.408 136.534 125.867 136.534 75.707 0 124.859-52.548 125.849-134.058 0.239-0.802 0.358-1.622 0.358-2.474 0-4.694-3.823-8.534-8.534-8.534zM172.8 87.466h217.242c-3.533 81.562-57.77 110.933-108.613 110.933-50.875 0-105.113-29.372-108.63-110.933z" />
<glyph unicode="&#xe60d;" d="M417.945-32h-379.546c-4.71 0-8.534 3.84-8.534 8.534v494.933c0 4.711 3.823 8.534 8.534 8.534h379.546c21.999 0 38.587-17.425 38.587-40.534v-426.666c0-21.64-15.514-44.8-38.587-44.8zM46.934-14.933h371.012c12.68 0 21.521 14.592 21.521 27.733v426.666c0 13.602-9.046 23.466-21.521 23.466h-371.012v-477.866zM499.2 343.466h-51.2c-4.693 0-8.534 3.823-8.534 8.534v68.267c0 4.71 3.84 8.534 8.534 8.534h51.2c4.694 0 8.534-3.823 8.534-8.534v-68.267c0-4.711-3.84-8.534-8.534-8.534zM456.534 360.534h34.134v51.2h-34.134v-51.2zM499.2 275.2h-51.2c-4.693 0-8.534 3.823-8.534 8.534v68.267c0 4.711 3.84 8.534 8.534 8.534h51.2c4.694 0 8.534-3.823 8.534-8.534v-68.267c0-4.71-3.84-8.534-8.534-8.534zM456.534 292.267h34.134v51.2h-34.134v-51.2zM499.2 206.933h-51.2c-4.693 0-8.534 3.84-8.534 8.534v68.267c0 4.71 3.84 8.534 8.534 8.534h51.2c4.694 0 8.534-3.823 8.534-8.534v-68.267c0-4.693-3.84-8.534-8.534-8.534zM456.534 224h34.134v51.2h-34.134v-51.2zM499.2 138.666h-51.2c-4.693 0-8.534 3.84-8.534 8.534v68.267c0 4.711 3.84 8.534 8.534 8.534h51.2c4.694 0 8.534-3.823 8.534-8.534v-68.267c0-4.694-3.84-8.534-8.534-8.534zM456.534 155.733h34.134v51.2h-34.134v-51.2zM499.2 70.4h-51.2c-4.693 0-8.534 3.84-8.534 8.534v68.267c0 4.694 3.84 8.534 8.534 8.534h51.2c4.694 0 8.534-3.84 8.534-8.534v-68.267c0-4.693-3.84-8.534-8.534-8.534zM456.534 87.466h34.134v51.2h-34.134v-51.2zM499.2 2.134h-51.2c-4.693 0-8.534 3.84-8.534 8.534v68.267c0 4.694 3.84 8.534 8.534 8.534h51.2c4.694 0 8.534-3.84 8.534-8.534v-68.267c0-4.693-3.84-8.534-8.534-8.534zM456.534 19.2h34.134v51.2h-34.134v-51.2zM81.067 428.8h-68.266c-4.71 0-8.534 3.823-8.534 8.534s3.823 8.534 8.534 8.534h68.266c4.71 0 8.534-3.823 8.534-8.534s-3.823-8.534-8.534-8.534zM81.067 360.534h-68.266c-4.71 0-8.534 3.823-8.534 8.534s3.823 8.534 8.534 8.534h68.266c4.71 0 8.534-3.823 8.534-8.534s-3.823-8.534-8.534-8.534zM81.067 292.267h-68.266c-4.71 0-8.534 3.823-8.534 8.534s3.823 8.534 8.534 8.534h68.266c4.71 0 8.534-3.823 8.534-8.534s-3.823-8.534-8.534-8.534zM81.067 224h-68.266c-4.71 0-8.534 3.823-8.534 8.534s3.823 8.534 8.534 8.534h68.266c4.71 0 8.534-3.823 8.534-8.534s-3.823-8.534-8.534-8.534zM81.067 155.733h-68.266c-4.71 0-8.534 3.84-8.534 8.534s3.823 8.534 8.534 8.534h68.266c4.71 0 8.534-3.84 8.534-8.534s-3.823-8.534-8.534-8.534zM81.067 87.466h-68.266c-4.71 0-8.534 3.84-8.534 8.534s3.823 8.534 8.534 8.534h68.266c4.71 0 8.534-3.84 8.534-8.534s-3.823-8.534-8.534-8.534zM81.067 19.2h-68.266c-4.71 0-8.534 3.84-8.534 8.534s3.823 8.534 8.534 8.534h68.266c4.71 0 8.534-3.84 8.534-8.534s-3.823-8.534-8.534-8.534z" />
<glyph unicode="&#xe60e;" d="M250.505 123.204c-61.833 0-112.094 68.881-115.985 129.109-13.261 3.601-23.586 15.496-23.586 28.758v42.666c0 12.168 10.718 21.521 17.067 25.993v38.007c0 40.721 28.45 71.577 66.475 72.517 7.749 3.208 40.704 16.025 74.326 16.025 52.275 0 81.067-31.454 81.067-88.542v-34.355c28.433-1.622 34.133-11.913 34.133-29.645v-42.666c0-13.943-8.175-25.088-20.036-28.655-3.601-61.355-51.899-129.211-113.459-129.211zM268.8 459.213c-34.099 0-68.745-15.138-69.086-15.275-1.075-0.495-2.253-0.734-3.447-0.734-29.662 0-51.2-23.33-51.2-55.466v-42.666c0-3.072-1.673-5.922-4.352-7.441-5.342-3.021-12.714-9.523-12.714-13.892v-42.666c0-6.571 7.202-12.8 14.831-12.8 4.71 0 8.534-3.823 8.534-8.534 0-54.101 44.237-119.466 99.157-119.466 53.521 0 96.614 65.365 96.614 119.466 0 4.71 3.823 8.534 8.534 8.534 7.731 0 11.264 6.639 11.264 12.8v42.666c0 9.063 0 12.8-25.6 12.8-4.711 0-8.534 3.823-8.534 8.534v42.666c0 48.094-20.958 71.475-64 71.475zM34.133-28.262c-4.71 0-8.534 3.84-8.534 8.534v23.466c0 60.091 40.602 96 108.613 96h27.529l32.307 46.626c2.679 3.874 7.987 4.83 11.879 2.134 3.874-2.663 4.847-8.005 2.15-11.861l-34.85-50.296c-1.605-2.304-4.215-3.67-7.014-3.67h-32c-58.18 0-91.546-28.774-91.546-78.933v-23.466c0-4.711-3.84-8.534-8.534-8.534zM477.866-28.262c-4.711 0-8.534 3.84-8.534 8.534v23.466c0 58.197-50.995 78.933-98.731 78.933h-32c-2.935 0-5.666 1.519-7.236 3.993l-33.433 53.572c-2.491 3.993-1.297 9.25 2.697 11.742 3.993 2.509 9.267 1.297 11.759-2.697l30.959-49.527h27.272c70.332 0 115.763-37.683 115.763-96v-23.466c0.017-4.728-3.823-8.55-8.517-8.55zM251.546 37.871c-1.365 0-2.731 0.341-3.959 0.973l-85.334 44.8c-4.181 2.202-5.786 7.356-3.584 11.537 2.167 4.164 7.322 5.803 11.52 3.567l81.408-42.701 83.149 42.735c4.182 2.168 9.336 0.512 11.503-3.67 2.134-4.199 0.478-9.336-3.704-11.503l-87.091-44.8c-1.229-0.615-2.594-0.938-3.909-0.938z" />
<glyph unicode="&#xe60f;" d="M317.815 379.733c-16.469 0-29.884 13.397-29.884 29.867s13.414 29.866 29.884 29.866c16.452 0 29.849-13.397 29.849-29.866s-13.397-29.867-29.849-29.867zM317.815 422.4c-7.065 0-12.817-5.734-12.817-12.8s5.752-12.8 12.817-12.8c7.048 0 12.783 5.734 12.783 12.8s-5.735 12.8-12.783 12.8zM166.4 8.534c-4.71 0-8.534 3.84-8.534 8.534v17.067h-85.334v-17.067c0-4.693-3.823-8.534-8.534-8.534s-8.534 3.84-8.534 8.534v25.6c0 4.693 3.823 8.534 8.534 8.534h102.4c4.71 0 8.534-3.84 8.534-8.534v-25.6c0-4.693-3.823-8.534-8.534-8.534zM320 8.534c-4.693 0-8.534 3.84-8.534 8.534v190.072l-192.41-39.493c-4.642-0.99-9.13 2.031-10.070 6.656-0.956 4.625 2.031 9.13 6.639 10.070l202.667 41.608c2.474 0.512 5.12-0.119 7.099-1.741 1.997-1.621 3.158-4.045 3.158-6.622v-200.534c-0.017-4.711-3.857-8.55-8.55-8.55zM296.465 337.067c-0.904 0-1.792 0.136-2.68 0.426l-127.675 42.206c-4.471 1.485-6.912 6.315-5.427 10.786 1.468 4.471 6.298 6.912 10.769 5.427l127.675-42.206c4.471-1.485 6.895-6.298 5.41-10.786-1.178-3.584-4.488-5.854-8.072-5.854zM320 196.267c-4.693 0-8.534 3.84-8.534 8.534v102.4c0 4.71 3.84 8.534 8.534 8.534s8.534-3.823 8.534-8.534v-102.4c0-4.694-3.84-8.534-8.534-8.534zM448 341.333h-102.4c-4.693 0-8.534 3.823-8.534 8.534s3.84 8.534 8.534 8.534h102.4c4.693 0 8.534-3.823 8.534-8.534s-3.84-8.534-8.534-8.534z" />
<glyph unicode="&#xe610;" d="M181.845 354.577c-16.47 0-29.883 13.398-29.883 29.866s13.415 29.867 29.883 29.867c16.453 0 29.85-13.397 29.85-29.867s-13.398-29.866-29.85-29.866zM181.845 397.243c-7.066 0-12.817-5.734-12.817-12.8s5.751-12.8 12.817-12.8c7.048 0 12.783 5.734 12.783 12.8s-5.734 12.8-12.783 12.8zM265.728 160.802c-4.711 0-8.534 3.84-8.534 8.534 0 93.509-5.683 142.285-37.974 166.502-3.772 2.833-4.523 8.175-1.707 11.947 2.833 3.789 8.175 4.54 11.947 1.707 38.075-28.57 44.8-80.862 44.8-180.173 0-4.694-3.806-8.517-8.534-8.517zM160.495-28.502c-1.399 0-2.833 0.358-4.147 1.075-4.113 2.287-5.598 7.475-3.311 11.606l105.25 189.355c1.502 2.697 4.335 4.369 7.424 4.386 3.345-0.632 5.974-1.673 7.475-4.335l107.059-189.337c2.338-4.096 0.87-9.301-3.209-11.656-4.079-2.321-9.301-0.87-11.623 3.209l-99.601 176.077-97.861-176.009c-1.553-2.799-4.471-4.369-7.458-4.369zM227.909 323.772c-4.165 0-7.799 3.038-8.431 7.271-0.7 4.659 2.526 9.011 7.185 9.694 55.347 8.243 88.746 28.331 94.037 56.542 4.267 22.494-10.803 48.52-36.574 63.317-4.096 2.338-5.495 7.56-3.158 11.656 2.338 4.079 7.526 5.495 11.656 3.157 31.983-18.346 50.415-51.763 44.851-81.272-3.925-20.805-23.194-57.6-108.305-70.263-0.427-0.068-0.87-0.102-1.263-0.102zM265.455 192.837c-1.127 0-2.27 0.222-3.379 0.7l-126.293 54.648c-2.696 1.178-4.608 3.635-5.035 6.554s0.649 5.837 2.867 7.766l88.746 76.305c3.584 3.072 8.96 2.663 12.032-0.904s2.662-8.96-0.905-12.032l-78.422-67.43 113.784-49.221c4.335-1.861 6.332-6.878 4.454-11.195-1.416-3.277-4.574-5.188-7.851-5.188z" />
<glyph unicode="&#xe611;" d="M115.541 38.4c-0.871 0-1.758 0.137-2.645 0.392-4.472 1.467-6.929 6.264-5.478 10.769l51.371 158.055c1.451 4.488 6.23 6.912 10.752 5.478 4.471-1.467 6.929-6.298 5.478-10.769l-51.37-158.037c-1.16-3.601-4.505-5.888-8.106-5.888zM316.877 123.733c-3.447 0-6.724 2.116-7.987 5.529l-30.498 81.305-92.467 25.959c-4.54 1.28-7.185 5.99-5.905 10.53s6.024 7.151 10.53 5.905l96.666-27.119c2.611-0.734 4.711-2.679 5.683-5.222l32-85.334c1.673-4.421-0.58-9.336-4.983-10.991-1.041-0.392-2.048-0.563-3.038-0.563zM84.002 307.968c-2.731 0-5.41 1.314-7.066 3.738-2.645 3.909-1.638 9.216 2.27 11.861l82.893 56.217c3.397 2.287 7.936 1.861 10.821-1.024l19.337-19.337c3.328-3.328 3.328-8.738 0-12.066s-8.738-3.328-12.066 0l-14.353 14.353-77.056-52.275c-1.468-0.99-3.141-1.468-4.778-1.468zM299.998 277.333h-42.001c-2.202 0-4.335 0.854-5.922 2.389l-50.21 48.435c-3.397 3.277-3.499 8.67-0.222 12.066 3.26 3.397 8.67 3.498 12.066 0.222l47.719-46.046h38.57c4.694 0 8.534-3.823 8.534-8.534s-3.823-8.534-8.534-8.534zM242.346 358.4c-16.47 0-29.883 13.398-29.883 29.867s13.415 29.867 29.883 29.867c16.452 0 29.849-13.398 29.849-29.867s-13.397-29.867-29.85-29.867zM242.346 401.067c-7.065 0-12.817-5.735-12.817-12.8s5.751-12.8 12.817-12.8c7.048 0 12.783 5.735 12.783 12.8s-5.734 12.8-12.783 12.8zM427.998 29.866c-4.694 0-8.534 3.84-8.534 8.534v34.134h-153.6v-34.134c0-4.693-3.823-8.534-8.534-8.534s-8.534 3.84-8.534 8.534v42.666c0 4.694 3.823 8.534 8.534 8.534h170.667c4.693 0 8.534-3.84 8.534-8.534v-42.666c0-4.693-3.823-8.534-8.534-8.534z" />
<glyph unicode="&#xe612;" d="M161.178 198.793c-51.525 0-93.338 80.128-93.338 132.454 0 51.473 41.864 93.338 93.338 93.338 51.49 0 93.355-41.865 93.355-93.338-0.017-52.31-41.814-132.454-93.355-132.454zM161.178 407.518c-42.053 0-76.271-34.219-76.271-76.271 0-43.469 35.653-115.387 76.271-115.387 40.636 0 76.288 71.919 76.288 115.387-0.017 42.070-34.219 76.271-76.288 76.271zM481.178 198.793c-51.524 0-93.355 80.128-93.355 132.454 0 51.473 41.865 93.338 93.355 93.338s93.355-41.865 93.355-93.338c-0.017-52.31-41.797-132.454-93.355-132.454zM481.178 407.518c-42.053 0-76.288-34.219-76.288-76.271 0-43.469 35.669-115.387 76.288-115.387 40.635 0 76.288 71.919 76.288 115.387-0.017 42.070-34.218 76.271-76.288 76.271zM161.178 23.399c-88.883 0-161.178 50.193-161.178 111.975 0 42.001 33.194 98.373 84.633 143.565 3.567 3.089 8.926 2.765 12.049-0.785s2.748-8.926-0.802-12.049c-47.172-41.438-78.814-93.952-78.814-130.731 0-52.293 64.648-94.908 144.111-94.908 17.186 0 28.058 2.236 42.649 5.666 4.574 1.092 9.182-1.775 10.274-6.366 1.075-4.608-1.775-9.165-6.366-10.274-15.291-3.55-27.597-6.093-46.558-6.093zM289.741 199.97c-2.935 0-5.769 1.502-7.373 4.199-13.278 22.477-31.625 39.868-56.013 61.986-3.499 3.157-3.772 8.55-0.597 12.066 3.191 3.482 8.55 3.755 12.049 0.598 25.549-23.125 44.766-41.404 59.273-65.979 2.423-4.062 1.075-9.318-3.003-11.725-1.365-0.785-2.867-1.144-4.335-1.144zM347.255 199.97c-1.502 0-2.969 0.358-4.335 1.161-4.045 2.406-5.393 7.629-3.038 11.707 11.844 20.088 29.969 35.772 49.135 52.377 5.171 4.454 10.325 8.96 15.462 13.602 3.481 3.158 8.892 2.902 12.049-0.597 3.192-3.499 2.918-8.892-0.58-12.066-5.24-4.727-10.496-9.318-15.786-13.858-18.091-15.667-35.157-30.464-45.602-48.145-1.536-2.68-4.386-4.181-7.305-4.181zM481.178 23.535c-17.425 0-34.833 1.997-51.849 6.007-4.608 1.075-7.475 5.666-6.366 10.291 1.075 4.591 5.683 7.458 10.274 6.366 15.736-3.687 31.897-5.563 47.992-5.563 79.462 0 144.111 42.513 144.111 94.788 0 36.779-31.676 89.31-78.848 130.731-3.533 3.106-3.891 8.499-0.785 12.049 3.14 3.55 8.499 3.891 12.032 0.785 51.456-45.159 84.668-101.512 84.668-143.582-0.051-61.713-72.346-111.872-161.229-111.872zM236.578 60.825c-34.099 0-61.867 27.443-61.867 61.201 0 34.321 26.299 61.201 59.887 61.201 13.944 0 23.279-4.966 31.334-10.308 3.909-2.611 4.966-7.936 2.373-11.844-2.628-3.909-7.936-4.966-11.844-2.355-7.048 4.693-12.886 7.458-21.828 7.458-23.995 0-42.821-19.405-42.821-44.135 0-24.337 20.121-44.135 44.8-44.135 9.797 0 19.815 3.397 27.512 9.336 3.755 2.918 9.096 2.202 11.981-1.536 2.867-3.755 2.168-9.079-1.553-11.964-10.803-8.346-24.269-12.92-37.974-12.92zM429.295 60.825c-13.688 0-27.153 4.608-37.974 12.902-3.738 2.885-4.403 8.209-1.536 11.964 2.867 3.738 8.175 4.454 11.964 1.536 7.68-5.939 17.733-9.336 27.495-9.336 24.695 0 44.8 19.798 44.8 44.135 0 24.73-18.808 44.135-42.803 44.135-8.926 0-14.779-2.731-21.846-7.458-3.909-2.611-9.233-1.57-11.81 2.355-2.594 3.909-1.57 9.233 2.389 11.844 8.022 5.342 17.374 10.308 31.317 10.308 33.57 0 59.87-26.88 59.87-61.201 0-33.707-27.75-61.184-61.866-61.184zM395.589 118.904h-119.466c-4.711 0-8.534 3.84-8.534 8.534s3.823 8.534 8.534 8.534h119.466c4.728 0 8.534-3.84 8.534-8.534 0-4.745-3.789-8.534-8.534-8.534z" horiz-adv-x="640" />
<glyph unicode="&#xe613;" d="M330.701 301.005c-48.827 0-88.559 39.714-88.559 88.525s39.731 88.542 88.559 88.542c48.81 0 88.542-39.714 88.542-88.542s-39.748-88.525-88.542-88.525zM330.701 461.005c-39.424 0-71.493-32.051-71.493-71.475 0-39.407 32.051-71.458 71.493-71.458 39.407 0 71.475 32.051 71.475 71.458-0.034 39.424-32.068 71.475-71.475 71.475zM362.462-30.072c-1.246 0-2.491 0.273-3.635 0.802-2.134 1.007-3.738 2.833-4.471 5.034-0.325 0.921-30.225 88.935-106.666 130.901-66.935-82.056-189.048-82.995-194.338-82.995-3.909 0-7.322 2.663-8.278 6.451l-21.334 85.334c-0.648 2.543-0.069 5.257 1.553 7.322 1.622 2.099 4.096 3.294 6.741 3.294 1.024 0 102.656 0.802 142.233 60.194 7.117 10.342 11.793 25.037 17.203 42.053 11.264 35.413 25.293 79.479 70.503 109.619 3.909 2.629 9.25 1.553 11.844-2.372s1.536-9.233-2.389-11.827c-40.226-26.812-52.702-66.014-63.693-100.608-5.581-17.527-10.855-34.134-19.337-46.472-36.864-55.296-116.412-65.433-145.544-67.277l17.101-68.438c26.487 1.467 126.054 11.656 178.569 81.681 2.475 3.26 6.929 4.352 10.649 2.491 73.404-36.693 108.135-110.37 118.204-135.526 10.82 4.421 31.897 13.261 59.921 26.026-21.282 79.428-62.532 139.998-122.675 180.121-3.533 2.389-4.796 7.014-2.935 10.854 1.877 3.857 6.332 5.7 10.36 4.335 50.841-16.93 132.267 9.404 157.269 18.381l-16.315 48.947c-22.87-4.318-90.112-12.97-128.358 25.242-3.328 3.328-3.328 8.721 0 12.066 3.328 3.328 8.738 3.328 12.066 0 38.793-38.809 119.091-19.303 119.894-19.097 4.301 1.075 8.738-1.349 10.137-5.581l21.334-64c1.433-4.283-0.7-8.943-4.933-10.633-3.738-1.485-77.875-30.754-140.8-27.699 50.142-42.837 84.805-101.751 103.271-175.633 1.007-3.976-1.007-8.123-4.693-9.831-45.602-20.958-75.059-32.478-75.366-32.615-0.99-0.375-2.014-0.546-3.089-0.546z" />
<glyph unicode="&#xe614;" d="M307.2-37.342h-102.4c-4.71 0-8.534 3.84-8.534 8.534v68.267c0 4.676 3.823 8.534 8.534 8.534h102.4c4.694 0 8.534-3.857 8.534-8.534v-68.267c0-4.693-3.84-8.534-8.534-8.534zM213.333-20.275h85.333v51.2h-85.334v-51.2zM330.666 201.591h-149.333c-69.359 0-104.534 35.191-104.534 104.534 0 98.816 80.384 179.2 179.2 179.2 98.799 0 179.2-80.384 179.2-179.2 0-93.696-59.665-104.534-104.534-104.534zM256 468.258c-89.395 0-162.133-72.738-162.133-162.133 0-78.404 49.92-87.466 87.466-87.466h149.333c43.23 0 87.466 10.393 87.466 87.466 0 89.413-72.738 162.134-162.133 162.134zM362.666 276.258c-16.469 0-29.866 13.397-29.866 29.866 0 7.065-5.735 12.8-12.8 12.8s-12.8-5.718-12.8-12.8c0-16.47-13.397-29.866-29.866-29.866s-29.867 13.397-29.867 29.866c0 7.065-5.734 12.8-12.8 12.8s-12.8-5.734-12.8-12.8c0-16.47-13.398-29.866-29.867-29.866s-29.867 13.397-29.867 29.866c0 7.065-5.734 12.8-12.8 12.8s-12.8-5.718-12.8-12.8c0-16.47-13.398-29.866-29.867-29.866s-29.867 13.397-29.867 29.866h17.067c0-7.065 5.734-12.8 12.8-12.8s12.8 5.734 12.8 12.8c0 16.47 13.397 29.866 29.866 29.866s29.867-13.397 29.867-29.866c0-7.065 5.734-12.8 12.8-12.8s12.8 5.734 12.8 12.8c0 16.47 13.398 29.866 29.867 29.866s29.866-13.397 29.866-29.866c0-7.065 5.735-12.8 12.8-12.8s12.8 5.734 12.8 12.8c0 16.47 13.397 29.866 29.866 29.866s29.866-13.397 29.866-29.866c0-7.065 5.735-12.8 12.8-12.8s12.8 5.734 12.8 12.8c0 16.47 13.397 29.866 29.866 29.866s29.866-13.397 29.866-29.866h-17.067c0 7.065-5.735 12.8-12.8 12.8s-12.8-5.718-12.8-12.8c0-16.435-13.397-29.866-29.866-29.866zM111.419 245.401l103.893-198.554-15.121-7.911-103.894 198.554 15.121 7.911zM400.418 244.506l15.283-7.603-99.917-200.909-15.283 7.603 99.917 200.909zM216.781 215.987l23.339-170.666-16.913-2.313-23.339 170.667 16.913 2.313zM287.514 216.678l16.887-2.313-23.39-170.649-16.887 2.313 23.39 170.649z" />
<glyph unicode="&#xe615;" d="M114.142 67.26v0c-11.776 0-23.091 4.574-30.993 12.442-8.106 8.123-12.407 19.132-12.1 31.079 0.325 11.827 5.137 23.091 13.619 31.556 3.362 3.362 7.082 5.529 10.359 7.458 2.133 1.263 4.147 2.44 5.189 3.464l277.521 277.538c1.639 1.605 3.806 2.491 6.041 2.491v0c2.287 0 4.454-0.904 6.041-2.491l45.243-45.261c3.328-3.328 3.328-8.738 0-12.066l-54.341-54.306 24.132-24.132c1.639-1.605 2.491-3.789 2.491-6.042 0-2.27-0.904-4.438-2.491-6.041l-30.191-30.157c-3.328-3.328-8.755-3.328-12.066 0l-24.132 24.132-180.941-180.992c-1.109-1.092-2.355-3.14-3.653-5.274-1.929-3.192-4.113-6.793-7.39-10.087-8.55-8.567-20.053-13.312-32.341-13.312zM383.761 412.706l-271.497-271.514c-2.611-2.594-5.683-4.403-8.67-6.127-2.611-1.502-5.103-2.935-6.878-4.728-5.359-5.342-8.431-12.442-8.618-19.917-0.188-7.236 2.338-13.858 7.117-18.603 4.745-4.745 11.639-7.475 18.91-7.475v0c7.749 0 14.951 2.986 20.292 8.277 1.792 1.809 3.294 4.267 4.864 6.844 1.775 2.935 3.601 6.007 6.213 8.567l186.965 186.983c3.311 3.328 8.755 3.328 12.066 0l24.132-24.133 18.125 18.091-24.149 24.132c-1.604 1.604-2.491 3.789-2.491 6.041s0.938 4.438 2.491 6.042l54.341 54.306-33.212 33.212zM151.603 185.464c-0.325 0-0.666 0-0.99 0.034l-22.835 2.628c-1.451 0.188-2.85 0.734-4.045 1.587l-54.255 39.56c-2.014 1.468-3.294 3.755-3.481 6.23s0.717 4.933 2.475 6.707l64.136 64.085c1.775 1.775 4.215 2.714 6.792 2.457 2.526-0.222 4.813-1.57 6.246-3.652l38.213-55.569c1.161-1.724 1.69-3.806 1.434-5.871l-3.567-29.508c-0.563-4.642-4.796-8.005-9.523-7.458-4.659 0.563-8.022 4.83-7.458 9.523l3.191 26.282-30.566 44.475-49.8-49.784 44.391-32.358 20.6-2.406c4.659-0.529 8.038-4.762 7.475-9.438-0.461-4.318-4.147-7.526-8.431-7.526zM453.615 234.667c-30.976 0-60.911 20.309-76.083 35.465-3.328 3.328 0.12 4.318 3.447 7.68 3.311 3.328 5.257 7.731 8.601 4.421 0.512-0.529 53.214-52.019 94.038-20.002 3.721 2.918 9.079 2.253 11.981-1.451s2.253-9.079-1.45-11.981c-12.902-10.172-26.829-14.131-40.534-14.131zM46.233 243.609c-2.202 0-4.386 0.837-6.041 2.526-3.311 3.345-3.294 8.755 0.051 12.066l76.647 75.998c3.345 3.311 8.755 3.294 12.066-0.034 3.311-3.345 3.294-8.772-0.051-12.066l-76.647-75.998c-1.672-1.638-3.84-2.492-6.025-2.492zM42.684 14.695c-2.133 0-4.249 0.802-5.888 2.373l-19.558 18.688c-1.672 1.587-2.594 3.789-2.628 6.075s0.887 4.539 2.491 6.127l37.103 36.898c3.345 3.311 8.773 3.277 12.083-0.051 3.328-3.311 3.311-8.772-0.034-12.049l-30.907-30.737 7.492-7.168 33.024 29.594c3.499 3.192 8.892 2.867 12.049-0.615 3.157-3.533 2.85-8.892-0.648-12.066l-38.878-34.901c-1.621-1.399-3.669-2.168-5.7-2.168z" />
<glyph unicode="&#xe616;" d="M437.88 138.666h-282.675c-48.231 0-88.969 43.008-88.969 93.867 0 50.876 41.148 93.867 89.873 93.867h280.883c48.709 0 89.89-42.991 89.89-93.867 0-50.859-40.772-93.867-89.002-93.867zM156.109 309.333c-38.758 0-72.806-35.891-72.806-76.8 0-41.625 32.922-76.8 71.902-76.8h282.675c38.998 0 71.902 35.175 71.902 76.8 0 40.909-33.997 76.8-72.806 76.8h-280.866zM381.866 70.4h-149.333c-3.738 0-7.031 2.44-8.141 6.007l-21.334 68.267c-0.819 2.577-0.341 5.41 1.263 7.577 1.621 2.185 4.181 3.481 6.895 3.481h192c2.731 0 5.291-1.297 6.878-3.481 1.622-2.168 2.065-5 1.246-7.577l-21.334-68.267c-1.092-3.567-4.386-6.007-8.141-6.007zM238.814 87.466h136.79l16.009 51.2h-168.79l15.992-51.2zM93.883 104.534h-85.334c-3.208 0-6.093 1.775-7.561 4.608s-1.246 6.229 0.563 8.858l66.236 94.942c2.697 3.891 8.022 4.813 11.879 2.134 3.874-2.697 4.813-8.055 2.117-11.878l-56.883-81.51h65.502l36.267 35.311c3.362 3.277 8.773 3.209 12.066-0.154 3.277-3.379 3.208-8.824-0.171-12.101l-38.742-37.7c-1.587-1.639-3.721-2.509-5.939-2.509zM81.954 257.911c-2.662 0-5.29 1.246-6.946 3.567l-73.403 102.639c-1.861 2.594-2.116 6.024-0.648 8.858 1.467 2.85 4.386 4.625 7.595 4.625h85.334c2.201 0 4.301-0.854 5.905-2.373l53.521-51.2c3.413-3.26 3.533-8.653 0.273-12.066-3.26-3.397-8.67-3.516-12.066-0.273l-51.047 48.827h-65.314l63.744-89.122c2.748-3.84 1.861-9.165-1.98-11.913-1.519-1.058-3.243-1.57-4.966-1.57z" horiz-adv-x="529" />
<glyph unicode="&#xe617;" d="M295.936 25.6c-87.074 0-157.867 70.793-157.867 157.866 0 87.057 70.792 157.866 157.867 157.866 87.057 0 157.867-70.809 157.867-157.866 0-87.074-70.844-157.866-157.866-157.866zM295.936 324.267c-77.654 0-140.8-63.163-140.8-140.8s63.147-140.8 140.8-140.8c77.637 0 140.8 63.163 140.8 140.8s-63.163 140.8-140.8 140.8zM504.986 217.6c-3.976 0-7.526 2.799-8.363 6.844-9.95 49.016-37.581 92.638-77.824 122.88-3.772 2.833-4.522 8.175-1.707 11.947 2.833 3.772 8.175 4.522 11.947 1.69 43.571-32.717 73.506-80.009 84.275-133.12 0.956-4.625-2.048-9.114-6.673-10.052-0.529-0.137-1.11-0.188-1.656-0.188zM167.919 4.216c-1.775 0-3.584 0.563-5.137 1.724-16.793 12.663-31.727 27.597-44.356 44.373-2.833 3.772-2.082 9.13 1.689 11.964 3.789 2.816 9.113 2.065 11.947-1.707 11.656-15.497 25.447-29.269 40.977-40.977 3.772-2.833 4.523-8.175 1.69-11.947-1.655-2.253-4.232-3.43-6.809-3.43zM436.923 155.733h68.267v-17.067h-68.267v17.067zM317.457 36.267h17.067v-68.267h-17.067v68.267zM112.657 206.933h34.134v-17.067h-34.133v17.067zM283.324 360.534h17.067v-34.134h-17.067v34.134zM359.936 110.933c-2.202 0-4.386 0.837-6.041 2.491l-64 64c-3.328 3.328-3.328 8.738 0 12.066 3.328 3.311 8.738 3.311 12.066 0l64-64c3.328-3.328 3.328-8.738 0-12.066-1.656-1.656-3.84-2.491-6.024-2.491zM295.936 174.933c-2.202 0-4.386 0.837-6.041 2.491-3.328 3.328-3.328 8.738 0 12.066l42.666 42.666c3.328 3.328 8.738 3.328 12.066 0s3.328-8.721 0-12.066l-42.666-42.666c-1.656-1.656-3.84-2.491-6.024-2.491zM391.936 360.534c-4.711 0-8.534 3.823-8.534 8.534 0 52.634-43.111 93.866-98.133 93.866-55.040 0-98.133-41.233-98.133-93.866 0-4.711-3.84-8.534-8.534-8.534-4.71 0-8.534 3.823-8.534 8.534 0 62.208 50.602 110.933 115.2 110.933 64.581 0 115.2-48.726 115.2-110.933 0-4.711-3.84-8.534-8.534-8.534zM385.724 360.534h-204.8c-4.71 0-8.534 3.823-8.534 8.534s3.806 8.534 8.534 8.534h204.8c4.694 0 8.534-3.823 8.534-8.534s-3.84-8.534-8.534-8.534zM121.191 79.803c-65.349 0-122.675 53.829-122.675 115.2s57.327 115.2 122.675 115.2c4.694 0 8.533-3.823 8.533-8.534s-3.84-8.534-8.534-8.534c-56.251 0-105.609-45.858-105.609-98.134s49.374-98.134 105.609-98.134c4.694 0 8.534-3.84 8.534-8.534s-3.84-8.534-8.534-8.534zM121.191 78.933c-4.71 0-8.534 3.84-8.534 8.534v204.8c0 4.71 3.823 8.534 8.534 8.534 4.694 0 8.533-3.823 8.533-8.534v-204.8c0-4.693-3.84-8.534-8.534-8.534z" />
<glyph unicode="&#xe618;" d="M503.466 17.067h-494.933c-4.71 0-8.534 3.84-8.534 8.534v256c0 4.711 3.823 8.534 8.534 8.534h494.933c4.693 0 8.534-3.823 8.534-8.534v-256c0-4.693-3.84-8.534-8.534-8.534zM17.067 34.134h477.866v238.933h-477.866v-238.933zM85.334 17.067h17.067v-17.067h-17.067v17.067zM409.6 17.067h17.067v-17.067h-17.067v17.067zM418.134 85.334h-324.267c-4.71 0-8.534 3.84-8.534 8.534v136.534c0 4.71 3.823 8.534 8.534 8.534h324.267c4.693 0 8.534-3.823 8.534-8.534v-136.534c0-4.694-3.84-8.534-8.534-8.534zM102.4 102.4h307.2v119.466h-307.2v-119.466zM343.279 279.466h-17.067c0 36.471-29.662 66.134-66.134 66.134s-66.133-29.662-66.133-66.134h-17.066c0 45.875 37.325 83.2 83.2 83.2s83.2-37.325 83.2-83.2zM417.553 313.6c-3.687 0-7.082 2.389-8.175 6.093-19.524 65.485-80.896 111.24-149.299 111.24-68.386 0-129.775-45.755-149.299-111.24-1.349-4.505-6.093-7.1-10.615-5.735-4.522 1.349-7.1 6.093-5.734 10.615 21.641 72.67 89.754 123.426 165.649 123.426s143.991-50.757 165.666-123.426c1.331-4.505-1.229-9.267-5.735-10.615-0.837-0.239-1.656-0.358-2.457-0.358z" />
<glyph unicode="&#xe619;" d="M41.831 364.135c0 15.685 6.127 30.413 17.203 41.489 22.186 22.169 60.809 22.169 82.995 0 3.328-3.328 8.738-3.328 12.066 0s3.328 8.738 0 12.066c-14.319 14.319-33.349 22.186-53.572 22.186-20.241 0-39.254-7.885-53.555-22.186-14.319-14.302-22.203-33.331-22.203-53.555s7.902-39.254 22.186-53.555c1.672-1.656 3.857-2.492 6.041-2.492s4.369 0.837 6.025 2.492c3.328 3.328 3.328 8.738 0 12.066-11.059 11.077-17.186 25.805-17.186 41.489zM256.017 407.637c-103.543 0-187.785-84.258-187.785-187.784 0-65.28 33.553-122.846 84.275-156.502-0.034-0.086-0.119-0.12-0.154-0.205l-21.334-42.666c-2.099-4.199-0.393-9.353 3.823-11.435 1.246-0.615 2.543-0.921 3.823-0.921 3.141 0 6.127 1.724 7.629 4.745l20.821 41.642c26.488-14.285 56.763-22.425 88.9-22.425 32.12 0 62.361 8.141 88.849 22.409l20.839-41.677c1.502-2.969 4.505-4.693 7.646-4.693 1.263 0 2.577 0.29 3.823 0.87 4.199 2.134 5.939 7.236 3.823 11.469l-21.334 42.666c-0.034 0.086-0.12 0.12-0.154 0.205 50.739 33.656 84.293 91.204 84.293 156.518 0 103.526-84.275 187.784-187.784 187.784zM256.017 49.169c-94.157 0-170.718 76.578-170.718 170.701s76.561 170.718 170.718 170.718c94.123 0 170.718-76.595 170.718-170.718s-76.561-170.701-170.718-170.701zM465.050 417.69c-14.302 14.302-33.297 22.186-53.555 22.186s-39.27-7.885-53.572-22.186c-3.328-3.328-3.328-8.738 0-12.066 3.311-3.328 8.738-3.328 12.066 0 22.17 22.152 60.808 22.186 82.978-0.017 11.077-11.076 17.186-25.805 17.186-41.472s-6.127-30.413-17.186-41.489c-3.311-3.328-3.311-8.738 0-12.066 1.69-1.656 3.857-2.492 6.041-2.492 2.168 0 4.335 0.837 6.024 2.492 14.319 14.302 22.204 33.314 22.204 53.555s-7.885 39.254-22.187 53.555zM324.625 300.015l-53.521-53.334c-2.065 1.161-4.25 2.082-6.57 2.765v114.944c0 4.71-3.84 8.534-8.534 8.534-4.71 0-8.534-3.823-8.534-8.534v-114.944c-12.903-3.738-22.409-15.513-22.409-29.594 0-17.067 13.875-30.942 30.942-30.942 17.050 0 30.925 13.892 30.942 30.942 0 5.342-1.485 10.309-3.891 14.678l53.623 53.418c3.328 3.345 3.328 8.738 0 12.066-3.294 3.328-8.704 3.328-12.049 0zM256.017 205.961c-7.646 0-13.875 6.264-13.875 13.892 0 7.646 6.23 13.875 13.875 13.875 3.277 0 6.178-1.314 8.55-3.226 0.325-0.478 0.529-1.024 0.973-1.451 0.358-0.358 0.853-0.546 1.263-0.837 1.826-2.355 3.106-5.171 3.106-8.362-0.017-7.646-6.264-13.892-13.892-13.892z" />
<glyph unicode="&#xe61a;" d="M256-29.866c-136.721 0-253.867 174.779-253.867 317.866 0 124.211 87.791 189.866 253.867 189.866 166.058 0 253.866-65.655 253.866-189.866 0-143.087-117.145-317.866-253.867-317.866zM256 460.8c-108.032 0-236.8-29.986-236.8-172.8 0-135.407 109.261-300.8 236.8-300.8s236.8 165.393 236.8 300.8c0 142.814-128.785 172.8-236.8 172.8zM303.906 218.231h-0.12c-4.642 0-8.431 3.721-8.534 8.363-0.598 30.344 13.125 62.259 37.615 87.535 25.788 26.607 59.358 42.087 92.109 42.479 2.491-0.222 4.591-0.905 6.178-2.543 1.639-1.673 2.491-3.909 2.474-6.229-1.928-65.417-66.202-129.605-129.724-129.605zM415.795 338.944c-25.241-2.867-50.534-15.923-70.673-36.676-18.91-19.541-30.464-43.333-32.495-66.492 48.333 5.308 96.375 53.368 103.168 103.168zM211.763 218.231h-0.137c-63.539 0-127.795 64.205-129.741 129.605-0.051 2.338 0.837 4.574 2.457 6.246 1.621 1.656 4.266 2.338 6.178 2.543 32.768-0.392 66.338-15.872 92.126-42.479 24.507-25.276 38.213-57.19 37.615-87.535-0.069-4.659-3.857-8.379-8.499-8.379zM99.754 338.944c6.793-49.784 54.818-97.86 103.151-103.168-2.031 23.143-13.568 46.951-32.495 66.492-20.121 20.77-45.431 33.809-70.656 36.676zM226.321 110.933c-4.71 0-8.534 3.84-8.534 8.534v17.067c0 4.693 3.823 8.534 8.534 8.534s8.534-3.84 8.534-8.534v-17.067c0-4.693-3.823-8.534-8.534-8.534zM294.587 110.933c-4.711 0-8.534 3.84-8.534 8.534v17.067c0 4.693 3.823 8.534 8.534 8.534s8.534-3.84 8.534-8.534v-17.067c0-4.693-3.823-8.534-8.534-8.534z" />
<glyph unicode="&#xe61b;" d="M256 129.673c-142.353 0-253.867 62.089-253.867 141.329s111.513 141.329 253.867 141.329c142.353 0 253.866-62.089 253.866-141.329s-111.514-141.329-253.867-141.329zM256 395.264c-130.577 0-236.8-55.757-236.8-124.263s106.223-124.262 236.8-124.262c130.56 0 236.8 55.757 236.8 124.262 0 68.522-106.24 124.262-236.8 124.262zM275.2 271.001c0-10.607-8.593-19.2-19.2-19.2s-19.2 8.593-19.2 19.2c0 10.607 8.593 19.2 19.2 19.2s19.2-8.593 19.2-19.2zM256 187.801c-45.875 0-83.2 37.342-83.2 83.2s37.325 83.2 83.2 83.2c45.875 0 83.2-37.325 83.2-83.2s-37.325-83.2-83.2-83.2zM256 337.135c-36.471 0-66.133-29.662-66.133-66.134s29.662-66.133 66.133-66.133c36.471 0 66.134 29.662 66.134 66.133s-29.679 66.134-66.134 66.134zM65.144-4.796h-17.067c0 46.831 34.355 82.142 79.906 82.142h22.954c23.023 0 49.767 18.841 49.767 43.144v25.105h17.066v-25.105c0-34.491-35.277-60.228-66.833-60.228h-22.938c-35.84 0-62.856-27.955-62.856-65.058zM468.344-4.796h-17.067c0 35.909-30.191 65.075-67.277 65.075h-22.971c-32.461 0-57.925 26.454-57.925 60.211v25.105h17.067v-25.105c0-24.61 17.545-43.161 40.858-43.161h22.971c46.507 0 84.344-36.847 84.344-82.125zM38.587 324.796c-4.711 0-8.534 3.823-8.534 8.534v44.8c0 45.363 30.072 74.666 76.612 74.666h25.788c4.71 0 8.534-3.823 8.534-8.534s-3.823-8.534-8.534-8.534h-25.787c-37.308 0-59.545-21.538-59.545-57.6v-44.8c0-4.71-3.823-8.534-8.533-8.534zM482.321 324.796c-4.711 0-8.534 3.823-8.534 8.534v44.8c0 36.608-21.043 57.6-57.788 57.6h-27.546c-4.711 0-8.534 3.823-8.534 8.534s3.823 8.534 8.534 8.534h27.546c46.183 0 74.855-28.621 74.855-74.666v-44.8c0-4.71-3.823-8.534-8.534-8.534z" />
<glyph unicode="&#xe61c;" d="M68.608 250.129c-18.825 0-34.133 15.309-34.133 34.133s15.309 34.133 34.133 34.133c18.808 0 34.133-15.309 34.133-34.133s-15.326-34.133-34.133-34.133zM68.608 301.329c-9.421 0-17.067-7.663-17.067-17.066s7.646-17.067 17.067-17.067 17.067 7.663 17.067 17.067-7.663 17.066-17.067 17.066zM469.317 78.745h-460.8c-4.71 0-8.534 3.823-8.534 8.534v192.529c0 43.23 17.937 89.43 68.266 89.43 35.669 0 63.010-34.663 67.038-68.625h293.735c4.438 7.97 13.755 21.334 26.607 21.334s22.169-13.363 26.607-21.334h21.231c4.711 0 8.534-3.823 8.534-8.534v-4.71c0-40.414-30.993-72.090-70.587-72.090h-219.375l-28.006-51.2h204.714c38.041 0 79.121-25.959 79.121-67.857v-8.943c-0.017-4.711-3.84-8.534-8.55-8.534zM17.049 95.813l443.733 0.409c0 30.361-32.086 50.791-62.055 50.791h-219.102c-3.004 0-5.803 1.587-7.339 4.181s-1.587 5.803-0.154 8.448l37.342 68.267c1.502 2.748 4.369 4.438 7.493 4.438h224.426c28.774 0 51.558 22.203 53.401 51.2h-17.869c-3.328 0-6.4 1.98-7.765 5.034-3.738 8.226-10.428 16.298-13.568 16.298-3.123 0-9.831-8.072-13.534-16.298-1.399-3.055-4.438-5.034-7.8-5.034h-306.995c-4.71 0-8.534 3.823-8.534 8.534 0 30.89-24.542 60.091-50.483 60.091-46.217 0-51.2-50.602-51.2-72.363v-183.995zM435.183 189.679c-4.711 0-8.534 3.823-8.534 8.534v17.067c0 4.711 3.823 8.534 8.534 8.534s8.534-3.823 8.534-8.534v-17.067c0-4.711-3.823-8.534-8.534-8.534zM401.050 155.546c-4.711 0-8.534 3.823-8.534 8.534v17.067c0 4.711 3.823 8.534 8.534 8.534s8.534-3.823 8.534-8.534v-17.067c0-4.711-3.823-8.534-8.534-8.534z" />
<glyph unicode="&#xe61d;" d="M494.933 352h-477.866c-4.71 0-8.534 3.823-8.534 8.534s3.823 8.534 8.534 8.534h477.866c4.693 0 8.534-3.823 8.534-8.534s-3.84-8.534-8.534-8.534zM426.666 283.733h-358.4c-4.71 0-8.534 3.823-8.534 8.534s3.823 8.534 8.534 8.534h358.4c4.694 0 8.534-3.823 8.534-8.534s-3.84-8.534-8.534-8.534zM341.334 215.466h-170.667c-4.71 0-8.534 3.823-8.534 8.534s3.823 8.534 8.534 8.534h170.667c4.694 0 8.534-3.823 8.534-8.534s-3.84-8.534-8.534-8.534zM409.6 147.2h-324.267c-4.71 0-8.534 3.84-8.534 8.534s3.823 8.534 8.534 8.534h324.267c4.693 0 8.534-3.84 8.534-8.534s-3.84-8.534-8.534-8.534zM494.933 78.933h-477.866c-4.71 0-8.534 3.84-8.534 8.534s3.823 8.534 8.534 8.534h477.866c4.693 0 8.534-3.84 8.534-8.534s-3.84-8.534-8.534-8.534z" />
<glyph unicode="&#xe61e;" d="M494.933 352h-477.866c-4.71 0-8.534 3.823-8.534 8.534s3.823 8.534 8.534 8.534h477.866c4.693 0 8.534-3.823 8.534-8.534s-3.84-8.534-8.534-8.534zM494.933 283.733h-477.866c-4.71 0-8.534 3.823-8.534 8.534s3.823 8.534 8.534 8.534h477.866c4.693 0 8.534-3.823 8.534-8.534s-3.84-8.534-8.534-8.534zM494.933 215.466h-477.866c-4.71 0-8.534 3.823-8.534 8.534s3.823 8.534 8.534 8.534h477.866c4.693 0 8.534-3.823 8.534-8.534s-3.84-8.534-8.534-8.534zM494.933 147.2h-477.866c-4.71 0-8.534 3.84-8.534 8.534s3.823 8.534 8.534 8.534h477.866c4.693 0 8.534-3.84 8.534-8.534s-3.84-8.534-8.534-8.534zM494.933 78.933h-477.866c-4.71 0-8.534 3.84-8.534 8.534s3.823 8.534 8.534 8.534h477.866c4.693 0 8.534-3.84 8.534-8.534s-3.84-8.534-8.534-8.534z" />
<glyph unicode="&#xe61f;" d="M494.933 352h-477.866c-4.71 0-8.534 3.823-8.534 8.534s3.823 8.534 8.534 8.534h477.866c4.693 0 8.534-3.823 8.534-8.534s-3.84-8.534-8.534-8.534zM494.933 283.733h-477.866c-4.71 0-8.534 3.823-8.534 8.534s3.823 8.534 8.534 8.534h477.866c4.693 0 8.534-3.823 8.534-8.534s-3.84-8.534-8.534-8.534zM494.933 215.466h-477.866c-4.71 0-8.534 3.823-8.534 8.534s3.823 8.534 8.534 8.534h477.866c4.693 0 8.534-3.823 8.534-8.534s-3.84-8.534-8.534-8.534zM494.933 147.2h-477.866c-4.71 0-8.534 3.84-8.534 8.534s3.823 8.534 8.534 8.534h477.866c4.693 0 8.534-3.84 8.534-8.534s-3.84-8.534-8.534-8.534zM392.534 78.933h-256c-4.71 0-8.534 3.84-8.534 8.534s3.823 8.534 8.534 8.534h256c4.693 0 8.534-3.84 8.534-8.534s-3.84-8.534-8.534-8.534z" />
<glyph unicode="&#xe620;" d="M494.933 352h-477.866c-4.71 0-8.534 3.823-8.534 8.534s3.823 8.534 8.534 8.534h477.866c4.693 0 8.534-3.823 8.534-8.534s-3.84-8.534-8.534-8.534zM494.933 283.733h-477.866c-4.71 0-8.534 3.823-8.534 8.534s3.823 8.534 8.534 8.534h477.866c4.693 0 8.534-3.823 8.534-8.534s-3.84-8.534-8.534-8.534zM494.933 215.466h-477.866c-4.71 0-8.534 3.823-8.534 8.534s3.823 8.534 8.534 8.534h477.866c4.693 0 8.534-3.823 8.534-8.534s-3.84-8.534-8.534-8.534zM494.933 147.2h-477.866c-4.71 0-8.534 3.84-8.534 8.534s3.823 8.534 8.534 8.534h477.866c4.693 0 8.534-3.84 8.534-8.534s-3.84-8.534-8.534-8.534zM494.933 78.933h-256c-4.71 0-8.534 3.84-8.534 8.534s3.823 8.534 8.534 8.534h256c4.693 0 8.534-3.84 8.534-8.534s-3.84-8.534-8.534-8.534z" />
<glyph unicode="&#xe621;" d="M494.933 352h-477.866c-4.71 0-8.534 3.823-8.534 8.534s3.823 8.534 8.534 8.534h477.866c4.693 0 8.534-3.823 8.534-8.534s-3.84-8.534-8.534-8.534zM494.933 283.733h-477.866c-4.71 0-8.534 3.823-8.534 8.534s3.823 8.534 8.534 8.534h477.866c4.693 0 8.534-3.823 8.534-8.534s-3.84-8.534-8.534-8.534zM494.933 215.466h-477.866c-4.71 0-8.534 3.823-8.534 8.534s3.823 8.534 8.534 8.534h477.866c4.693 0 8.534-3.823 8.534-8.534s-3.84-8.534-8.534-8.534zM494.933 147.2h-477.866c-4.71 0-8.534 3.84-8.534 8.534s3.823 8.534 8.534 8.534h477.866c4.693 0 8.534-3.84 8.534-8.534s-3.84-8.534-8.534-8.534zM273.067 78.933h-256c-4.71 0-8.534 3.84-8.534 8.534s3.823 8.534 8.534 8.534h256c4.693 0 8.534-3.84 8.534-8.534s-3.84-8.534-8.534-8.534z" />
<glyph unicode="&#xe622;" d="M494.933 352h-477.866c-4.71 0-8.534 3.823-8.534 8.534s3.823 8.534 8.534 8.534h477.866c4.693 0 8.534-3.823 8.534-8.534s-3.84-8.534-8.534-8.534zM494.933 283.733h-358.4c-4.71 0-8.534 3.823-8.534 8.534s3.823 8.534 8.534 8.534h358.4c4.693 0 8.534-3.823 8.534-8.534s-3.84-8.534-8.534-8.534zM494.933 215.466h-170.667c-4.693 0-8.534 3.823-8.534 8.534s3.84 8.534 8.534 8.534h170.667c4.693 0 8.534-3.823 8.534-8.534s-3.84-8.534-8.534-8.534zM494.933 147.2h-324.267c-4.71 0-8.534 3.84-8.534 8.534s3.823 8.534 8.534 8.534h324.267c4.693 0 8.534-3.84 8.534-8.534s-3.84-8.534-8.534-8.534zM494.933 78.933h-477.866c-4.71 0-8.534 3.84-8.534 8.534s3.823 8.534 8.534 8.534h477.866c4.693 0 8.534-3.84 8.534-8.534s-3.84-8.534-8.534-8.534z" />
<glyph unicode="&#xe623;" d="M494.933 352h-477.866c-4.71 0-8.534 3.823-8.534 8.534s3.823 8.534 8.534 8.534h477.866c4.693 0 8.534-3.823 8.534-8.534s-3.84-8.534-8.534-8.534zM392.534 283.733h-375.466c-4.71 0-8.534 3.823-8.534 8.534s3.823 8.534 8.534 8.534h375.466c4.693 0 8.534-3.823 8.534-8.534s-3.84-8.534-8.534-8.534zM187.733 215.466h-170.667c-4.71 0-8.534 3.823-8.534 8.534s3.823 8.534 8.534 8.534h170.667c4.71 0 8.534-3.823 8.534-8.534s-3.823-8.534-8.534-8.534zM341.334 147.2h-324.267c-4.71 0-8.534 3.84-8.534 8.534s3.823 8.534 8.534 8.534h324.267c4.694 0 8.534-3.84 8.534-8.534s-3.84-8.534-8.534-8.534zM273.067 78.933h-256c-4.71 0-8.534 3.84-8.534 8.534s3.823 8.534 8.534 8.534h256c4.693 0 8.534-3.84 8.534-8.534s-3.84-8.534-8.534-8.534z" />
<glyph unicode="&#xe624;" d="M176.315 9.165c-93.935 0-167.51 75.059-167.51 170.906 0 108.919 61.611 171.4 169.046 171.4 86.75 0 123.17-77.96 148.941-152.234v231.048c0 4.71 3.84 8.534 8.534 8.534s8.534-3.823 8.534-8.534v-251.187c0-8.738-0.615-17.305-1.792-25.634 17.305-52.019 33.741-94.327 63.642-94.327 55.262 0 80.435 42.735 80.435 82.466 0 4.694 3.84 8.534 8.534 8.534s8.534-3.84 8.534-8.534c0-49.442-33.502-99.533-97.502-99.533-35.294 0-54.204 34.373-70.998 80.435-22.545-66.663-84.105-113.339-158.395-113.339zM177.834 334.404c-96.581 0-151.978-56.251-151.978-154.334 0-86.238 66.082-153.839 150.425-153.839 75.264 0 135.97 53.435 148.241 125.798-1.161 3.498-2.355 7.065-3.498 10.632-26.454 80.504-56.474 171.742-143.19 171.742z" />
<glyph unicode="&#xe625;" d="M102.929 55.637c-28.228 0-51.2 22.989-51.2 51.2 0 28.228 22.972 51.2 51.2 51.2s51.2-22.971 51.2-51.2c0-28.228-22.971-51.2-51.2-51.2zM102.929 140.971c-18.841 0-34.133-15.291-34.133-34.134 0-18.825 15.291-34.134 34.133-34.134 18.825 0 34.133 15.309 34.133 34.134s-15.309 34.134-34.133 34.134zM422.929 55.637c-28.228 0-51.2 22.989-51.2 51.2 0 28.228 22.971 51.2 51.2 51.2s51.2-22.971 51.2-51.2c0-28.228-22.954-51.2-51.2-51.2zM422.929 140.971c-18.841 0-34.134-15.291-34.134-34.134 0-18.825 15.291-34.134 34.134-34.134 18.825 0 34.134 15.309 34.134 34.134s-15.309 34.134-34.134 34.134zM324.267 85.163h-136.534c-4.71 0-8.534 3.84-8.534 8.534s3.823 8.534 8.534 8.534h136.534c4.694 0 8.534-3.84 8.534-8.534s-3.84-8.534-8.534-8.534zM503.466 76.63c-4.693 0-8.534 3.84-8.534 8.534v256h-375.466c-4.71 0-8.534 3.823-8.534 8.534s3.823 8.534 8.534 8.534h384c4.693 0 8.534-3.823 8.534-8.534v-264.534c0-4.693-3.84-8.534-8.534-8.534zM8.534 76.63c-4.71 0-8.534 3.84-8.534 8.534v129.195c0 3.464 2.065 6.553 5.256 7.868l45.944 19.183v37.888c0 49.425 25.514 78.933 68.266 78.933 4.71 0 8.534-3.823 8.534-8.534s-3.823-8.534-8.534-8.534c-42.309 0-51.2-33.639-51.2-61.866v-43.571c0-3.447-2.065-6.553-5.257-7.868l-45.944-19.149v-123.529c0-4.711-3.823-8.55-8.534-8.55zM162.133 238.762h-66.321c-4.71 0-8.534 3.823-8.534 8.534 0 46.37 51.985 74.53 74.855 74.53 4.71 0 8.534-3.823 8.534-8.534v-65.997c0-4.71-3.823-8.534-8.534-8.534zM105.165 255.829h48.435v47.377c-16.401-4.933-43.4-21.538-48.435-47.377zM196.267 341.163h-34.133c-4.71 0-8.534 3.823-8.534 8.534v34.133c0 4.71 3.823 8.534 8.534 8.534h34.133c4.71 0 8.534-3.823 8.534-8.534v-34.133c0-4.711-3.823-8.534-8.534-8.534zM170.667 358.23h17.066v17.066h-17.066v-17.066zM401.067 187.563h-51.2c-4.694 0-8.534 3.84-8.534 8.534v25.6h-25.6c-4.694 0-8.534 3.823-8.534 8.534v51.2c0 4.71 3.84 8.534 8.534 8.534h25.6v25.6c0 4.711 3.84 8.534 8.534 8.534h51.2c4.693 0 8.534-3.823 8.534-8.534v-25.6h25.6c4.693 0 8.534-3.823 8.534-8.534v-51.2c0-4.71-3.84-8.534-8.534-8.534h-25.6v-25.6c0-4.693-3.84-8.534-8.534-8.534zM358.4 204.63h34.134v25.6c0 4.71 3.84 8.534 8.534 8.534h25.6v34.133h-25.6c-4.693 0-8.534 3.823-8.534 8.534v25.6h-34.134v-25.6c0-4.71-3.84-8.534-8.534-8.534h-25.6v-34.133h25.6c4.693 0 8.534-3.823 8.534-8.534v-25.6z" />
<glyph unicode="&#xe626;" d="M335.326 240.776c-59.461-3.499-113.016-11.144-159.693-19.61l10.582 62.566h36.454l35.123-38.383 48.896 38.383h89.327l24.866-30.344 35.141 30.344h55.978l-49.033-41.523c-29.627 0.546-58.197 0.819-85.658-0.051l-34.986 40.312-6.998-41.694zM167.543 173.738l-12.083 31.079c-14.524-2.543-28.638-7.51-42.343-10.82l9.984-29.73h85.777l8.311 47.428c-14.797-1.724-29.508-2.628-43.981-4.898l-5.666-33.058zM382.003 223.062l-57.668-47.65 7.339 46.507c-14.114-0.512-28.519-3.209-43.127-4.096l-8.977-53.555h93.338l39.56 33.45 29.764-33.45h55.569l-42.308 56.303c-21.197 0.495-46.2 2.799-73.489 2.491zM150.579 216.389c-68.284-14.063-119.791-32.495-150.579-49.715l78.677 117.043h45.329l26.573-67.328zM105.659 216.747l-10.326 28.672-18.329-28.672h28.655z" />
<glyph unicode="&#xe627;" d="M256.017-19.627c-104.687 0-189.867 85.18-189.867 189.867 0 4.693 3.823 8.534 8.534 8.534 4.694 0 8.534-3.84 8.534-8.534 0-95.283 77.517-172.8 172.8-172.8s172.8 77.517 172.8 172.8c0 4.693 3.806 8.534 8.534 8.534 4.694 0 8.534-3.84 8.534-8.534 0.017-104.687-85.18-189.866-189.867-189.866zM245.538 375.040h17.067v-392.534h-17.066v392.534zM500.327 130.373c-1.604 0-3.226 0.461-4.659 1.416l-58.3 38.553-58.3-38.553c-3.959-2.577-9.233-1.519-11.827 2.423-2.594 3.909-1.536 9.233 2.406 11.81l62.993 41.642c2.833 1.894 6.57 1.894 9.404 0l62.993-41.642c3.925-2.577 5-7.885 2.406-11.81-1.604-2.491-4.335-3.84-7.117-3.84zM137.677 130.373c-1.621 0-3.226 0.461-4.677 1.416l-58.299 38.553-58.317-38.553c-3.925-2.577-9.233-1.519-11.827 2.423-2.594 3.909-1.519 9.233 2.406 11.81l62.993 41.642c2.85 1.894 6.57 1.894 9.421 0l62.993-41.642c3.909-2.577 5-7.885 2.406-11.81-1.621-2.491-4.335-3.84-7.1-3.84zM256.017 365.226c-28.228 0-51.2 22.971-51.2 51.2s22.971 51.2 51.2 51.2c28.228 0 51.2-22.971 51.2-51.2s-22.971-51.2-51.2-51.2zM256.017 450.56c-18.841 0-34.133-15.309-34.133-34.133s15.292-34.134 34.133-34.134c18.808 0 34.133 15.309 34.133 34.134s-15.309 34.133-34.134 34.133zM313.805 306.774h-119.466c-4.71 0-8.534 3.823-8.534 8.534s3.823 8.534 8.534 8.534h119.466c4.711 0 8.534-3.823 8.534-8.534s-3.823-8.534-8.534-8.534z" />
<glyph unicode="&#xe628;" d="M255.813-29.866c-99.397 0-180.275 80.862-180.275 180.275h17.067c0-89.959 73.216-163.208 163.209-163.208s163.208 73.216 163.208 163.208h17.067c0.017-99.397-80.862-180.275-180.275-180.275zM255.813 387.209c-25.002 0-45.346 20.326-45.346 45.312 0 25.003 20.344 45.346 45.346 45.346s45.346-20.343 45.346-45.346c0-24.986-20.344-45.312-45.346-45.312zM255.813 460.8c-15.599 0-28.279-12.68-28.279-28.28 0-15.582 12.68-28.245 28.279-28.245 15.582 0 28.279 12.681 28.279 28.246 0 15.599-12.714 28.279-28.279 28.279zM255.813-25.259c-4.71 0-8.534 3.857-8.534 8.534v409.6c0 4.711 3.823 8.534 8.534 8.534s8.534-3.823 8.534-8.534v-409.6c0-4.711-3.823-8.534-8.534-8.534zM332.595 358.741h-153.583c-4.71 0-8.534 3.823-8.534 8.534s3.823 8.534 8.534 8.534h153.583c4.711 0 8.534-3.823 8.534-8.534s-3.789-8.534-8.534-8.534zM131.686 136.875c-0.102 0-0.222 0-0.341 0h-94.532c-3.055 0-5.871 1.656-7.39 4.267-1.519 2.646-1.519 5.922 0 8.534l47.275 81.869c1.519 2.645 4.335 4.267 7.39 4.267v0c3.055 0 5.871-1.621 7.39-4.267l46.233-80.077c1.553-1.553 2.509-3.687 2.509-6.041 0-4.728-3.823-8.55-8.534-8.55zM51.609 153.942h64.973l-32.478 56.269-32.495-56.269zM475.187 136.875c-0.12 0-0.222 0-0.358 0h-94.532c-3.072 0-5.871 1.656-7.407 4.267-1.502 2.646-1.502 5.939 0 8.534l47.291 81.869c1.519 2.645 4.335 4.267 7.424 4.267v0c3.038 0 5.871-1.621 7.373-4.267l46.233-80.077c1.587-1.553 2.509-3.687 2.509-6.041 0-4.728-3.84-8.55-8.534-8.55zM395.059 153.942h64.99l-32.478 56.269-32.512-56.269z" />
<glyph unicode="&#xe629;" d="M218.146 90.454c-12.68 0-21.88 9.353-21.88 22.255v103.697c0 12.68 9.558 22.255 22.238 22.255 4.642 0 9.352-1.297 13.602-3.755l91.614-51.798c8.141-4.711 12.749-11.656 12.749-19.098 0-7.099-4.284-13.637-11.742-17.971l-93.218-51.899c-4.13-2.389-8.79-3.687-13.363-3.687zM218.505 221.577c-1.929 0-5.171-0.666-5.171-5.188v-103.68c0-7.373 5.803-6.041 9.745-3.721l93.218 51.917c2.219 1.28 3.106 2.594 3.106 3.14 0 0.7-1.127 2.491-4.147 4.267l-91.614 51.781c-1.758 0.973-3.499 1.485-5.137 1.485zM477.866-31.829h-443.733c-4.71 0-8.534 3.84-8.534 8.534v358.4c0 4.71 3.823 8.534 8.534 8.534h443.733c4.693 0 8.534-3.823 8.534-8.534v-358.4c0-4.711-3.84-8.534-8.534-8.534zM42.666-14.762h426.666v341.334h-426.666v-341.334zM341.334 335.104c-4.694 0-8.534 3.823-8.534 8.534v44.919c0 40.926-38.281 74.223-85.334 74.223-47.855 0-85.334-31.881-85.334-72.584v-46.541c0-4.71-3.823-8.534-8.534-8.534s-8.534 3.823-8.534 8.534v46.541c0 50.278 44.988 89.651 102.4 89.651 56.473 0 102.4-40.943 102.4-91.289v-44.92c0-4.71-3.84-8.534-8.534-8.534z" />
<glyph unicode="&#xe62a;" d="M316.313 61.406h-117.606c-39.987 0-79.24 36.369-79.24 73.455v174.012c0 4.71 3.823 8.534 8.534 8.534h256c4.693 0 8.534-3.823 8.534-8.534v-173.994c0-37.786-37.051-73.472-76.219-73.472zM136.534 300.339v-165.462c0-27.392 31.966-56.406 62.174-56.406h117.607c29.303 0 59.153 28.467 59.153 56.406v165.462h-238.934zM204.8-23.211c-16.913 0-34.133 16.418-34.133 32.563v69.12h17.066v-69.137c0-6.793 9.575-15.497 17.066-15.497s17.066 8.687 17.066 15.497v69.137h17.066v-69.137c0-16.128-17.22-32.546-34.133-32.546zM307.2-23.211c-16.913 0-34.133 16.418-34.133 32.563v69.12h17.067v-69.137c0-6.793 9.575-15.497 17.067-15.497s17.067 8.687 17.067 15.497v69.137h17.067v-69.137c0-16.128-17.221-32.546-34.134-32.546zM368.264 334.472h-238.575c-2.406 0-4.71 1.024-6.332 2.799-1.605 1.775-2.406 4.181-2.15 6.553 9.285 94.31 69.82 107.025 127.778 107.025s118.477-12.715 127.778-107.025c0.239-2.389-0.563-4.779-2.168-6.57-1.622-1.758-3.925-2.782-6.332-2.782zM139.315 351.539h219.358c-9.865 68.216-49.51 82.262-109.671 82.262s-99.84-14.046-109.688-82.262zM320.307 424.278c-1.809 0-3.67 0.58-5.223 1.775-3.755 2.867-4.438 8.226-1.57 11.964l22.954 29.866c2.867 3.738 8.209 4.438 11.964 1.57 3.738-2.867 4.438-8.226 1.57-11.963l-22.954-29.867c-1.69-2.202-4.216-3.345-6.741-3.345zM172.578 424.278c-2.56 0-5.103 1.143-6.775 3.328l-22.938 29.866c-2.867 3.738-2.167 9.097 1.553 11.964 3.738 2.867 9.079 2.185 11.964-1.57l22.938-29.866c2.867-3.738 2.167-9.096-1.57-11.964-1.536-1.195-3.345-1.758-5.171-1.758zM448 146.739h-8.534c-16.469 0-29.866 13.397-29.866 29.866v110.933c0 16.469 13.397 29.867 29.866 29.867h8.534c16.469 0 29.866-13.398 29.866-29.867v-110.933c0-16.469-13.397-29.866-29.866-29.866zM439.466 300.339c-7.065 0-12.8-5.734-12.8-12.8v-110.933c0-7.065 5.735-12.8 12.8-12.8h8.534c7.065 0 12.8 5.735 12.8 12.8v110.933c0 7.065-5.735 12.8-12.8 12.8h-8.534zM72.534 146.739h-8.534c-16.469 0-29.867 13.397-29.867 29.866v110.933c0 16.469 13.398 29.867 29.867 29.867h8.534c16.469 0 29.867-13.398 29.867-29.867v-110.933c0-16.469-13.398-29.866-29.867-29.866zM64 300.339c-7.066 0-12.8-5.734-12.8-12.8v-110.933c0-7.065 5.734-12.8 12.8-12.8h8.534c7.066 0 12.8 5.735 12.8 12.8v110.933c0 7.065-5.734 12.8-12.8 12.8h-8.534z" />
<glyph unicode="&#xe62b;" d="M224 178.227c-4.71 0-8.534 3.823-8.534 8.534 0 12.937-10.53 23.466-23.466 23.466s-23.466-10.53-23.466-23.466c0-4.711-3.84-8.534-8.534-8.534-4.71 0-8.534 3.823-8.534 8.534 0 22.358 18.159 40.534 40.534 40.534 22.358 0 40.534-18.176 40.534-40.534 0-4.728-3.84-8.534-8.534-8.534zM352 178.227c-4.711 0-8.534 3.823-8.534 8.534 0 12.937-10.53 23.466-23.466 23.466s-23.466-10.53-23.466-23.466c0-4.711-3.84-8.534-8.534-8.534-4.711 0-8.534 3.823-8.534 8.534 0 22.358 18.159 40.534 40.534 40.534 22.358 0 40.534-18.176 40.534-40.534 0-4.728-3.84-8.534-8.534-8.534zM54.374 144.93c-1.536 0-3.089 0.392-4.489 1.28-14.336 8.892-28.091 18.62-40.874 29.014-3.652 2.969-4.215 8.329-1.246 12.015 2.953 3.635 8.329 4.216 11.998 1.246 12.237-9.933 25.395-19.251 39.117-27.75 4.011-2.491 5.24-7.731 2.765-11.742-1.621-2.628-4.403-4.062-7.27-4.062zM457.608 144.913c-2.85 0-5.649 1.433-7.253 4.010-2.491 4.010-1.246 9.267 2.765 11.742 13.637 8.465 26.812 17.817 39.151 27.819 3.67 2.969 9.029 2.406 12.015-1.263 2.969-3.652 2.406-9.029-1.263-11.998-12.885-10.428-26.658-20.241-40.892-29.048-1.433-0.837-2.969-1.263-4.522-1.263zM72.022 223.096c-1.775 0-3.55 0.563-5.069 1.69-20.582 15.257-39.304 32.973-55.672 52.651-3.003 3.618-2.509 8.994 1.11 12.015 3.635 3.021 8.994 2.491 12.015-1.11 15.479-18.637 33.212-35.396 52.702-49.851 3.789-2.799 4.574-8.158 1.775-11.929-1.672-2.27-4.249-3.465-6.861-3.465zM438.477 222.021c-2.611 0-5.223 1.212-6.878 3.499-2.799 3.806-1.962 9.131 1.826 11.929 20.087 14.728 38.315 31.881 54.152 50.944 3.021 3.618 8.397 4.13 12.015 1.11 3.635-3.021 4.13-8.397 1.11-12.015-16.743-20.156-35.976-38.263-57.224-53.811-1.485-1.11-3.243-1.656-5-1.656zM256 375.125c-61.611 0-108.083 22.016-108.083 51.2s46.472 51.2 108.083 51.2c61.627 0 108.083-22.016 108.083-51.2s-46.456-51.2-108.083-51.2zM256 460.459c-52.088 0-91.017-18.023-91.017-34.134s38.929-34.133 91.017-34.133c52.105 0 91.017 18.022 91.017 34.133s-38.912 34.134-91.017 34.134zM256-29.526c-92.928 0-168.534 75.623-168.534 168.534 0 92.928 75.606 168.534 168.534 168.534s168.534-75.606 168.534-168.534c0-92.928-75.606-168.534-168.534-168.534zM256 290.475c-83.541 0-151.466-67.942-151.466-151.466s67.925-151.466 151.466-151.466c83.524 0 151.466 67.942 151.466 151.466s-67.959 151.466-151.466 151.466zM256 34.474c-57.634 0-104.534 46.899-104.534 104.534 0 4.711 3.823 8.534 8.534 8.534 4.694 0 8.534-3.823 8.534-8.534 0-48.231 39.237-87.466 87.466-87.466s87.466 39.236 87.466 87.466c0 4.711 3.823 8.534 8.534 8.534 4.693 0 8.534-3.823 8.534-8.534 0-57.634-46.899-104.534-104.534-104.534zM256-29.526c-139.981 0-253.867 113.903-253.867 253.867 0 46.592 13.005 92.399 37.598 132.454 1.553 2.526 4.301 4.079 7.27 4.079v0c2.969 0 5.718-1.536 7.27-4.079 23.877-38.895 58.078-69.939 98.936-89.753 4.25-2.065 6.024-7.168 3.942-11.4-2.048-4.267-7.134-6.007-11.4-3.959-39.543 19.2-73.284 48.179-98.304 84.343-18.517-34.44-28.262-72.772-28.262-111.684 0-130.577 106.223-236.8 236.8-236.8 130.56 0 236.8 106.257 236.8 236.8 0 38.929-9.728 77.261-28.245 111.685-25.207-36.438-59.238-65.57-99.209-84.77-4.267-2.031-9.353-0.239-11.401 3.994-2.014 4.249-0.239 9.352 4.010 11.4 41.233 19.798 75.742 50.978 99.755 90.146 3.123 5.069 11.435 5.051 14.575 0 24.593-40.056 37.598-85.863 37.598-132.471 0-139.964-113.903-253.85-253.866-253.85z" />
<glyph unicode="&#xe62c;" d="M252.536 266.547c-39.987 0-72.534 32.529-72.534 72.534s32.546 72.534 72.534 72.534 72.534-32.529 72.534-72.534-32.529-72.534-72.534-72.534zM252.536 394.547c-30.584 0-55.466-24.883-55.466-55.466s24.883-55.466 55.466-55.466 55.466 24.883 55.466 55.466-24.883 55.466-55.466 55.466zM285.167 441.942h-68.267c-4.71 0-8.534 3.823-8.534 8.534s3.823 8.534 8.534 8.534h68.267c4.694 0 8.534-3.823 8.534-8.534s-3.84-8.534-8.534-8.534zM253.030-11.008c-42.94 0.239-119.808 3.106-153.395 19.558-2.936 1.433-4.778 4.421-4.778 7.68 0.069 91.818 52.872 232.243 104.602 278.221 3.516 3.14 8.909 2.816 12.049-0.717 3.157-3.516 2.816-8.909-0.717-12.049-46.951-41.745-96.648-173.381-98.799-259.959 24.61-9.625 75.332-15.309 141.039-15.702 65.639 0.358 116.327 6.058 140.971 15.702-2.151 86.562-51.849 218.214-98.799 259.925-3.533 3.141-3.857 8.534-0.717 12.049 3.123 3.515 8.517 3.84 12.049 0.699 51.712-45.977 104.517-186.402 104.601-278.221 0-3.26-1.843-6.247-4.779-7.68-33.656-16.401-110.524-19.251-153.327-19.507zM132.847 152.525c-0.461 0-0.956 0.034-1.417 0.103-33.946 5.7-59.699 22.272-76.493 49.169-39.407 63.147-17.101 159.556-5.683 198.059 2.697 9.079 10.53 15.496 19.951 16.35 9.455 0.87 18.261-4.027 22.562-12.476 25.651-50.483 77.38-98.645 115.285-107.349 4.608-1.058 7.475-5.632 6.4-10.223-1.075-4.608-5.632-7.475-10.24-6.4-42.922 9.865-98.543 60.928-126.686 116.258-1.075 2.168-3.413 3.43-5.785 3.208-2.457-0.222-4.438-1.861-5.137-4.198-22.409-75.623-20.992-144.47 3.789-184.183 14.114-22.596 35.909-36.522 64.853-41.387 4.642-0.785 7.782-5.171 6.998-9.813-0.717-4.181-4.335-7.117-8.397-7.117zM379.153 152.525c-4.096 0-7.714 2.935-8.414 7.134-0.768 4.625 2.373 9.029 7.014 9.796 28.911 4.864 50.739 18.774 64.853 41.37 24.798 39.714 26.214 108.561 3.806 184.2-0.683 2.321-2.68 3.96-5.086 4.165-2.543 0.239-4.728-1.024-5.837-3.175-28.126-55.364-83.781-106.41-126.686-116.258-4.608-1.041-9.182 1.826-10.24 6.4-1.058 4.591 1.809 9.165 6.4 10.223 37.922 8.704 89.617 56.849 115.286 107.333 4.267 8.448 13.159 13.346 22.579 12.459 9.404-0.802 17.238-7.219 19.917-16.333 11.418-38.519 33.758-134.946-5.683-198.075-16.81-26.931-42.565-43.452-76.493-49.152-0.478-0.051-0.938-0.086-1.416-0.086z" />
<glyph unicode="&#xe62d;" d="M118.358 76.8c-1.98 0-3.925 0.683-5.564 2.065-3.567 3.072-3.977 8.465-0.921 12.032 36.147 42.103 88.678 66.219 144.111 66.219 55.262 0 107.69-24.013 143.786-65.843 3.106-3.567 2.68-8.943-0.887-12.032s-8.943-2.697-12.032 0.87c-32.887 38.093-80.589 59.972-130.867 59.972-50.466 0-98.27-21.965-131.174-60.279-1.672-1.997-4.062-3.003-6.451-3.003zM256-29.866c-139.981 0-253.867 113.886-253.867 253.867s113.886 253.867 253.867 253.867c139.964 0 253.866-113.886 253.866-253.867s-113.903-253.867-253.867-253.867zM256 460.8c-130.577 0-236.8-106.223-236.8-236.8 0-130.56 106.223-236.8 236.8-236.8 130.56 0 236.8 106.24 236.8 236.8 0 130.577-106.24 236.8-236.8 236.8zM213.316 343.466c-1.28 0-2.577 0.29-3.806 0.904l-85.334 42.667c-4.216 2.116-5.922 7.236-3.823 11.452 2.117 4.215 7.237 5.922 11.452 3.823l85.334-42.667c4.215-2.116 5.922-7.236 3.806-11.452-1.502-2.986-4.488-4.727-7.629-4.727zM298.666 343.466c-3.158 0-6.144 1.724-7.646 4.711-2.116 4.215-0.375 9.335 3.823 11.451l85.334 42.666c4.233 2.117 9.336 0.393 11.435-3.823 2.134-4.216 0.409-9.335-3.806-11.452l-85.334-42.666c-1.212-0.58-2.543-0.887-3.806-0.887zM160 226.133c-28.228 0-51.2 22.971-51.2 51.2s22.972 51.2 51.2 51.2c28.228 0 51.2-22.971 51.2-51.2s-22.971-51.2-51.2-51.2zM160 311.466c-18.841 0-34.133-15.309-34.133-34.134s15.292-34.133 34.133-34.133c18.825 0 34.133 15.309 34.133 34.133s-15.309 34.134-34.133 34.134zM352 226.133c-28.228 0-51.2 22.971-51.2 51.2s22.971 51.2 51.2 51.2 51.2-22.971 51.2-51.2-22.971-51.2-51.2-51.2zM352 311.466c-18.841 0-34.134-15.309-34.134-34.134s15.291-34.133 34.134-34.133c18.825 0 34.134 15.309 34.134 34.133s-15.309 34.134-34.134 34.134z" />
<glyph unicode="&#xe62e;" d="M269.892 375.466c-2.373 0-4.625 0.973-6.247 2.714-1.843 1.979-2.646 4.71-2.151 7.373 5.188 28.126 29.031 81.305 81.784 81.305 7.305 0 15.036-1.024 22.938-3.021 4.199-1.058 6.929-5.103 6.366-9.386-5.632-42.462-73.438-75.657-101.734-78.934-0.307-0.034-0.649-0.051-0.955-0.051zM343.296 449.775c-37.462 0-54.63-34.645-61.372-54.255 24.764 7.97 62.106 29.509 71.646 53.453-3.515 0.546-6.963 0.802-10.274 0.802zM358.366-18.858c-13.773 0-25.873 6.998-38.673 14.404-14.695 8.499-29.866 17.272-49.8 17.272-19.968 0-35.191-8.772-49.886-17.238-12.817-7.407-24.917-14.353-38.707-14.353-8.755 0-17.066 2.816-25.395 8.567-62.464 43.281-129.229 124.757-129.229 223.557 0 107.656 81.425 182.664 154.522 182.664 33.997 0 64.888-14.745 89.787-42.752 35.909 28.245 71.543 42.564 105.967 42.564 25.002 0 48.043-7.594 68.471-22.579 3.362-2.458 4.454-6.981 2.594-10.701-4.471-8.841-6.741-18.005-6.741-27.221 0-2.27 0.358-4.454 0.666-6.656 0.495-3.482-1.041-8.261-4.079-9.984-19.422-10.906-31.488-31.266-31.488-53.18 0-31.232 23.586-57.276 54.835-60.603 2.901-0.307 5.427-2.065 6.741-4.659s1.178-5.683-0.341-8.192c-5.871-9.831-8.875-20.31-8.875-31.232 0-18.5 8.499-35.909 23.33-47.736 3.209-2.543 4.13-7.031 2.236-10.632-22.904-43.656-58.675-83.661-100.694-112.709-8.243-5.803-16.503-8.601-25.241-8.601zM269.892 29.866c24.507 0 43.264-10.872 58.334-19.558 17.544-10.171 30.737-16.964 45.704-6.622 37.939 26.197 70.4 61.781 92.109 100.71-15.548 14.797-24.32 34.969-24.32 56.337 0 9.933 2.031 19.899 5.905 29.303-33.928 8.892-58.282 39.475-58.282 75.4 0 26.129 13.346 50.535 35.209 65.007-0.205 1.707-0.307 3.226-0.307 4.795 0 9.523 1.826 18.91 5.427 28.058-42.872 27.409-99.311 17.323-154.368-28.535-1.741-1.467-4.045-2.185-6.298-1.946-2.304 0.239-4.369 1.383-5.803 3.158-22.442 28.075-50.825 42.923-82.022 42.923-65.041 0-137.455-67.994-137.455-165.581 0-92.211 62.959-168.704 121.89-209.528 14.951-10.36 28.314-3.55 45.841 6.553 15.121 8.704 33.894 19.524 58.437 19.524z" />
<glyph unicode="&#xe62f;" d="M256-19.2c-134.093 0-243.2 109.107-243.2 243.2s109.107 243.2 243.2 243.2c134.058 0 243.2-109.107 243.2-243.2s-109.142-243.2-243.2-243.2zM256 450.134c-124.689 0-226.133-101.445-226.133-226.134 0-124.706 101.445-226.134 226.133-226.134 124.706 0 226.134 101.427 226.134 226.134 0 124.689-101.427 226.134-226.134 226.134zM113.408 102.553c-1.127 0-2.304 0.256-3.397 0.7-3.209 1.399-5.24 4.625-5.137 8.089l1.792 59.75c0.034 1.075 0.273 2.168 0.717 3.175l73.046 168.448c0.905 2.082 2.594 3.72 4.694 4.557 2.099 0.819 4.454 0.785 6.536-0.119l40.653-17.63c4.318-1.878 6.298-6.912 4.421-11.23l-73.079-168.431c-0.427-1.007-1.041-1.877-1.809-2.646l-42.41-42.154c-1.638-1.656-3.84-2.509-6.025-2.509zM123.682 168.96l-1.093-36.728 26.061 25.907 69.035 159.095-24.986 10.855-69.017-159.13zM135.023 202.914l35.097-15.232-6.81-15.685-35.097 15.232 6.809 15.685zM177.143 309.026l33.997-14.771-6.801-15.65-33.997 14.771 6.801 15.65zM358.741 172.92c-2.134 0-4.233 0.819-5.854 2.321-51.115 47.889-53.913 140.613-50.022 160 0.392 2.133 1.57 7.8 6.861 9.745 3.909 1.468 7.099 3.226 20.565-11.708 22.375-24.815 63.062-87.108 57.071-145.288-0.358-3.209-2.491-6.007-5.529-7.099l-20.139-7.475c-0.955-0.307-1.997-0.495-2.952-0.495zM318.72 320.819c-0.409-27.17 6.11-91.989 42.154-129.467l9.899 3.67c2.355 49.8-33.673 104.841-52.053 125.798zM396.202 102.417c-1.229 0-2.474 0.256-3.567 0.785-16.384 7.56-38.502 35.106-43.161 47.719-5.735 15.514 2.236 32.819 17.733 38.553 15.138 5.598 32.99-2.697 38.536-17.767 4.659-12.63 5.769-47.94-1.775-64.341-0.973-2.065-2.663-3.67-4.796-4.438-0.973-0.325-1.979-0.512-2.969-0.512zM377.583 174.25c-1.519 0-3.055-0.29-4.488-0.802-6.707-2.491-10.137-9.916-7.629-16.623 2.663-7.236 14.967-23.057 25.685-32.239 2.185 13.909 1.246 33.877-1.433 41.165-1.843 5.12-6.759 8.499-12.135 8.499zM364.86 245.863l5.897-15.975-45.243-16.7-5.897 15.975 45.243 16.7zM431.138 153.6h-25.6c-4.728 0-8.534 3.84-8.534 8.534s3.806 8.534 8.534 8.534h17.067v102.4h-68.267c-4.728 0-1.075 0.837-1.075 5.547s-3.652 11.52 1.075 11.52h76.8c4.694 0 8.534-3.823 8.534-8.534v-119.466c0-4.693-3.84-8.534-8.534-8.534zM313.873 268.8h-100.54c-4.71 0-8.534 3.823-8.534 8.534s3.823 8.534 8.534 8.534h100.54c4.694 0 8.534-3.823 8.534-8.534s-3.84-8.534-8.534-8.534zM106.666 162.134h-32c-4.71 0-8.534 3.84-8.534 8.534v106.666c0 4.71 3.823 8.534 8.534 8.534h86.716c4.694 0 8.534-3.823 8.534-8.534s-3.84-8.534-8.534-8.534h-78.183v-89.6h23.466c4.694 0 8.534-3.84 8.534-8.534s-3.84-8.534-8.534-8.534zM358.264 162.134h-187.597c-4.71 0-8.534 3.84-8.534 8.534s3.823 8.534 8.534 8.534h187.597c4.693 0 8.534-3.84 8.534-8.534s-3.789-8.534-8.534-8.534z" />
<glyph unicode="&#xe630;" d="M342.425-24.866c-19.661 0-39.253 10.325-56.542 19.439-11.315 5.974-23.040 12.168-29.884 12.168-4.915 0-15.53-5.598-25.787-10.991-17.459-9.199-39.202-20.616-60.228-20.616-10.565 0-20.071 2.885-28.297 8.55-62.686 43.298-129.638 124.774-129.638 223.591s63.368 182.306 138.359 182.306c25.19 0 42.479-13.039 57.737-24.542 14.456-10.923 28.143-21.231 47.855-21.231s33.416 10.308 47.872 21.231c15.274 11.503 32.529 24.542 57.736 24.542 75.008 0 138.359-83.49 138.359-182.323 0-98.765-67.004-180.258-129.707-223.574-8.158-5.666-17.562-8.55-27.836-8.55zM256 23.808c11.059 0 23.466-6.57 37.854-14.131 15.497-8.175 33.093-17.459 48.572-17.459 6.827 0 12.766 1.792 18.159 5.546 59.136 40.858 122.3 117.334 122.3 209.51 0 89.566-55.535 165.24-121.259 165.24-19.507 0-33.092-10.257-47.462-21.095-15.326-11.589-32.734-24.661-58.163-24.661s-42.803 13.107-58.129 24.661c-14.387 10.855-27.989 21.094-47.463 21.094-65.775 0-121.293-75.673-121.293-165.239 0-92.194 63.181-168.704 122.299-209.51 5.393-3.755 11.469-5.546 18.585-5.546 16.81 0 36.488 10.325 52.292 18.654 13.738 7.236 24.593 12.937 33.707 12.937zM263.441 388.233c-2.628 0-5.12 1.212-6.759 3.294-1.655 2.133-2.202 4.95-1.468 7.543 0.854 3.003 21.487 73.796 81.801 73.796 9.455 0 19.422-1.826 29.594-5.41 4.079-1.434 6.434-5.718 5.478-9.933-9.489-41.779-80.009-68.642-108.493-69.308-0.017 0.017-0.086 0.017-0.154 0.017zM337.033 455.8c-33.792 0-52.497-30.703-60.57-48.674 25.395 5.649 64.529 23.689 76.237 46.678-5.41 1.331-10.666 1.997-15.667 1.997zM256.358 326.725c-4.71 0-8.534 3.823-8.534 8.534 0 93.679-19.524 108.8-66.133 108.8-4.71 0-8.534 3.823-8.534 8.534s3.823 8.534 8.534 8.534c62.959 0 83.2-30.584 83.2-125.866 0-4.711-3.84-8.534-8.534-8.534z" />
<glyph unicode="&#xe631;" d="M503.466 10.666h-494.933c-4.71 0-8.534 3.84-8.534 8.534v409.6c0 4.71 3.823 8.534 8.534 8.534h494.933c4.693 0 8.534-3.823 8.534-8.534v-409.6c0-4.694-3.84-8.534-8.534-8.534zM17.067 27.733h477.866v392.534h-477.866v-392.534zM494.933 334.933h-477.866c-4.71 0-8.534 3.823-8.534 8.534s3.823 8.534 8.534 8.534h477.866c4.693 0 8.534-3.823 8.534-8.534s-3.84-8.534-8.534-8.534zM381.406 61.337c-39.987 0-72.534 32.529-72.534 72.534 0 40.022 32.546 72.534 72.534 72.534 40.005 0 72.534-32.512 72.534-72.534 0-40.005-32.546-72.534-72.534-72.534zM381.406 189.337c-30.567 0-55.466-24.866-55.466-55.466 0-30.567 24.901-55.466 55.466-55.466 30.601 0 55.466 24.901 55.466 55.466 0 30.601-24.866 55.466-55.466 55.466zM388.079 105.728c-2.065 0-4.13 0.768-5.786 2.27l-21.334 19.558c-3.464 3.209-3.704 8.584-0.495 12.049 3.209 3.481 8.601 3.704 12.049 0.512l15.377-14.131 79.531 77.927c3.379 3.26 8.772 3.226 12.101-0.137 3.277-3.362 3.226-8.772-0.137-12.066l-85.334-83.558c-1.656-1.587-3.823-2.423-5.974-2.423zM68.079 381.866c0-5.888-4.779-10.666-10.666-10.666s-10.666 4.779-10.666 10.666c0 5.888 4.779 10.667 10.666 10.667s10.666-4.779 10.666-10.667zM110.746 381.866c0-5.888-4.778-10.666-10.666-10.666s-10.666 4.779-10.666 10.666c0 5.888 4.778 10.667 10.666 10.667s10.666-4.779 10.666-10.667zM153.412 381.866c0-5.888-4.779-10.666-10.667-10.666s-10.666 4.779-10.666 10.666c0 5.888 4.779 10.667 10.666 10.667s10.666-4.779 10.666-10.667z" />
<glyph unicode="&#xe632;" d="M360.772 45.995c-0.529 0-1.092 0.051-1.673 0.171l-14.643 2.969c-49.067 10.001-151.143 30.839-233.011 30.839-21.436 0-40.311-1.433-56.115-4.267-2.73-0.461-5.547 0.375-7.51 2.355-55.364 54.921-65.741 200.175-0.12 267.964 1.485 1.536 3.516 2.458 5.666 2.56 72.26 3.806 217.583 36.966 303.923 75.673 3.447 1.553 7.51 0.649 9.967-2.236 61.969-72.414 62.225-284.74 0.495-372.394-1.622-2.321-4.233-3.635-6.981-3.635zM111.428 97.041c83.576 0 186.812-21.060 236.442-31.181l9.011-1.809c52.787 82.056 53.334 272.128 1.314 341.999-87.211-37.718-227.379-69.7-300.493-74.308-58.163-63.659-43.333-191.334-0.837-238.489 15.787 2.509 34.117 3.789 54.562 3.789zM360.772 45.995c-2.526 0-5.051 1.127-6.741 3.26-100.933 129.263-39.305 327.629 0.307 372.822 3.123 3.55 8.517 3.891 12.049 0.785 3.55-3.106 3.909-8.499 0.785-12.049-36.028-41.13-93.337-231.117 0.325-351.045 2.901-3.738 2.236-9.096-1.467-11.998-1.57-1.178-3.413-1.775-5.257-1.775zM252.433 275.849c-0.563 0-1.143 0.051-1.724 0.171-4.625 0.956-7.595 5.445-6.656 10.070 10.24 49.886 32.751 92.689 50.551 112.964 3.14 3.55 8.517 3.909 12.049 0.785 3.55-3.106 3.909-8.499 0.785-12.049-12.168-13.875-35.704-51.626-46.643-105.13-0.837-4.028-4.403-6.81-8.363-6.81zM454.759 22.989c-35.601 0-42.445 33.69-48.504 63.402-7.594 37.478-14.49 60.245-45.5 60.245-4.693 0-8.534 3.84-8.534 8.534 0 4.711 3.84 8.534 8.534 8.534 47.224 0 55.535-40.977 62.225-73.933 6.281-30.839 11.161-49.733 31.761-49.733 4.694 0 8.534-3.84 8.534-8.534 0.017-4.728-3.806-8.517-8.517-8.517zM501.18 81.169c-31.591 0-40.534 26.829-49.203 52.805-11.656 34.833-23.688 70.861-85.248 70.861-4.711 0-8.534 3.84-8.534 8.534 0 4.711 3.823 8.534 8.534 8.534 73.882 0 89.805-47.702 101.41-82.534 9.029-27.017 14.592-41.13 33.041-41.13 4.694 0 8.534-3.84 8.534-8.534s-3.823-8.534-8.534-8.534z" />
<glyph unicode="&#xe633;" d="M330.906 253.73c-1.263 0-2.491 0.273-3.67 0.819-2.969 1.417-4.864 4.421-4.864 7.714v120.576l-156.774-127.215c-2.543-2.082-6.076-2.492-9.046-1.075s-4.864 4.421-4.864 7.714v119.296l-135.51-122.419c-3.482-3.157-8.892-2.885-12.049 0.615s-2.885 8.891 0.614 12.066l149.76 135.305c2.509 2.27 6.076 2.85 9.182 1.485 3.089-1.382 5.069-4.421 5.069-7.799v-120.576l156.757 127.215c2.543 2.082 6.075 2.492 9.046 1.075s4.864-4.421 4.864-7.714v-120.576l156.757 127.215c2.543 2.082 6.075 2.492 9.046 1.075s4.864-4.421 4.864-7.714v-131.721c0-4.71-3.84-8.534-8.534-8.534-4.711 0-8.534 3.823-8.534 8.534v113.8l-156.774-127.215c-1.536-1.297-3.413-1.946-5.342-1.946zM501.572 38.639c-4.711 0-8.534 3.84-8.534 8.534v122.368l-156.774-127.232c-2.56-2.065-6.058-2.491-9.029-1.075-2.986 1.416-4.864 4.421-4.864 7.714v120.576l-156.774-127.198c-2.543-2.065-6.076-2.491-9.046-1.075s-4.864 4.421-4.864 7.714v118.887l-135.441-126.191c-3.447-3.209-8.841-3.038-12.066 0.409-3.208 3.447-3.021 8.858 0.426 12.066l149.76 139.589c2.492 2.321 6.127 2.935 9.216 1.57 3.123-1.331 5.137-4.438 5.137-7.8v-120.576l156.757 127.215c2.526 2.082 6.058 2.491 9.029 1.075 2.969-1.399 4.864-4.403 4.864-7.697v-120.576l156.774 127.215c2.56 2.082 6.058 2.491 9.029 1.075 2.969-1.399 4.864-4.403 4.864-7.697v-140.271c0.068-4.796-3.772-8.618-8.465-8.618z" />
<glyph unicode="&#xe634;" d="M256 7.219c-119.774 0-217.225 97.433-217.225 217.208 0.017 119.757 97.451 217.19 217.225 217.19s217.207-97.433 217.207-217.19c0-119.774-97.433-217.208-217.208-217.208zM256 424.534c-110.353 0-200.158-89.77-200.158-200.124 0-110.336 89.805-200.141 200.158-200.141s200.141 89.805 200.141 200.141c0 110.353-89.77 200.124-200.141 200.124zM256 87.894c-75.281 0-136.534 61.235-136.534 136.534 0 75.281 61.252 136.534 136.534 136.534s136.534-61.252 136.534-136.534c0-75.298-61.252-136.534-136.534-136.534zM256 343.894c-65.877 0-119.466-53.59-119.466-119.467s53.589-119.466 119.466-119.466c65.861 0 119.466 53.589 119.466 119.466s-53.606 119.466-119.466 119.466zM256 163.738c-33.468 0-60.706 27.238-60.706 60.706s27.238 60.689 60.706 60.689c33.45 0 60.706-27.221 60.706-60.689 0-33.485-27.238-60.706-60.706-60.706zM256 268.049c-24.064 0-43.639-19.558-43.639-43.622s19.576-43.639 43.639-43.639 43.639 19.575 43.639 43.639c0 24.047-19.592 43.623-43.639 43.623zM256 215.894c-2.355 0-4.71 0.973-6.4 2.885l-184.184 208.657c-3.141 3.533-2.799 8.926 0.734 12.049 3.55 3.106 8.891 2.782 12.049-0.751l184.201-208.657c3.14-3.533 2.782-8.926-0.751-12.049-1.622-1.433-3.652-2.134-5.649-2.134zM71.782 424.534h-24.456c-4.711 0-8.533 3.823-8.533 8.534s3.823 8.534 8.534 8.534h15.923v16.726c0 4.71 3.823 8.534 8.534 8.534s8.534-3.823 8.534-8.534v-25.259c0-4.711-3.806-8.534-8.534-8.534zM73.421-18.858c-2.184 0-4.369 0.837-6.041 2.491-3.328 3.328-3.328 8.738 0 12.066l59.443 59.443c3.328 3.328 8.738 3.328 12.066 0 3.328-3.294 3.328-8.738 0-12.066l-59.46-59.443c-1.656-1.673-3.84-2.491-6.007-2.491zM438.579-18.858c-2.185 0-4.386 0.837-6.041 2.491l-59.443 59.443c-3.328 3.328-3.328 8.772 0 12.066 3.328 3.328 8.738 3.328 12.066 0l59.443-59.443c3.328-3.328 3.328-8.738 0-12.066-1.656-1.673-3.84-2.491-6.024-2.491z" />
<glyph unicode="&#xe635;" d="M230.605-29.031c-4.71 0-8.534 3.84-8.534 8.534v488.994c0 4.711 3.823 8.534 8.534 8.534 88.201 0 190.737-110.541 190.737-253.030s-102.536-253.030-190.737-253.030zM239.138 459.571v-471.125c76.834 7.185 165.137 109.551 165.137 235.571s-88.303 228.369-165.137 235.554zM461.005 204.8h-358.4c-4.71 0-8.534 3.84-8.534 8.534 0 4.711 3.823 8.534 8.534 8.534h358.4c4.693 0 8.534-3.823 8.534-8.534 0-4.694-3.84-8.534-8.534-8.534zM448 172.135c-1.604 0-3.209 0.426-4.659 1.382-3.925 2.577-5.051 7.868-2.474 11.81l18.227 27.955-18.193 27.323c-2.611 3.909-1.57 9.216 2.373 11.827s9.216 1.553 11.827-2.373l21.334-32c1.894-2.85 1.894-6.519 0.034-9.387l-21.334-32.666c-1.604-2.509-4.369-3.874-7.134-3.874zM85.334 172.135c-1.605 0-3.209 0.426-4.659 1.382-3.925 2.577-5.052 7.868-2.475 11.81l18.245 27.955-18.21 27.323c-2.611 3.909-1.553 9.216 2.373 11.827s9.216 1.553 11.827-2.373l21.334-32c1.894-2.85 1.912-6.519 0.034-9.387l-21.334-32.666c-1.605-2.509-4.352-3.874-7.134-3.874zM42.666 172.135c-1.605 0-3.209 0.426-4.659 1.382-3.925 2.577-5.051 7.868-2.474 11.81l18.245 27.955-18.21 27.323c-2.611 3.909-1.553 9.216 2.373 11.827s9.216 1.553 11.827-2.373l21.334-32c1.894-2.85 1.912-6.519 0.034-9.387l-21.334-32.666c-1.605-2.509-4.352-3.874-7.134-3.874z" />
<glyph unicode="&#xe636;" d="M8.534-23.466c-4.71 0-8.534 3.84-8.534 8.534v477.866c0 4.711 3.823 8.534 8.534 8.534s8.534-3.823 8.534-8.534v-477.866c0-4.693-3.823-8.534-8.534-8.534zM503.466 104.534h-494.933c-4.71 0-8.534 3.84-8.534 8.534v341.334c0 4.711 3.823 8.534 8.534 8.534h494.933c4.693 0 8.534-3.823 8.534-8.534v-341.334c0-4.693-3.84-8.534-8.534-8.534zM17.067 121.6h477.866v324.267h-477.866v-324.267zM494.933 360.534h-477.866c-4.71 0-8.534 3.823-8.534 8.534s3.823 8.534 8.534 8.534h477.866c4.693 0 8.534-3.823 8.534-8.534s-3.84-8.534-8.534-8.534zM494.933 189.866h-477.866c-4.71 0-8.534 3.84-8.534 8.534s3.823 8.534 8.534 8.534h477.866c4.693 0 8.534-3.84 8.534-8.534s-3.84-8.534-8.534-8.534zM260.079 228.267c-28.228 0-51.2 22.971-51.2 51.2s22.971 51.2 51.2 51.2c28.211 0 51.2-22.971 51.2-51.2s-22.971-51.2-51.2-51.2zM260.079 313.6c-18.841 0-34.133-15.309-34.133-34.134s15.292-34.133 34.133-34.133c18.825 0 34.133 15.309 34.133 34.133s-15.309 34.134-34.134 34.134z" />
<glyph unicode="&#xe637;" d="M368.879-29.866c-0.12 0-0.239 0-0.358 0-60.024 0-242.637 0-242.637 188.501 0 80.248 49.493 124.024 85.641 155.972 4.915 4.352 9.608 8.499 13.875 12.476-17.869 22.17-17.066 40.875-14.216 61.048 0.461 3.243 2.748 5.939 5.871 6.929 3.157 0.973 6.536 0.103 8.806-2.27 12.441-13.175 52.77-26.112 81.425-26.112 2.338 0 4.591-0.956 6.161-2.645 11.094-11.725 29.099-27.29 56.44-27.29 12.135 0 25.276 3.106 39.031 9.216 2.491 1.075 5.325 0.973 7.629-0.358 2.373-1.314 3.925-3.653 4.301-6.315 5.427-40.311 18.142-134.724 89.481-148.122 2.287-0.426 4.301-1.775 5.581-3.772 1.263-1.945 1.689-4.335 1.126-6.622-9.387-39.97-40.123-72.072-66.406-86.135-2.048-1.075-4.438-1.297-6.673-0.598-24.371 7.885-64.837 19.286-82.142 21.692-13.517-9.233-32.956-31.693-33.877-58.897-0.87-25.31 14.012-48.998 44.237-70.366 3.106-1.28 5.274-4.335 5.274-7.868-0.034-4.625-3.909-8.465-8.567-8.465zM226.629 370.995c-0.307-12.903 3.089-24.081 16.708-38.536 3.174-3.362 3.106-8.601-0.154-11.878-5.888-5.922-12.869-12.101-20.377-18.757-35.584-31.471-79.872-70.639-79.872-143.19 0-140.869 108.202-167.526 200.841-171.008-27.733 26.043-33.536 51.644-32.904 69.871 1.212 35.823 27.307 64.137 44.493 74.428 1.553 0.938 3.328 1.365 5.171 1.144 18.142-1.656 62.839-14.575 85.077-21.658 19.746 11.69 42.752 35.721 52.411 65.058-69.529 19.558-86.067 103.526-92.706 149.692-12.271-4.335-24.166-6.519-35.533-6.519-34.389 0-56.764 20.258-66.321 30.003-23.911 0.853-56.32 9.267-76.834 21.351zM275.353 304.947c-18.791 0-38.4 8.175-44.868 16.333-2.935 3.687-2.321 9.063 1.365 11.998 3.703 2.935 9.063 2.304 11.998-1.365 4.352-5.462 32.887-15.582 47.121-6.11 3.909 2.611 9.233 1.519 11.827-2.407 2.56-3.925 1.519-9.233-2.44-11.827-7.117-4.727-15.957-6.622-25.002-6.622zM359.783 116.104c-43.554 0-79.685 17.613-96.683 47.138-15.155 26.3-13.415 58.18 4.881 89.634 2.373 4.079 7.611 5.462 11.673 3.106 4.062-2.373 5.445-7.595 3.106-11.673-15.138-25.993-16.81-51.781-4.847-72.567 13.875-24.132 44.476-38.57 81.886-38.57 4.711 0 8.534-3.823 8.534-8.534-0.034-4.711-3.84-8.534-8.55-8.534zM473.361 113.834c-2.663 0-5.325 1.263-6.963 3.567-2.646 3.772-19.815 17.937-48.981 14.131-4.762-0.632-8.926 2.697-9.558 7.407-0.615 4.659 2.646 8.926 7.356 9.591 37.359 4.813 60.075-14.131 65.075-21.146 2.731-3.874 1.861-9.165-1.962-11.861-1.536-1.161-3.243-1.69-4.966-1.69zM75.451 62.464c-2.424 0-4.813 1.041-6.486 3.003-108.663 127.027-62.55 248.678-37.666 295.099 37.632 70.161 112.469 117.299 186.214 117.299 100.284 0 194.338-16.845 203.366-139.059 0.273-3.516-1.673-6.827-4.864-8.345-39.766-18.841-67.038-15.36-108.663 15.616-1.433 1.058-2.491 2.526-3.038 4.232-11.759 36.728-42.070 57.788-83.081 57.788-46.523 0-94.84-26.88-120.251-66.901-29.371-46.216-70.912-161.349-17.92-266.342 1.945-3.857 0.717-8.534-2.885-10.957-1.451-0.973-3.123-1.433-4.728-1.433zM217.514 460.8c-56.286 0-131.055-33.485-171.179-108.288-24.576-45.91-52.77-130.816 0.461-226.031-20.395 93.133 14.080 183.399 39.782 223.846 28.416 44.749 82.534 74.803 134.656 74.803 47.957 0 83.644-24.371 98.457-66.969 33.161-24.166 53.248-27.495 83.626-14.695-9.916 97.178-81.51 117.334-185.805 117.334zM370.313 268.408h-17.067c-4.693 0-8.534 3.823-8.534 8.534s3.84 8.534 8.534 8.534h17.067c4.693 0 8.534-3.823 8.534-8.534s-3.84-8.534-8.534-8.534z" horiz-adv-x="521" />
<glyph unicode="&#xe638;" d="M256.017 14.967c-4.591 0-8.363 3.635-8.534 8.192-3.055 83.063-30.31 312.627-118.698 376.832-21.794 15.803-45.142 19.865-71.356 12.374-20.258-5.786-34.082-23.279-36.983-46.814-3.055-24.763 6.997-49.066 24.422-59.136 4.079-2.355 5.479-7.577 3.123-11.656-2.373-4.079-7.611-5.479-11.657-3.123-23.552 13.602-36.745 44.152-32.819 76.015 3.771 30.532 22.169 53.368 49.237 61.099 31.163 8.892 60.109 3.874 86.050-14.951 69.154-50.193 102.946-191.642 117.197-296.824 14.25 105.165 48.026 246.613 117.197 296.841 25.942 18.841 54.887 23.877 86.067 14.968 27.050-7.731 45.466-30.567 49.221-61.099 3.909-31.863-9.25-62.395-32.819-76.015-4.096-2.355-9.301-0.956-11.673 3.123-2.355 4.079-0.955 9.301 3.14 11.656 17.425 10.070 27.461 34.389 24.44 59.153-2.918 23.501-16.726 40.994-37 46.779-26.231 7.493-49.562 3.43-71.356-12.374-88.423-64.222-115.644-293.769-118.698-376.832-0.137-4.574-3.909-8.209-8.499-8.209z" />
<glyph unicode="&#xe639;" d="M178.227 172.8h-170.667c-4.71 0-8.534 3.84-8.534 8.534v68.267c0 4.71 3.823 8.534 8.534 8.534h170.667c4.71 0 8.534-3.823 8.534-8.534v-68.267c0-4.694-3.823-8.534-8.534-8.534zM16.094 189.866h153.6v51.2h-153.6v-51.2zM440.44 172.8h-262.212c-4.71 0-8.534 3.84-8.534 8.534v68.267c0 4.71 3.823 8.534 8.534 8.534h326.212c2.867 0 5.529-1.417 7.134-3.806 1.57-2.373 1.843-5.393 0.734-8.022-3.158-7.526-32-73.506-71.868-73.506zM186.761 189.866h253.679c19.644 0 39.902 30.873 50.5 51.2h-304.179v-51.2zM7.561 147.2c-4.71 0-8.534 3.84-8.534 8.534v136.534c0 4.71 3.823 8.534 8.534 8.534s8.534-3.823 8.534-8.534v-136.534c0-4.694-3.823-8.534-8.534-8.534zM178.227 147.2c-4.71 0-8.534 3.84-8.534 8.534v136.534c0 4.71 3.823 8.534 8.534 8.534s8.534-3.823 8.534-8.534v-136.534c0-4.694-3.823-8.534-8.534-8.534zM58.761 198.4c-4.711 0-8.533 3.84-8.533 8.534v34.133c0 4.71 3.823 8.534 8.534 8.534s8.534-3.823 8.534-8.534v-34.133c0-4.693-3.823-8.534-8.534-8.534zM92.894 198.4c-4.71 0-8.534 3.84-8.534 8.534v34.133c0 4.71 3.823 8.534 8.534 8.534s8.534-3.823 8.534-8.534v-34.133c0-4.693-3.823-8.534-8.534-8.534zM127.027 198.4c-4.71 0-8.534 3.84-8.534 8.534v34.133c0 4.71 3.823 8.534 8.534 8.534s8.533-3.823 8.533-8.534v-34.133c0-4.693-3.823-8.534-8.534-8.534z" />
<glyph unicode="&#xe63a;" d="M62.259 212.173c-2.065 0-4.13 0.734-5.752 2.236l-48.282 44.066c-3.482 3.174-3.737 8.584-0.546 12.049 3.192 3.481 8.567 3.738 12.049 0.546l43.264-39.475 48.111 33.434c3.857 2.679 9.182 1.741 11.879-2.134s1.741-9.199-2.133-11.878l-53.692-37.325c-1.485-1.041-3.175-1.519-4.898-1.519zM62.259 215.483c-4.71 0-8.534 3.823-8.534 8.534 0 111.548 90.966 202.291 202.752 202.291 87.501 0 164.847-55.62 192.444-138.411 1.502-4.471-0.938-9.301-5.393-10.786-4.505-1.502-9.301 0.922-10.786 5.393-25.276 75.81-96.103 126.754-176.264 126.754-102.4 0-185.685-83.097-185.685-185.224 0-4.711-3.823-8.55-8.534-8.55zM498.005 173.637c-2.134 0-4.267 0.785-5.905 2.373l-42.36 40.499-48.827-32.325c-3.925-2.594-9.233-1.519-11.827 2.406-2.577 3.925-1.502 9.233 2.423 11.827l54.511 36.079c3.328 2.202 7.731 1.792 10.599-0.956l47.291-45.176c3.413-3.226 3.533-8.635 0.307-12.066-1.741-1.758-3.976-2.663-6.212-2.663zM256.478 21.692c-87.535 0-164.881 55.637-192.461 138.462-1.485 4.471 0.939 9.301 5.393 10.786 4.505 1.502 9.302-0.921 10.803-5.376 25.242-75.827 96.085-126.805 176.264-126.805 102.4 0 185.685 83.115 185.685 185.258 0 4.71 3.84 8.534 8.534 8.534s8.534-3.823 8.534-8.534c0-111.565-90.931-202.326-202.752-202.326zM256.478 162.151c-34.117 0-61.867 27.75-61.867 61.867s27.75 61.867 61.867 61.867 61.867-27.75 61.867-61.867-27.75-61.867-61.866-61.867zM256.478 268.817c-24.713 0-44.8-20.088-44.8-44.8s20.088-44.8 44.8-44.8 44.8 20.122 44.8 44.8c0 24.713-20.070 44.8-44.8 44.8z" />
<glyph unicode="&#xe63b;" d="M448-32h-128c-2.134 0-4.199 0.802-5.786 2.27l-256 236.8c-1.698 1.57-2.688 3.763-2.748 6.084-0.034 2.313 0.845 4.548 2.483 6.187l256 258.134c1.604 1.622 3.781 2.526 6.050 2.526h128c3.447 0 6.57-2.065 7.885-5.248s0.615-6.853-1.817-9.293l-249.787-251.862 249.514-230.801c2.586-2.381 3.43-6.101 2.151-9.387-1.28-3.243-4.429-5.41-7.945-5.41zM323.353-14.933h102.87l-240.008 222.003c-1.698 1.57-2.679 3.763-2.748 6.084-0.034 2.313 0.853 4.548 2.483 6.187l241.587 243.592h-103.97l-247.287-249.335 247.074-228.531z" />
<glyph unicode="&#xe63c;" d="M248.218-19.2c-3.021 0-5.957 1.604-7.493 4.454l-128 234.667c-1.382 2.543-1.382 5.615 0 8.175l128 234.666c2.253 4.13 7.441 5.666 11.589 3.413 4.13-2.27 5.666-7.458 3.397-11.588l-125.764-230.588 125.764-230.588c2.253-4.13 0.734-9.318-3.397-11.571-1.314-0.7-2.714-1.041-4.096-1.041zM391.765 204.8h-204.8c-4.71 0-8.534 3.823-8.534 8.534 0 4.694 3.823 8.534 8.534 8.534h204.8c4.693 0 8.534-3.823 8.534-8.534s-3.84-8.534-8.534-8.534z" />
<glyph unicode="&#xe63d;" d="M309.334-17.067c-2.491 0-4.95 1.092-6.605 3.14l-192 234.667c-2.577 3.14-2.577 7.663 0 10.803l192 234.667c2.27 2.799 6.058 3.84 9.472 2.628 3.397-1.212 5.666-4.421 5.666-8.038v-469.334c0-3.601-2.27-6.827-5.666-8.055-0.938-0.307-1.894-0.478-2.867-0.478zM128.358 226.133l172.441-210.773v421.529l-172.441-210.756zM394.666-23.466c-4.694 0-8.534 3.84-8.534 8.534v477.866c0 4.711 3.84 8.534 8.534 8.534s8.534-3.823 8.534-8.534v-477.866c0-4.693-3.84-8.534-8.534-8.534z" />
<glyph unicode="&#xe63e;" d="M140.168 353.058c-1.861 0-3.755 0.615-5.325 1.877l-48.008 38.4-48.008-38.4c-3.669-2.935-9.046-2.355-11.998 1.331-2.936 3.669-2.338 9.046 1.349 11.998l53.333 42.666c3.123 2.492 7.526 2.492 10.65 0l53.334-42.666c3.686-2.935 4.284-8.312 1.331-11.998-1.673-2.117-4.165-3.209-6.656-3.209zM85.334 35.192c-4.71 0-8.534 3.84-8.534 8.534v358.4c0 4.711 3.823 8.534 8.534 8.534s8.534-3.823 8.534-8.534v-358.4c0-4.693-3.823-8.534-8.534-8.534zM310.835 353.058c-1.861 0-3.772 0.615-5.342 1.877l-48.008 38.4-48.008-38.4c-3.653-2.935-9.029-2.355-11.981 1.331-2.935 3.669-2.338 9.046 1.349 11.981l53.333 42.666c3.123 2.491 7.526 2.491 10.649 0l53.334-42.666c3.67-2.935 4.267-8.312 1.331-11.981-1.673-2.117-4.164-3.209-6.656-3.209zM256 35.192c-4.71 0-8.534 3.84-8.534 8.534v358.4c0 4.711 3.823 8.534 8.534 8.534s8.534-3.823 8.534-8.534v-358.4c0-4.693-3.823-8.534-8.534-8.534zM481.502 353.058c-1.861 0-3.772 0.615-5.342 1.877l-48.008 38.4-48.009-38.4c-3.67-2.935-9.046-2.355-11.998 1.331-2.918 3.669-2.321 9.046 1.349 11.998l53.334 42.666c3.14 2.492 7.526 2.492 10.666 0l53.334-42.666c3.67-2.935 4.267-8.312 1.331-11.981-1.673-2.134-4.164-3.226-6.656-3.226zM426.666 35.192c-4.694 0-8.534 3.84-8.534 8.534v358.4c0 4.711 3.84 8.534 8.534 8.534s8.534-3.823 8.534-8.534v-358.4c0-4.693-3.84-8.534-8.534-8.534zM8.534 316.792h494.933v-17.067h-494.933v17.067zM8.534 94.925h494.933v-17.067h-494.933v17.067z" />
<glyph unicode="&#xe63f;" d="M280.661-4.182c-125.832 0-228.198 102.366-228.198 228.182s102.366 228.182 228.198 228.182c125.798 0 228.165-102.366 228.165-228.182s-102.366-228.182-228.164-228.182zM280.661 435.097c-116.411 0-211.149-94.703-211.149-211.114s94.703-211.114 211.149-211.114c116.377 0 211.098 94.703 211.098 211.115s-94.703 211.115-211.097 211.115zM61.014 215.466c-2.236 0-4.455 0.887-6.093 2.56l-49.306 50.296c-3.294 3.362-3.243 8.773 0.12 12.066 3.362 3.311 8.773 3.242 12.066-0.12l44.288-45.159 52.087 35.891c3.891 2.68 9.199 1.707 11.862-2.184 2.679-3.891 1.707-9.199-2.184-11.861l-57.992-39.97c-1.502-1.024-3.175-1.519-4.847-1.519z" />
<glyph unicode="&#xe640;" d="M484.898 221.866h-460.8c-4.71 0-8.534 3.823-8.534 8.534s3.823 8.534 8.534 8.534h460.8c4.693 0 8.534-3.823 8.534-8.534s-3.823-8.534-8.534-8.534zM456.653 163.43c-1.809 0-3.635 0.563-5.188 1.775-3.772 2.867-4.471 8.226-1.622 11.964l40.755 53.231-40.738 53.214c-2.867 3.755-2.151 9.096 1.587 11.964 3.755 2.867 9.079 2.15 11.964-1.587l44.68-58.419c2.338-3.055 2.373-7.304 0-10.359l-44.68-58.419c-1.656-2.185-4.216-3.362-6.759-3.362zM55.382 163.43c-2.56 0-5.103 1.144-6.776 3.345l-44.697 58.419c-2.355 3.055-2.355 7.304 0 10.359l44.697 58.419c2.867 3.738 8.209 4.454 11.964 1.587 3.737-2.867 4.454-8.209 1.587-11.964l-40.738-53.214 40.738-53.248c2.867-3.738 2.15-9.096-1.587-11.964-1.553-1.178-3.379-1.741-5.188-1.741zM254.498-25.6c-4.71 0-8.534 3.823-8.534 8.534v477.866c0 4.711 3.823 8.534 8.534 8.534s8.534-3.823 8.534-8.534v-477.866c0-4.711-3.823-8.534-8.534-8.534zM312.901 416.086c-1.809 0-3.635 0.563-5.188 1.758l-53.231 40.721-53.231-40.721c-3.738-2.867-9.096-2.151-11.964 1.587s-2.15 9.096 1.587 11.964l58.402 44.714c3.072 2.338 7.305 2.338 10.377 0l58.419-44.714c3.738-2.85 4.454-8.209 1.57-11.964-1.622-2.185-4.181-3.345-6.741-3.345zM254.498-29.866c-1.826 0-3.653 0.563-5.189 1.758l-58.402 44.697c-3.755 2.85-4.454 8.209-1.587 11.964 2.85 3.755 8.209 4.488 11.964 1.587l53.231-40.738 53.231 40.738c3.755 2.867 9.096 2.134 11.964-1.587 2.867-3.755 2.151-9.096-1.587-11.964l-58.419-44.697c-1.57-1.195-3.379-1.758-5.206-1.758z" />
<glyph unicode="&#xe641;" d="M256.017 151.466c-1.417 0-2.816 0.341-4.096 1.041l-234.667 128c-4.13 2.253-5.666 7.441-3.396 11.589 2.253 4.13 7.441 5.649 11.588 3.397l230.554-125.764 230.553 125.764c4.164 2.253 9.336 0.734 11.606-3.397 2.253-4.147 0.734-9.318-3.397-11.589l-234.666-128c-1.263-0.683-2.663-1.041-4.079-1.041z" />
<glyph unicode="&#xe642;" d="M256.017 108.8c-1.417 0-2.816 0.341-4.096 1.041l-234.667 128c-4.13 2.253-5.666 7.441-3.396 11.589 2.27 4.13 7.441 5.666 11.588 3.397l230.554-125.764 230.553 125.764c4.164 2.253 9.336 0.717 11.606-3.397 2.253-4.147 0.734-9.319-3.397-11.589l-234.666-128c-1.263-0.683-2.663-1.041-4.079-1.041zM256.017 194.134c-1.417 0-2.816 0.341-4.096 1.041l-234.667 128c-4.13 2.236-5.666 7.441-3.396 11.589 2.27 4.13 7.441 5.666 11.588 3.397l230.554-125.764 230.571 125.764c4.164 2.253 9.336 0.734 11.606-3.397 2.253-4.147 0.734-9.318-3.397-11.589l-234.666-128c-1.28-0.683-2.68-1.041-4.096-1.041z" />
<glyph unicode="&#xe643;" d="M259.635 76.8c-1.911 0-3.84 0.649-5.41 1.928l-234.667 192c-2.782 2.287-3.84 6.059-2.628 9.472 1.212 3.396 4.438 5.666 8.039 5.666h469.334c3.601 0 6.827-2.27 8.055-5.666 1.212-3.413 0.154-7.185-2.611-9.472l-234.666-192c-1.604-1.28-3.515-1.928-5.445-1.928zM48.879 268.8l210.756-172.441 210.774 172.442h-421.529zM494.933 354.134h-477.866c-4.71 0-8.534 3.823-8.534 8.534s3.823 8.534 8.534 8.534h477.866c4.693 0 8.534-3.823 8.534-8.534s-3.84-8.534-8.534-8.534z" />
</font>
</defs>
</svg>
