<?xml version="1.0" standalone="no"?>
<!DOCTYPE svg PUBLIC "-//W3C//DTD SVG 1.1//EN" "http://www.w3.org/Graphics/SVG/1.1/DTD/svg11.dtd" >
<svg>
<metadata>
Created by FontForge 20090622 at Fri Oct  7 21:25:30 2016
 By deploy user
&#194;&#169; 2008 Microsoft Corporation. All Rights Reserved.
</metadata>
<defs>
<font id="Candara-Bold" horiz-adv-x="1033" >
  <font-face 
    font-family="Candara"
    font-weight="700"
    font-stretch="normal"
    units-per-em="2048"
    panose-1="2 14 7 2 3 3 3 2 2 4"
    ascent="1484"
    descent="-564"
    x-height="950"
    cap-height="1302"
    bbox="-1016 -569 2376 1950"
    underline-thickness="20"
    underline-position="-123"
    unicode-range="U+000D-U+FB04"
  />
<missing-glyph horiz-adv-x="932" 
d="M932 1308v-1308h-932v1308h932zM841 91v1126h-750v-1126h750zM409 426l-2 31q0 124 38.5 175t68.5 79q57 58 73.5 88t16.5 63q0 66 -41.5 111.5t-96.5 45.5q-58 0 -98.5 -41t-51.5 -131l-90 14q12 130 80.5 190t167.5 60q94 0 159 -66.5t65 -173.5q0 -57 -22.5 -103
t-91.5 -112q-68 -61 -79.5 -99.5t-11.5 -130.5h-84zM389 272q0 28 19 47t46 19q28 0 47 -19t19 -47q0 -27 -19 -45.5t-47 -18.5q-27 0 -46 18.5t-19 45.5z" />
    <glyph glyph-name="f_b.liga" unicode="fb" horiz-adv-x="1840" 
d="M1771 516q0 -217 -123.5 -381t-341.5 -164q-159 0 -227 68h-12l-21 -39h-240q16 342 16 743q-2 282 -18 502q-87 21 -185 21q-108 0 -135 -71t-27 -261q89 0 245 8l-8 -199q-156 6 -235 6q0 -378 14 -749h-264q14 367 14 748q-57 0 -174 -7l8 199q107 -6 166 -6
q0 282 95 392.5t271 110.5q113 0 200 -30l289 16q-9 -233 -9 -529l12 1q101 88 273 88q192 0 304.5 -138t112.5 -329zM1505 489q0 125 -63.5 217.5t-173.5 92.5q-140 0 -203 -82q0 -342 14 -514q64 -49 164 -49q133 0 197.5 98t64.5 237z" />
    <glyph glyph-name="f_f_b.liga" unicode="ffb" horiz-adv-x="2445" 
d="M2376 516q0 -217 -123.5 -381t-341.5 -164q-159 0 -227 68h-12l-21 -39h-240q16 342 16 743q0 281 -16 501q-87 21 -185 21q-108 0 -135 -71t-27 -261q89 0 245 8l-8 -199q-156 6 -237 6q0 -377 15 -748h-264q15 366 15 748h-371q0 -377 14 -748h-264q14 367 14 748
q-57 0 -174 -7l8 199q107 -6 166 -6q0 264 105 373t334 109q169 0 294 -59q91 79 240 79q113 0 200 -30l288 15q-10 -231 -10 -527l12 1q101 88 273 88q192 0 304.5 -138t112.5 -329zM2110 489q0 125 -63.5 217.5t-173.5 92.5q-140 0 -203 -82q0 -342 14 -514
q64 -49 164 -49q133 0 197.5 98t64.5 237zM861 1201q-88 44 -190 44q-123 0 -167.5 -63t-44.5 -248h371q0 162 31 267z" />
    <glyph glyph-name="uniFB00" unicode="ff" horiz-adv-x="1346" 
d="M1342 1419l-36 -178q-58 14 -117 14q-71 -2 -98 -67t-27 -255q89 0 245 8l-8 -199q-156 6 -237 6q0 -377 15 -748h-264q15 366 15 748h-371q0 -377 14 -748h-264q14 367 14 748q-57 0 -174 -7l8 199q107 -6 166 -6q0 264 105 373t334 109q169 0 294 -59q91 79 210 79
q103 0 176 -17zM861 1201q-88 44 -190 44q-123 0 -167.5 -63t-44.5 -248h371q0 162 31 267z" />
    <glyph glyph-name="f_h.liga" unicode="fh" horiz-adv-x="1834" 
d="M1723 0h-266q23 254 23 512q0 162 -47.5 215t-145.5 53q-108 0 -215 -71q0 -426 10 -709h-276q16 342 16 743q0 281 -16 501q-87 21 -185 21q-108 0 -135 -71t-27 -261q89 0 245 8l-8 -199q-156 6 -237 6q0 -377 14 -748h-264q14 367 14 748q-57 0 -174 -7l8 199
q107 -6 166 -6q2 281 97 391.5t271 110.5q113 0 200 -30l289 15q-14 -321 -14 -560l12 1q133 121 293 121q168 0 260 -72.5t92 -257.5q0 -18 -2 -77.5t-2 -77.5q0 -166 4 -498z" />
    <glyph glyph-name="f_f_h.liga" unicode="ffh" horiz-adv-x="2439" 
d="M2328 0h-266q23 254 23 512q0 162 -47.5 215t-145.5 53q-108 0 -215 -71q0 -426 10 -709h-276q16 342 16 743q0 281 -16 501q-87 21 -185 21q-108 0 -135 -71t-27 -261q89 0 245 8l-8 -199q-156 6 -237 6q0 -377 15 -748h-264q15 366 15 748h-371q0 -377 14 -748h-264
q14 367 14 748q-57 0 -174 -7l8 199q107 -6 166 -6q0 264 105 373t334 109q169 0 294 -59q91 79 240 79q113 0 200 -30l289 15q-14 -321 -14 -560l12 1q133 121 293 121q168 0 260 -72.5t92 -257.5q0 -18 -2 -78q-2 -59 -2 -77q0 -166 4 -498zM861 1201q-88 44 -190 44
q-123 0 -167.5 -63t-44.5 -248h371q0 162 31 267z" />
    <glyph glyph-name="uniFB01" unicode="fi" horiz-adv-x="1195" 
d="M1112 1338l-77 -198q-192 115 -364 115q-123 0 -167.5 -63t-44.5 -258q292 0 619 37q-12 -195 -12 -496q0 -258 14 -475h-270q14 207 14 475q0 182 -7 288q-54 -6 -154.5 -10.5t-203.5 -4.5q0 -377 14 -748h-264q14 367 14 748q-57 0 -174 -7l8 199q107 -6 166 -6
q0 284 105 393t334 109q274 0 450 -98z" />
    <glyph glyph-name="uniFB03" unicode="ffi" horiz-adv-x="1800" 
d="M1717 1338l-77 -198q-192 115 -364 115q-123 0 -167.5 -63t-44.5 -258q292 0 619 37q-12 -195 -12 -496q0 -258 14 -475h-270q14 207 14 475q0 182 -7 288q-54 -6 -154.5 -10.5t-203.5 -4.5q0 -377 14 -748h-264q13 357 14 748h-369q0 -377 14 -748h-264q14 367 14 748
q-57 0 -174 -7l8 199q107 -6 166 -6q0 264 105 373t334 109q169 0 291 -70q106 90 314 90q274 0 450 -98zM862 1200q-89 45 -191 45q-123 0 -167.5 -63t-44.5 -248h369q0 161 34 266z" />
    <glyph glyph-name="f_j.liga" unicode="fj" horiz-adv-x="1196" 
d="M1036 1140q-192 115 -364 115q-123 0 -167.5 -63t-44.5 -258q292 0 619 37q-12 -303 -12 -602q0 -78 3 -214.5t3 -183.5q0 -368 -295 -428l-72 142q70 57 93 151q28 125 28 481q0 306 -10 447q-53 -7 -153.5 -11.5t-203.5 -4.5q0 -377 14 -748h-264q14 367 14 748
q-57 0 -174 -7l8 199q107 -6 166 -6q0 284 105 393t334 109q274 0 450 -98z" />
    <glyph glyph-name="f_f_j.liga" unicode="ffj" horiz-adv-x="1801" 
d="M1717 1338l-77 -198q-192 115 -364 115q-123 0 -167.5 -63t-44.5 -258q292 0 620 37q-12 -303 -12 -602q0 -78 3 -214.5t3 -183.5q0 -368 -295 -428l-72 142q70 57 93 151q28 125 28 481q0 305 -10 446q-54 -6 -154.5 -10.5t-203.5 -4.5q0 -377 14 -748h-264
q13 357 14 748h-369q0 -377 14 -748h-264q14 367 14 748q-57 0 -174 -7l8 199q107 -6 166 -6q0 264 105 373t334 109q169 0 291 -70q106 90 314 90q274 0 450 -98zM862 1200q-89 45 -191 45q-123 0 -167.5 -63t-44.5 -248h369q0 161 34 266z" />
    <glyph glyph-name="f_k.liga" unicode="fk" horiz-adv-x="1743" 
d="M1727 0h-305q0 37 -149 248q-156 217 -197 217h-12q0 -207 10 -465h-268q16 342 16 743q-2 282 -18 502q-87 21 -185 21q-108 0 -135 -71t-27 -261q89 0 245 8l-8 -199q-156 6 -235 5q0 -377 14 -748h-264q14 367 14 748q-57 0 -174 -7l8 199q107 -6 166 -6
q0 282 95 392.5t271 110.5q113 0 200 -30l289 16q-16 -381 -16 -680v-148l14 1q29 0 160 161t131 193h297q0 -30 -136 -172.5t-220 -195.5v-17q94 -63 262 -301q157 -223 157 -264z" />
    <glyph glyph-name="f_f_k.liga" unicode="ffk" horiz-adv-x="2349" 
d="M2333 0h-306q0 37 -149 248q-156 217 -197 217h-14q0 -207 12 -465h-268q16 342 16 743q0 281 -16 501q-87 21 -185 21q-108 0 -135 -71t-27 -261q89 0 245 8l-8 -199q-156 6 -237 6q0 -377 15 -748h-264q15 366 15 748h-371q0 -377 14 -748h-264q14 367 14 748
q-57 0 -174 -7l8 199q107 -6 166 -6q0 264 105 373t334 109q169 0 294 -59q91 79 240 79q113 0 200 -30l283 15q-12 -379 -12 -678v-147l14 1q29 -1 159 160t130 193h299q0 -30 -136 -172.5t-220 -195.5v-17q94 -63 262 -301q158 -223 158 -264zM861 1201q-88 44 -190 44
q-123 0 -167.5 -63t-44.5 -248h371q0 162 31 267z" />
    <glyph glyph-name="uniFB02" unicode="fl" horiz-adv-x="1198" 
d="M1079 0h-273q15 343 15 743q0 281 -16 501q-87 21 -185 21q-108 0 -135 -71t-27 -261q89 0 245 8l-8 -199q-156 6 -237 6q0 -377 15 -748h-264q15 366 15 748q-59 0 -175 -6l8 198q106 -7 167 -7q0 282 95 392.5t271 110.5q113 0 200 -30l289 16q-15 -283 -15 -679
q0 -402 15 -743z" />
    <glyph glyph-name="uniFB04" unicode="ffl" horiz-adv-x="1803" 
d="M1685 0h-273q15 343 15 743q0 281 -16 501q-87 21 -185 21q-108 0 -135 -71t-27 -261q89 0 245 8l-8 -199q-156 6 -237 6q0 -377 15 -748h-264q15 366 15 748h-371q0 -377 14 -748h-264q14 367 14 748q-57 0 -174 -7l8 199q107 -6 166 -6q0 264 105 373t334 109
q169 0 294 -59q91 79 240 79q113 0 200 -30l289 16q-15 -283 -15 -679q0 -402 15 -743zM861 1201q-88 44 -190 44q-123 0 -167.5 -63t-44.5 -248h371q0 162 31 267z" />
    <glyph glyph-name=".notdef" horiz-adv-x="932" 
d="M932 1308v-1308h-932v1308h932zM841 91v1126h-750v-1126h750zM409 426l-2 31q0 124 38.5 175t68.5 79q57 58 73.5 88t16.5 63q0 66 -41.5 111.5t-96.5 45.5q-58 0 -98.5 -41t-51.5 -131l-90 14q12 130 80.5 190t167.5 60q94 0 159 -66.5t65 -173.5q0 -57 -22.5 -103
t-91.5 -112q-68 -61 -79.5 -99.5t-11.5 -130.5h-84zM389 272q0 28 19 47t46 19q28 0 47 -19t19 -47q0 -27 -19 -45.5t-47 -18.5q-27 0 -46 18.5t-19 45.5z" />
    <glyph glyph-name="glyph1" horiz-adv-x="1024" 
 />
    <glyph glyph-name="glyph1" horiz-adv-x="1024" 
 />
    <glyph glyph-name="uni000D" unicode="&#xd;" horiz-adv-x="444" 
 />
    <glyph glyph-name="space" unicode=" " horiz-adv-x="444" 
 />
    <glyph glyph-name="space" unicode="&#xa0;" horiz-adv-x="444" 
 />
    <glyph glyph-name="A" unicode="A" horiz-adv-x="1290" 
d="M1279 0h-320q0 66 -91 374h-462q-94 -303 -94 -374h-301q0 39 233.5 640t233.5 662h378q0 -57 211.5 -652.5t211.5 -649.5zM817 565q-171 516 -171 558h-16q0 -39 -177 -558h364z" />
    <glyph glyph-name="B" unicode="B" horiz-adv-x="1224" 
d="M1147 392q0 -398 -651 -398q-113 0 -352 6q13 302 13 681q0 364 -13 621h162q46 0 154.5 3t169.5 3q443 0 443 -288q0 -222 -227 -294v-15q121 -19 211 -94.5t90 -224.5zM877 381q0 199 -349 199q-69 0 -119 -5q0 -209 9 -385q34 -8 102 -8q185 0 271 44.5t86 154.5z
M804 941q0 179 -224 179q-103 0 -183 -15q11 -101 11 -347q38 -2 80 -2q316 0 316 185z" />
    <glyph glyph-name="C" unicode="C" horiz-adv-x="1131" 
d="M1076 237l-17 -230q-142 -34 -280 -34q-343 0 -522.5 189.5t-179.5 460.5q0 281 190.5 489t522.5 208q122 0 231 -28l-35 -231q-118 38 -226 38q-203 0 -302 -128.5t-99 -312.5q0 -188 117.5 -326t329.5 -138q124 0 270 43z" />
    <glyph glyph-name="D" unicode="D" horiz-adv-x="1321" 
d="M1244 696q0 -284 -182 -496t-510 -212q-148 0 -408 12q13 302 13 681q0 364 -13 621h175q43 0 128 3t111 3q361 0 523.5 -180t162.5 -432zM971 653q0 192 -112 323.5t-342 131.5q-43 0 -118 -9q10 -200 10 -418q0 -239 10 -474q65 -13 130 -13q215 0 318.5 133.5
t103.5 325.5z" />
    <glyph glyph-name="E" unicode="E" horiz-adv-x="1080" 
d="M1003 220l-8 -220h-851q13 302 13 681q0 364 -13 621h812l-11 -219q-300 16 -544 16q10 -139 10 -328q209 0 447 11v-209q-234 10 -447 10q0 -203 8 -380q274 0 584 17z" />
    <glyph glyph-name="F" unicode="F" horiz-adv-x="1005" 
d="M972 1302l-9 -219q-312 16 -565 16q13 -171 13 -379q193 0 438 10v-207q-248 9 -438 9q0 -283 9 -532h-276q13 302 13 681q0 364 -13 621h828z" />
    <glyph glyph-name="G" unicode="G" horiz-adv-x="1273" 
d="M1174 34q-238 -61 -398 -61q-344 0 -521.5 188.5t-177.5 457.5q0 283 193.5 492t536.5 209q161 0 284 -29l-33 -236q-157 41 -282 41q-211 0 -315 -129.5t-104 -316.5q0 -191 116.5 -333t321.5 -142q57 0 132 12q-15 111 -15 218q0 108 -21 243h283q-8 -154 -8 -310
q0 -113 8 -304z" />
    <glyph glyph-name="H" unicode="H" horiz-adv-x="1338" 
d="M1194 0h-283q10 331 10 574h-504q0 -218 10 -574h-283q13 330 13 681q0 355 -13 621h283q-12 -281 -12 -520h508q0 211 -12 520h283q-14 -254 -14 -621q0 -383 14 -681z" />
    <glyph glyph-name="I" unicode="I" horiz-adv-x="571" 
d="M427 0h-283q13 310 13 681q0 365 -13 621h283q-13 -252 -13 -621q0 -377 13 -681z" />
    <glyph glyph-name="J" unicode="J" horiz-adv-x="818" 
d="M696 1302q-12 -298 -12 -736q0 -333 -137 -473q-116 -120 -361 -120q-88 0 -175 21l18 215q67 -30 134 -30q131 0 190 57q85 82 85 310q0 457 -15 756h273z" />
    <glyph glyph-name="K" unicode="K" horiz-adv-x="1207" 
d="M1196 0h-327q0 46 -169 317q-180 289 -255 289h-30q0 -228 11 -606h-282q13 302 13 681q0 364 -13 621h282q-11 -277 -11 -520h22q44 0 222 246q173 239 173 274h298q0 -33 -183 -249q-189 -223 -276 -284v-15q102 -53 321 -395q204 -318 204 -359z" />
    <glyph glyph-name="L" unicode="L" horiz-adv-x="994" 
d="M983 218l-8 -218h-831q12 271 12 681q0 376 -12 621h281q-12 -227 -12 -621q0 -301 -13 -478q276 0 583 15z" />
    <glyph glyph-name="M" unicode="M" horiz-adv-x="1769" 
d="M1647 0h-291q0 170 -21 573.5t-22 503.5h-15q-10 -60 -53 -222t-161.5 -477.5t-118.5 -377.5h-221q0 64 -113.5 381t-148.5 444t-56 252h-15q-1 -125 -24.5 -536t-23.5 -541h-264q0 30 72.5 601t72.5 701h387q0 -112 122.5 -494t122.5 -489h15q0 108 139.5 490t139.5 493
h384q0 -207 46.5 -738.5t46.5 -563.5z" />
    <glyph glyph-name="N" unicode="N" horiz-adv-x="1361" 
d="M1217 0h-247q0 41 -275 433q-288 413 -328 565h-16q25 -219 25 -396q0 -247 14 -602h-246q15 310 15 681q0 365 -15 621h297q0 -53 247 -423q263 -393 302 -533h15q-24 223 -24 400q0 271 -14 556h250q-14 -248 -14 -621q0 -376 14 -681z" />
    <glyph glyph-name="O" unicode="O" horiz-adv-x="1427" 
d="M1350 675q0 -307 -188 -509t-465 -202q-264 0 -442 185.5t-178 471.5q0 307 188 509t465 202q264 0 442 -185t178 -472zM1074 646q0 209 -107 339t-264 130q-146 0 -248 -131t-102 -331q0 -208 107.5 -338.5t263.5 -130.5q146 0 248 131.5t102 330.5z" />
    <glyph glyph-name="P" unicode="P" horiz-adv-x="1138" 
d="M1094 961q0 -239 -177.5 -353t-435.5 -114q-47 0 -67 2q0 -188 11 -496h-281q13 289 13 681q0 360 -13 621h174q37 0 142 3t182 3q190 0 321 -86t131 -261zM836 906q0 214 -284 214q-71 0 -150 -15q11 -189 11 -428q25 -2 58 -2q365 0 365 231z" />
    <glyph glyph-name="Q" unicode="Q" horiz-adv-x="1427" 
d="M1389 -432l-293 -12q-56 257 -123.5 332.5t-275.5 75.5q-264 0 -442 185.5t-178 471.5q0 307 188 509t465 202q264 0 442 -185t178 -472q0 -206 -90 -370.5t-244 -254.5v-16q163 -20 242 -114.5t131 -351.5zM1074 646q0 209 -108 339t-263 130q-146 0 -248 -131
t-102 -331q0 -208 108.5 -338.5t262.5 -130.5q146 0 248 131.5t102 330.5z" />
    <glyph glyph-name="R" unicode="R" horiz-adv-x="1220" 
d="M1198 0h-296q-116 354 -178 437t-200 83q-58 0 -111 -1q0 -257 9 -519h-278q13 302 13 681q0 364 -13 621h173q30 0 125.5 3t176.5 3q459 0 459 -314q0 -249 -262 -347v-15q101 -28 177 -157.5t205 -474.5zM823 920q0 199 -256 199q-94 0 -166 -14q11 -155 11 -404
q55 -2 93 -2q318 0 318 221z" />
    <glyph glyph-name="S" unicode="S" horiz-adv-x="1071" 
d="M994 355q0 -391 -562 -391q-191 0 -355 46l49 223q162 -56 306 -56q160 0 230 31t70 104q0 76 -66 128q-57 46 -231 120q-158 68 -235 148q-97 101 -97 249q0 172 127.5 269t366.5 97q196 0 329 -33l-37 -222q-135 49 -292 49q-236 0 -236 -126q0 -67 55 -109
q48 -36 209 -101q171 -69 256 -152q113 -111 113 -274z" />
    <glyph glyph-name="T" unicode="T" horiz-adv-x="1077" 
d="M1055 1302l-7 -215q-200 15 -377 15q-2 -189 -2 -421q0 -360 11 -681h-280q13 318 13 681q0 228 -4 421q-141 0 -387 -16l8 216h1025z" />
    <glyph glyph-name="U" unicode="U" horiz-adv-x="1347" 
d="M1225 1302q-9 -336 -9 -672q0 -664 -544 -664q-269 0 -405 147t-136 528q0 336 -9 661h283q-13 -338 -13 -652q0 -275 70 -377t216 -102q153 0 221 101.5t68 379.5q0 305 -13 650h271z" />
    <glyph glyph-name="V" unicode="V" horiz-adv-x="1175" 
d="M1164 1302q0 -82 -228.5 -652t-228.5 -650h-275q0 77 -210.5 653t-210.5 649h317q0 -73 134 -518t134 -505h17q0 58 134.5 487t134.5 536h282z" />
    <glyph glyph-name="W" unicode="W" horiz-adv-x="1877" 
d="M1866 1302q0 -93 -200 -660t-200 -642h-264q0 79 -121 445q-129 392 -145 517h-17q-16 -126 -134 -521q-110 -369 -110 -441h-270q0 94 -197 669t-197 633h317q0 -63 114 -502t114 -521h16q0 82 122 511.5t122 511.5h285q0 -75 122 -520.5t122 -502.5h16q0 72 110.5 489
t110.5 534h284z" />
    <glyph glyph-name="X" unicode="X" horiz-adv-x="1203" 
d="M1192 0h-335q0 35 -114 257q-111 217 -159 283h-16q-43 -59 -144 -277q-104 -223 -104 -263h-309q0 30 194.5 337t249.5 361v15q-54 62 -213 304q-164 253 -164 285h322q0 -32 93 -215t131 -229h16q37 47 125.5 229t88.5 215h296q0 -28 -171.5 -277.5t-219.5 -296.5v-15
q66 -72 249.5 -374t183.5 -339z" />
    <glyph glyph-name="Y" unicode="Y" horiz-adv-x="1130" 
d="M1119 1302q0 -41 -114 -221q-175 -275 -213 -342q-114 -203 -114 -301q0 -220 12 -438h-284q11 219 11 441q0 102 -105 309q-49 96 -196 343q-105 177 -105 209h314q0 -36 125.5 -303.5t125.5 -345.5h16q0 72 122.5 328t122.5 321h282z" />
    <glyph glyph-name="Z" unicode="Z" horiz-adv-x="1054" 
d="M977 226l-7 -226h-893l15 205q109 144 323 478q232 362 232 407v16q-239 0 -553 -23l6 219h856l-14 -207q-110 -152 -308 -470q-224 -360 -224 -407v-15q210 0 567 23z" />
    <glyph glyph-name="Agrave" unicode="&#xc0;" horiz-adv-x="1290" 
d="M1279 0h-320q0 66 -91 374h-462q-94 -303 -94 -374h-301q0 39 233.5 640t233.5 662h378q0 -57 211.5 -652.5t211.5 -649.5zM817 565q-171 516 -171 558h-16q0 -39 -177 -558h364zM787 1416h-175q-10 16 -143 139t-133 135h291q0 -11 80 -134.5t80 -139.5z" />
    <glyph glyph-name="Aacute" unicode="&#xc1;" horiz-adv-x="1290" 
d="M1279 0h-320q0 66 -91 374h-462q-94 -303 -94 -374h-301q0 39 233.5 640t233.5 662h378q0 -57 211.5 -652.5t211.5 -649.5zM817 565q-171 516 -171 558h-16q0 -39 -177 -558h364zM987 1690q0 -12 -133 -135t-143 -139h-175q0 16 80 139.5t80 134.5h291z" />
    <glyph glyph-name="Acircumflex" unicode="&#xc2;" horiz-adv-x="1290" 
d="M1279 0h-320q0 66 -91 374h-462q-94 -303 -94 -374h-301q0 39 233.5 640t233.5 662h378q0 -57 211.5 -652.5t211.5 -649.5zM817 565q-171 516 -171 558h-16q0 -39 -177 -558h364zM994 1416h-155q-10 16 -166 134q-156 -118 -166 -134h-155q0 16 100 139.5t100 134.5h242
q0 -11 100 -134.5t100 -139.5z" />
    <glyph glyph-name="Atilde" unicode="&#xc3;" horiz-adv-x="1290" 
d="M1279 0h-320q0 66 -91 374h-462q-94 -303 -94 -374h-301q0 39 233.5 640t233.5 662h378q0 -57 211.5 -652.5t211.5 -649.5zM817 565q-171 516 -171 558h-16q0 -39 -177 -558h364zM1051 1625q-112 -196 -256 -196q-46 0 -121.5 23t-115.5 23q-91 0 -176 -67l-89 75
q112 186 256 186q50 0 124 -23t113 -23q91 0 176 77z" />
    <glyph glyph-name="Adieresis" unicode="&#xc4;" horiz-adv-x="1290" 
d="M1279 0h-320q0 66 -91 374h-462q-94 -303 -94 -374h-301q0 39 233.5 640t233.5 662h378q0 -57 211.5 -652.5t211.5 -649.5zM817 565q-171 516 -171 558h-16q0 -39 -177 -558h364zM997 1567q0 -58 -39.5 -101.5t-110.5 -43.5q-60 0 -93.5 37.5t-33.5 90.5q0 57 40.5 100
t111.5 43q60 0 92.5 -37t32.5 -89zM602 1567q0 -58 -39.5 -101.5t-110.5 -43.5q-59 0 -92.5 37.5t-33.5 90.5q0 58 40 100.5t111 42.5q60 0 92.5 -37t32.5 -89z" />
    <glyph glyph-name="Amacron" unicode="&#x100;" horiz-adv-x="1290" 
d="M1279 0h-320q0 66 -91 374h-462q-94 -303 -94 -374h-301q0 39 233.5 640t233.5 662h378q0 -57 211.5 -652.5t211.5 -649.5zM817 565q-171 516 -171 558h-16q0 -39 -177 -558h364zM920 1621l-12 -174h-504l11 174h505z" />
    <glyph glyph-name="Abreve" unicode="&#x102;" horiz-adv-x="1290" 
d="M1279 0h-320q0 66 -91 374h-462q-94 -303 -94 -374h-301q0 39 233.5 640t233.5 662h378q0 -57 211.5 -652.5t211.5 -649.5zM817 565q-171 516 -171 558h-16q0 -39 -177 -558h364zM981 1630q-94 -251 -327 -251q-246 0 -329 251l132 60q72 -147 196 -147q120 0 196 147z
" />
    <glyph glyph-name="Aring" unicode="&#xc5;" horiz-adv-x="1290" 
d="M1279 0h-320q0 66 -91 374h-462q-94 -303 -94 -374h-301q0 39 233.5 640t233.5 662h378q0 -57 211.5 -652.5t211.5 -649.5zM817 565q-171 516 -171 558h-16q0 -39 -177 -558h364zM919 1605q0 -115 -77.5 -182.5t-177.5 -67.5q-90 0 -155.5 57.5t-65.5 163.5
q0 114 77.5 180t177.5 66q90 0 155.5 -56.5t65.5 -160.5zM805 1596q0 60 -33.5 92t-81.5 32q-52 0 -92 -37t-40 -101q0 -60 33.5 -92.5t81.5 -32.5q52 0 92 37.5t40 101.5z" />
    <glyph glyph-name="Aringacute" unicode="&#x1fa;" horiz-adv-x="1290" 
d="M858 1518q0 -90 -61 -143.5t-139 -53.5q-71 0 -123 45.5t-52 128.5q0 90 61 142.5t140 52.5q72 0 123 -45t51 -127zM1029 1900q0 -12 -114.5 -90t-124.5 -94h-165q0 16 66.5 94.5t66.5 89.5h271zM759 1515q0 43 -24 66.5t-59 23.5q-38 0 -67 -27t-29 -74
q0 -42 24.5 -65.5t58.5 -23.5q38 0 67 27t29 73zM1279 0h-320q0 66 -91 374h-462q-94 -303 -94 -374h-301q0 39 233.5 640t233.5 662h378q0 -57 211.5 -652.5t211.5 -649.5zM817 565q-171 516 -171 558h-16q0 -39 -177 -558h364z" />
    <glyph glyph-name="Aogonek" unicode="&#x104;" horiz-adv-x="1290" 
d="M1279 0q-280 -31 -280 -202q0 -127 119 -127q31 0 79 10l28 -149q-62 -18 -139 -18q-143 0 -207 57q-67 61 -67 159q0 164 147 270q0 66 -91 374h-462q-94 -303 -94 -374h-301q0 39 233.5 640t233.5 662h378q0 -57 211.5 -652.5t211.5 -649.5zM817 565q-171 516 -171 558
h-16q0 -39 -177 -558h364z" />
    <glyph glyph-name="AE" unicode="&#xc6;" horiz-adv-x="1695" 
d="M1618 220l-8 -220h-860q11 185 11 374h-371q-91 -290 -91 -374h-288q0 38 234 638t234 664h1091l-9 -219q-314 16 -558 16q12 -141 12 -328q194 0 460 8v-206q-247 10 -460 10q0 -193 7 -380q277 0 596 17zM763 565q0 325 -10 534h-131q0 -39 -185 -534h326z" />
    <glyph glyph-name="AEacute" unicode="&#x1fc;" horiz-adv-x="1695" 
d="M1618 220l-8 -220h-860q11 185 11 374h-371q-91 -290 -91 -374h-288q0 38 234 638t234 664h1091l-9 -219q-314 16 -558 16q12 -141 12 -328q194 0 460 8v-206q-247 10 -460 10q0 -193 7 -380q277 0 596 17zM763 565q0 325 -10 534h-131q0 -39 -185 -534h326zM1366 1690
q0 -12 -133 -135t-143 -139h-175q0 16 80 139.5t80 134.5h291z" />
    <glyph glyph-name="Cacute" unicode="&#x106;" horiz-adv-x="1131" 
d="M1076 237l-17 -230q-142 -34 -280 -34q-343 0 -522.5 189.5t-179.5 460.5q0 281 190.5 489t522.5 208q122 0 231 -28l-35 -231q-118 38 -226 38q-203 0 -302 -128.5t-99 -312.5q0 -188 117.5 -326t329.5 -138q124 0 270 43zM1125 1690q0 -12 -133 -135t-143 -139h-175
q0 16 80 139.5t80 134.5h291z" />
    <glyph glyph-name="Ccircumflex" unicode="&#x108;" horiz-adv-x="1131" 
d="M1076 237l-17 -230q-142 -34 -280 -34q-343 0 -522.5 189.5t-179.5 460.5q0 281 190.5 489t522.5 208q122 0 231 -28l-35 -231q-118 38 -226 38q-203 0 -302 -128.5t-99 -312.5q0 -188 117.5 -326t329.5 -138q124 0 270 43zM1055 1416h-155q-10 16 -166 134
q-156 -118 -166 -134h-155q0 16 100 139.5t100 134.5h242q0 -11 100 -134.5t100 -139.5z" />
    <glyph glyph-name="Ccaron" unicode="&#x10c;" horiz-adv-x="1131" 
d="M1076 237l-17 -230q-142 -34 -280 -34q-343 0 -522.5 189.5t-179.5 460.5q0 281 190.5 489t522.5 208q122 0 231 -28l-35 -231q-118 38 -226 38q-203 0 -302 -128.5t-99 -312.5q0 -188 117.5 -326t329.5 -138q124 0 270 43zM1075 1690q0 -16 -100 -139.5t-100 -134.5
h-242q0 11 -100 134.5t-100 139.5h155q10 -16 166 -134q156 118 166 134h155z" />
    <glyph glyph-name="Cdotaccent" unicode="&#x10a;" horiz-adv-x="1131" 
d="M1076 237l-17 -230q-142 -34 -280 -34q-343 0 -522.5 189.5t-179.5 460.5q0 281 190.5 489t522.5 208q122 0 231 -28l-35 -231q-118 38 -226 38q-203 0 -302 -128.5t-99 -312.5q0 -188 117.5 -326t329.5 -138q124 0 270 43zM914 1566q0 -68 -46.5 -119t-129.5 -51
q-70 0 -109.5 44t-39.5 106q0 68 46.5 118t130.5 50q71 0 109.5 -43.5t38.5 -104.5z" />
    <glyph glyph-name="Ccedilla" unicode="&#xc7;" horiz-adv-x="1131" 
d="M1076 237l-17 -230q-142 -34 -280 -34q-52 0 -99 5l-9 -70q189 -47 189 -195q0 -227 -246 -227l-24 112q40 0 69 29.5t29 65.5q0 101 -129 125l30 173q-211 41 -361.5 201t-150.5 431q0 279 191 488t522 209q122 0 231 -28l-35 -231q-118 38 -226 38q-201 0 -301 -128.5
t-100 -312.5q0 -188 117.5 -326t329.5 -138q124 0 270 43z" />
    <glyph glyph-name="Dcaron" unicode="&#x10e;" horiz-adv-x="1321" 
d="M1244 696q0 -284 -182 -496t-510 -212q-148 0 -408 12q13 302 13 681q0 364 -13 621h175q43 0 128 3t111 3q361 0 523.5 -180t162.5 -432zM971 653q0 192 -112 323.5t-342 131.5q-43 0 -118 -9q10 -200 10 -418q0 -239 10 -474q65 -13 130 -13q215 0 318.5 133.5
t103.5 325.5zM973 1690q0 -16 -100 -139.5t-100 -134.5h-242q0 11 -100 134.5t-100 139.5h155q10 -16 166 -134q156 118 166 134h155z" />
    <glyph glyph-name="Dcroat" unicode="&#x110;" horiz-adv-x="1321" 
d="M1244 696q0 -282 -181 -495t-502 -213q-157 0 -417 12q13 248 13 582q-56 -4 -146 -14l9 179q80 -1 137 -1q0 307 -13 556h175q44 0 130 3t129 3q335 0 500.5 -176t165.5 -436zM971 653q0 189 -115 322t-339 133q-51 0 -118 -8q12 -139 11 -347q99 5 329 26l-9 -176
q-70 0 -320 -7q0 -224 9 -389q65 -13 135 -13q210 0 313.5 133.5t103.5 325.5z" />
    <glyph glyph-name="Egrave" unicode="&#xc8;" horiz-adv-x="1080" 
d="M1003 220l-8 -220h-851q13 302 13 681q0 364 -13 621h812l-11 -219q-300 16 -544 16q10 -139 10 -328q209 0 447 11v-209q-234 10 -447 10q0 -203 8 -380q274 0 584 17zM717 1416h-175q-10 16 -143 139t-133 135h291q0 -11 80 -134.5t80 -139.5z" />
    <glyph glyph-name="Eacute" unicode="&#xc9;" horiz-adv-x="1080" 
d="M1003 220l-8 -220h-851q13 302 13 681q0 364 -13 621h812l-11 -219q-300 16 -544 16q10 -139 10 -328q209 0 447 11v-209q-234 10 -447 10q0 -203 8 -380q274 0 584 17zM919 1690q0 -12 -133 -135t-143 -139h-175q0 16 80 139.5t80 134.5h291z" />
    <glyph glyph-name="Ecircumflex" unicode="&#xca;" horiz-adv-x="1080" 
d="M1003 220l-8 -220h-851q13 302 13 681q0 364 -13 621h812l-11 -219q-300 16 -544 16q10 -139 10 -328q209 0 447 11v-209q-234 10 -447 10q0 -203 8 -380q274 0 584 17zM915 1416h-155q-10 16 -166 134q-156 -118 -166 -134h-155q0 16 100 139.5t100 134.5h242
q0 -11 100 -134.5t100 -139.5z" />
    <glyph glyph-name="Ecaron" unicode="&#x11a;" horiz-adv-x="1080" 
d="M1003 220l-8 -220h-851q13 302 13 681q0 364 -13 621h812l-11 -219q-300 16 -544 16q10 -139 10 -328q209 0 447 11v-209q-234 10 -447 10q0 -203 8 -380q274 0 584 17zM918 1690q0 -16 -100 -139.5t-100 -134.5h-242q0 11 -100 134.5t-100 139.5h155q10 -16 166 -134
q156 118 166 134h155z" />
    <glyph glyph-name="Edieresis" unicode="&#xcb;" horiz-adv-x="1080" 
d="M1003 220l-8 -220h-851q13 302 13 681q0 364 -13 621h812l-11 -219q-300 16 -544 16q10 -139 10 -328q209 0 447 11v-209q-234 10 -447 10q0 -203 8 -380q274 0 584 17zM902 1567q0 -58 -39.5 -101.5t-110.5 -43.5q-60 0 -93.5 37.5t-33.5 90.5q0 57 40.5 100t111.5 43
q60 0 92.5 -37t32.5 -89zM507 1567q0 -58 -39.5 -101.5t-110.5 -43.5q-59 0 -92.5 37.5t-33.5 90.5q0 58 40 100.5t111 42.5q60 0 92.5 -37t32.5 -89z" />
    <glyph glyph-name="Emacron" unicode="&#x112;" horiz-adv-x="1080" 
d="M1003 220l-8 -220h-851q13 302 13 681q0 364 -13 621h812l-11 -219q-300 16 -544 16q10 -139 10 -328q209 0 447 11v-209q-234 10 -447 10q0 -203 8 -380q274 0 584 17zM841 1621l-12 -174h-504l11 174h505z" />
    <glyph glyph-name="Ebreve" unicode="&#x114;" horiz-adv-x="1080" 
d="M1003 220l-8 -220h-851q13 302 13 681q0 364 -13 621h812l-11 -219q-300 16 -544 16q10 -139 10 -328q209 0 447 11v-209q-234 10 -447 10q0 -203 8 -380q274 0 584 17zM921 1630q-94 -251 -327 -251q-246 0 -329 251l132 60q72 -147 196 -147q120 0 196 147z" />
    <glyph glyph-name="Edotaccent" unicode="&#x116;" horiz-adv-x="1080" 
d="M1003 220l-8 -220h-851q13 302 13 681q0 364 -13 621h812l-11 -219q-300 16 -544 16q10 -139 10 -328q209 0 447 11v-209q-234 10 -447 10q0 -203 8 -380q274 0 584 17zM754 1566q0 -68 -46.5 -119t-129.5 -51q-70 0 -109.5 44t-39.5 106q0 68 46.5 118t130.5 50
q71 0 109.5 -43.5t38.5 -104.5z" />
    <glyph glyph-name="Eogonek" unicode="&#x118;" horiz-adv-x="1080" 
d="M983 -468q-62 -18 -139 -18q-143 0 -208.5 59t-65.5 157q0 164 167 260v10h-593q13 302 13 681q0 364 -13 621h810l-9 -219q-300 16 -544 16q10 -139 10 -328q209 0 447 11v-209q-234 10 -447 10q0 -203 8 -380q274 0 584 17l-8 -220q-238 -41 -238 -202q0 -127 119 -127
q31 0 79 10z" />
    <glyph glyph-name="Gcircumflex" unicode="&#x11c;" horiz-adv-x="1273" 
d="M1174 34q-238 -61 -398 -61q-344 0 -521.5 188.5t-177.5 457.5q0 283 193.5 492t536.5 209q161 0 284 -29l-33 -236q-157 41 -282 41q-211 0 -315 -129.5t-104 -316.5q0 -191 116.5 -333t321.5 -142q57 0 132 12q-15 111 -15 218q0 108 -21 243h283q-8 -154 -8 -310
q0 -113 8 -304zM1070 1416h-155q-10 16 -166 134q-156 -118 -166 -134h-155q0 16 100 139.5t100 134.5h242q0 -11 100 -134.5t100 -139.5z" />
    <glyph glyph-name="Gbreve" unicode="&#x11e;" horiz-adv-x="1273" 
d="M1174 34q-238 -61 -398 -61q-344 0 -521.5 188.5t-177.5 457.5q0 283 193.5 492t536.5 209q161 0 284 -29l-33 -236q-157 41 -282 41q-211 0 -315 -129.5t-104 -316.5q0 -191 116.5 -333t321.5 -142q57 0 132 12q-15 111 -15 218q0 108 -21 243h283q-8 -154 -8 -310
q0 -113 8 -304zM1081 1630q-94 -251 -327 -251q-246 0 -329 251l132 60q72 -147 196 -147q120 0 196 147z" />
    <glyph glyph-name="Gdotaccent" unicode="&#x120;" horiz-adv-x="1273" 
d="M1174 34q-238 -61 -398 -61q-344 0 -521.5 188.5t-177.5 457.5q0 283 193.5 492t536.5 209q161 0 284 -29l-33 -236q-157 41 -282 41q-211 0 -315 -129.5t-104 -316.5q0 -191 116.5 -333t321.5 -142q57 0 132 12q-15 111 -15 218q0 108 -21 243h283q-8 -154 -8 -310
q0 -113 8 -304zM921 1566q0 -68 -46.5 -119t-129.5 -51q-70 0 -109.5 44t-39.5 106q0 68 46.5 118t130.5 50q71 0 109.5 -43.5t38.5 -104.5z" />
    <glyph glyph-name="Gcommaaccent" unicode="&#x122;" horiz-adv-x="1273" 
d="M1174 34q-238 -61 -398 -61q-344 0 -521.5 188.5t-177.5 457.5q0 283 193.5 492t536.5 209q161 0 284 -29l-33 -236q-157 41 -282 41q-211 0 -315 -129.5t-104 -316.5q0 -191 116.5 -333t321.5 -142q57 0 132 12q-15 111 -15 218q0 108 -21 243h283q-8 -154 -8 -310
q0 -113 8 -304zM837 -210q0 -188 -200 -314l-64 54q58 75 58 156q-64 38 -64 102q0 61 37 100.5t102 39.5q61 0 96 -40t35 -98z" />
    <glyph glyph-name="Hcircumflex" unicode="&#x124;" horiz-adv-x="1338" 
d="M1194 0h-283q10 331 10 574h-504q0 -218 10 -574h-283q13 330 13 681q0 355 -13 621h283q-12 -281 -12 -520h508q0 211 -12 520h283q-14 -254 -14 -621q0 -383 14 -681zM983 1416h-155q-10 16 -166 134q-156 -118 -166 -134h-155q0 16 100 139.5t100 134.5h242
q0 -11 100 -134.5t100 -139.5z" />
    <glyph glyph-name="Hbar" unicode="&#x126;" horiz-adv-x="1338" 
d="M1278 1084l-10 -148h-87q-1 -120 -1 -255q0 -383 14 -681h-283q10 331 10 574h-504q0 -218 10 -574h-283q13 330 13 681q0 134 -2 255h-96l10 148h83q-3 115 -8 218h283q-5 -113 -8 -218h499q-3 102 -7 218h283q-6 -100 -9 -218h93zM923 782q0 71 -2 154h-505
q-1 -79 -1 -154h508z" />
    <glyph glyph-name="Igrave" unicode="&#xcc;" horiz-adv-x="571" 
d="M427 0h-283q13 310 13 681q0 365 -13 621h283q-13 -252 -13 -621q0 -377 13 -681zM413 1416h-175q-10 16 -143 139t-133 135h291q0 -11 80 -134.5t80 -139.5z" />
    <glyph glyph-name="Iacute" unicode="&#xcd;" horiz-adv-x="571" 
d="M427 0h-283q13 310 13 681q0 365 -13 621h283q-13 -252 -13 -621q0 -377 13 -681zM630 1690q0 -12 -133 -135t-143 -139h-175q0 16 80 139.5t80 134.5h291z" />
    <glyph glyph-name="Icircumflex" unicode="&#xce;" horiz-adv-x="571" 
d="M427 0h-283q13 310 13 681q0 365 -13 621h283q-13 -252 -13 -621q0 -377 13 -681zM608 1416h-155q-10 16 -166 134q-156 -118 -166 -134h-155q0 16 100 139.5t100 134.5h242q0 -11 100 -134.5t100 -139.5z" />
    <glyph glyph-name="Itilde" unicode="&#x128;" horiz-adv-x="571" 
d="M427 0h-283q13 310 13 681q0 365 -13 621h283q-13 -252 -13 -621q0 -377 13 -681zM662 1625q-112 -196 -256 -196q-46 0 -121.5 23t-115.5 23q-91 0 -176 -67l-89 75q112 186 256 186q50 0 124 -23t113 -23q91 0 176 77z" />
    <glyph glyph-name="Idieresis" unicode="&#xcf;" horiz-adv-x="571" 
d="M427 0h-283q13 310 13 681q0 365 -13 621h283q-13 -252 -13 -621q0 -377 13 -681zM622 1567q0 -58 -39.5 -101.5t-110.5 -43.5q-60 0 -93.5 37.5t-33.5 90.5q0 57 40.5 100t111.5 43q60 0 92.5 -37t32.5 -89zM227 1567q0 -58 -39.5 -101.5t-110.5 -43.5q-59 0 -92.5 37.5
t-33.5 90.5q0 58 40 100.5t111 42.5q60 0 92.5 -37t32.5 -89z" />
    <glyph glyph-name="Imacron" unicode="&#x12a;" horiz-adv-x="571" 
d="M427 0h-283q13 310 13 681q0 365 -13 621h283q-13 -252 -13 -621q0 -377 13 -681zM544 1621l-12 -174h-504l11 174h505z" />
    <glyph glyph-name="Ibreve" unicode="&#x12c;" horiz-adv-x="571" 
d="M427 0h-283q13 310 13 681q0 365 -13 621h283q-13 -252 -13 -621q0 -377 13 -681zM614 1630q-94 -251 -327 -251q-246 0 -329 251l132 60q72 -147 196 -147q120 0 196 147z" />
    <glyph glyph-name="Idotaccent" unicode="&#x130;" horiz-adv-x="571" 
d="M427 0h-283q13 310 13 681q0 365 -13 621h283q-13 -252 -13 -621q0 -377 13 -681zM462 1566q0 -68 -46.5 -119t-129.5 -51q-70 0 -109.5 44t-39.5 106q0 68 46.5 118t130.5 50q71 0 109.5 -43.5t38.5 -104.5z" />
    <glyph glyph-name="Iogonek" unicode="&#x12e;" horiz-adv-x="571" 
d="M430 -468q-62 -18 -139 -18q-143 0 -208.5 59t-65.5 157q0 164 127 270q13 310 13 681q0 365 -13 621h283q-13 -252 -13 -621q0 -377 13 -681q-223 -31 -223 -202q0 -127 119 -127q31 0 79 10z" />
    <glyph glyph-name="IJ" unicode="&#x132;" horiz-adv-x="1389" 
d="M427 0h-283q13 310 13 681q0 365 -13 621h283q-13 -252 -13 -621q0 -377 13 -681zM1267 1302q-12 -298 -12 -736q0 -333 -137 -473q-116 -120 -361 -120q-88 0 -175 21l18 215q67 -30 134 -30q131 0 190 57q85 82 85 310q0 457 -15 756h273z" />
    <glyph glyph-name="Jcircumflex" unicode="&#x134;" horiz-adv-x="796" 
d="M696 1302q-12 -298 -12 -736q0 -333 -137 -473q-116 -120 -361 -120q-88 0 -175 21l18 215q67 -30 134 -30q131 0 190 57q85 82 85 310q0 457 -15 756h273zM881 1416h-155q-10 16 -166 134q-156 -118 -166 -134h-155q0 16 100 139.5t100 134.5h242q0 -11 100 -134.5
t100 -139.5z" />
    <glyph glyph-name="Kcommaaccent" unicode="&#x136;" horiz-adv-x="1207" 
d="M1196 0h-327q0 46 -169 317q-180 289 -255 289h-30q0 -228 11 -606h-282q13 302 13 681q0 364 -13 621h282q-11 -277 -11 -520h22q44 0 222 246q173 239 173 274h298q0 -33 -183 -249q-189 -223 -276 -284v-15q102 -53 321 -395q204 -318 204 -359zM783 -210
q0 -188 -200 -314l-64 54q58 75 58 156q-64 38 -64 102q0 61 37 100.5t102 39.5q61 0 96 -40t35 -98z" />
    <glyph glyph-name="Lacute" unicode="&#x139;" horiz-adv-x="994" 
d="M983 218l-8 -218h-831q12 271 12 681q0 376 -12 621h281q-12 -227 -12 -621q0 -301 -13 -478q276 0 583 15zM632 1690q0 -12 -133 -135t-143 -139h-175q0 16 80 139.5t80 134.5h291z" />
    <glyph glyph-name="Lcaron" unicode="&#x13d;" horiz-adv-x="994" 
d="M983 218l-8 -218h-831q12 271 12 681q0 376 -12 621h281q-12 -227 -12 -621q0 -301 -13 -478q276 0 583 15zM1018 1177q0 -222 -204 -351l-66 55q54 89 54 174q-80 39 -80 120q0 62 43 107.5t119 45.5q63 0 98.5 -46t35.5 -105z" />
    <glyph glyph-name="Lcommaaccent" unicode="&#x13b;" horiz-adv-x="994" 
d="M983 218l-8 -218h-831q12 271 12 681q0 376 -12 621h281q-12 -227 -12 -621q0 -301 -13 -478q276 0 583 15zM696 -210q0 -188 -200 -314l-64 54q58 75 58 156q-64 38 -64 102q0 61 37 100.5t102 39.5q61 0 96 -40t35 -98z" />
    <glyph glyph-name="Lslash" unicode="&#x141;" horiz-adv-x="994" 
d="M983 218l-8 -218h-831q9 203 11 465l-97 -72l-82 128l180 114v46q0 376 -12 621h281q-10 -191 -12 -499l345 242l103 -136l-448 -273q-1 -264 -13 -433q276 0 583 15z" />
    <glyph glyph-name="Ldot" unicode="&#x13f;" horiz-adv-x="994" 
d="M983 218l-8 -218h-831q12 271 12 681q0 376 -12 621h281q-12 -227 -12 -621q0 -301 -13 -478q276 0 583 15zM1000 713q0 -68 -46.5 -119t-129.5 -51q-70 0 -109.5 44t-39.5 106q0 68 46.5 118t130.5 50q71 0 109.5 -43.5t38.5 -104.5z" />
    <glyph glyph-name="Nacute" unicode="&#x143;" horiz-adv-x="1361" 
d="M1217 0h-247q0 41 -275 433q-288 413 -328 565h-16q25 -219 25 -396q0 -247 14 -602h-246q15 310 15 681q0 365 -15 621h297q0 -53 247 -423q263 -393 302 -533h15q-24 223 -24 400q0 271 -14 556h250q-14 -248 -14 -621q0 -376 14 -681zM1000 1690q0 -12 -133 -135
t-143 -139h-175q0 16 80 139.5t80 134.5h291z" />
    <glyph glyph-name="Ncaron" unicode="&#x147;" horiz-adv-x="1361" 
d="M1217 0h-247q0 41 -275 433q-288 413 -328 565h-16q25 -219 25 -396q0 -247 14 -602h-246q15 310 15 681q0 365 -15 621h297q0 -53 247 -423q263 -393 302 -533h15q-24 223 -24 400q0 271 -14 556h250q-14 -248 -14 -621q0 -376 14 -681zM1008 1690q0 -16 -100 -139.5
t-100 -134.5h-242q0 11 -100 134.5t-100 139.5h155q10 -16 166 -134q156 118 166 134h155z" />
    <glyph glyph-name="Ntilde" unicode="&#xd1;" horiz-adv-x="1361" 
d="M1217 0h-247q0 41 -275 433q-288 413 -328 565h-16q25 -219 25 -396q0 -247 14 -602h-246q15 310 15 681q0 365 -15 621h297q0 -53 247 -423q263 -393 302 -533h15q-24 223 -24 400q0 271 -14 556h250q-14 -248 -14 -621q0 -376 14 -681zM1063 1625q-112 -196 -256 -196
q-46 0 -121.5 23t-115.5 23q-91 0 -176 -67l-89 75q112 186 256 186q50 0 124 -23t113 -23q91 0 176 77z" />
    <glyph glyph-name="Ncommaaccent" unicode="&#x145;" horiz-adv-x="1361" 
d="M1217 0h-247q0 41 -275 433q-288 413 -328 565h-16q25 -219 25 -396q0 -247 14 -602h-246q15 310 15 681q0 365 -15 621h297q0 -53 247 -423q263 -393 302 -533h15q-24 223 -24 400q0 271 -14 556h250q-14 -248 -14 -621q0 -376 14 -681zM812 -210q0 -188 -200 -314
l-64 54q58 75 58 156q-64 38 -64 102q0 61 37 100.5t102 39.5q61 0 96 -40t35 -98z" />
    <glyph glyph-name="Ograve" unicode="&#xd2;" horiz-adv-x="1427" 
d="M1350 675q0 -307 -188 -509t-465 -202q-264 0 -442 185.5t-178 471.5q0 307 188 509t465 202q264 0 442 -185t178 -472zM1074 646q0 209 -107 339t-264 130q-146 0 -248 -131t-102 -331q0 -208 107.5 -338.5t263.5 -130.5q146 0 248 131.5t102 330.5zM839 1416h-175
q-10 16 -143 139t-133 135h291q0 -11 80 -134.5t80 -139.5z" />
    <glyph glyph-name="Oacute" unicode="&#xd3;" horiz-adv-x="1427" 
d="M1350 675q0 -307 -188 -509t-465 -202q-264 0 -442 185.5t-178 471.5q0 307 188 509t465 202q264 0 442 -185t178 -472zM1074 646q0 209 -107 339t-264 130q-146 0 -248 -131t-102 -331q0 -208 107.5 -338.5t263.5 -130.5q146 0 248 131.5t102 330.5zM1106 1690
q0 -12 -133 -135t-143 -139h-175q0 16 80 139.5t80 134.5h291z" />
    <glyph glyph-name="Ocircumflex" unicode="&#xd4;" horiz-adv-x="1427" 
d="M1350 675q0 -307 -188 -509t-465 -202q-264 0 -442 185.5t-178 471.5q0 307 188 509t465 202q264 0 442 -185t178 -472zM1074 646q0 209 -107 339t-264 130q-146 0 -248 -131t-102 -331q0 -208 107.5 -338.5t263.5 -130.5q146 0 248 131.5t102 330.5zM1042 1416h-155
q-10 16 -166 134q-156 -118 -166 -134h-155q0 16 100 139.5t100 134.5h242q0 -11 100 -134.5t100 -139.5z" />
    <glyph glyph-name="Otilde" unicode="&#xd5;" horiz-adv-x="1427" 
d="M1350 675q0 -307 -188 -509t-465 -202q-264 0 -442 185.5t-178 471.5q0 307 188 509t465 202q264 0 442 -185t178 -472zM1074 646q0 209 -107 339t-264 130q-146 0 -248 -131t-102 -331q0 -208 107.5 -338.5t263.5 -130.5q146 0 248 131.5t102 330.5zM1145 1625
q-112 -196 -256 -196q-46 0 -121.5 23t-115.5 23q-91 0 -176 -67l-89 75q112 186 256 186q50 0 124 -23t113 -23q91 0 176 77z" />
    <glyph glyph-name="Odieresis" unicode="&#xd6;" horiz-adv-x="1427" 
d="M1350 675q0 -307 -188 -509t-465 -202q-264 0 -442 185.5t-178 471.5q0 307 188 509t465 202q264 0 442 -185t178 -472zM1074 646q0 209 -107 339t-264 130q-146 0 -248 -131t-102 -331q0 -208 107.5 -338.5t263.5 -130.5q146 0 248 131.5t102 330.5zM1067 1567
q0 -58 -39.5 -101.5t-110.5 -43.5q-60 0 -93.5 37.5t-33.5 90.5q0 57 40.5 100t111.5 43q60 0 92.5 -37t32.5 -89zM672 1567q0 -58 -39.5 -101.5t-110.5 -43.5q-59 0 -92.5 37.5t-33.5 90.5q0 58 40 100.5t111 42.5q60 0 92.5 -37t32.5 -89z" />
    <glyph glyph-name="Omacron" unicode="&#x14c;" horiz-adv-x="1427" 
d="M1350 675q0 -307 -188 -509t-465 -202q-264 0 -442 185.5t-178 471.5q0 307 188 509t465 202q264 0 442 -185t178 -472zM1074 646q0 209 -107 339t-264 130q-146 0 -248 -131t-102 -331q0 -208 107.5 -338.5t263.5 -130.5q146 0 248 131.5t102 330.5zM973 1621l-12 -174
h-504l11 174h505z" />
    <glyph glyph-name="Obreve" unicode="&#x14e;" horiz-adv-x="1427" 
d="M1350 675q0 -307 -188 -509t-465 -202q-264 0 -442 185.5t-178 471.5q0 307 188 509t465 202q264 0 442 -185t178 -472zM1074 646q0 209 -107 339t-264 130q-146 0 -248 -131t-102 -331q0 -208 107.5 -338.5t263.5 -130.5q146 0 248 131.5t102 330.5zM1054 1630
q-94 -251 -327 -251q-246 0 -329 251l132 60q72 -147 196 -147q120 0 196 147z" />
    <glyph glyph-name="Ohungarumlaut" unicode="&#x150;" horiz-adv-x="1427" 
d="M1350 675q0 -307 -188 -509t-465 -202q-264 0 -442 185.5t-178 471.5q0 307 188 509t465 202q264 0 442 -185t178 -472zM1074 646q0 209 -107 339t-264 130q-146 0 -248 -131t-102 -331q0 -208 107.5 -338.5t263.5 -130.5q146 0 248 131.5t102 330.5zM774 1690
q0 -22 -92 -140t-102 -134h-149q0 16 35 134.5t35 139.5h273zM1161 1690q0 -22 -92 -140t-102 -134h-149q0 16 35 134.5t35 139.5h273z" />
    <glyph glyph-name="Oslash" unicode="&#xd8;" horiz-adv-x="1427" 
d="M1360 1322q0 -43 -144 -225q136 -177 136 -422q0 -307 -188 -509t-465 -202q-200 0 -356 113q-130 -161 -130 -196l-147 42q0 40 171 249q-158 182 -158 449q0 307 188 509t465 202q218 0 381 -131q98 126 98 158zM954 1004q-102 111 -249 111q-146 0 -248 -131
t-102 -331q0 -151 61 -267zM1076 646q0 126 -43 227l-529 -603q96 -86 222 -86q146 0 248 131.5t102 330.5z" />
    <glyph glyph-name="Oslashacute" unicode="&#x1fe;" horiz-adv-x="1427" 
d="M1360 1322q0 -43 -144 -225q136 -177 136 -422q0 -307 -188 -509t-465 -202q-200 0 -356 113q-130 -161 -130 -196l-147 42q0 40 171 249q-158 182 -158 449q0 307 188 509t465 202q218 0 381 -131q98 126 98 158zM954 1004q-102 111 -249 111q-146 0 -248 -131
t-102 -331q0 -151 61 -267zM1076 646q0 126 -43 227l-529 -603q96 -86 222 -86q146 0 248 131.5t102 330.5zM1065 1690q0 -12 -133 -135t-143 -139h-175q0 16 80 139.5t80 134.5h291z" />
    <glyph glyph-name="OE" unicode="&#x152;" horiz-adv-x="1863" 
d="M1786 220l-9 -220h-834q-130 -35 -252 -35q-293 0 -453.5 196t-160.5 464q0 277 172.5 492t468.5 215q103 0 246 -30h774l-9 -219q-337 16 -556 16q10 -141 10 -328q178 0 459 8v-206q-247 10 -459 10q0 -193 10 -380q226 0 593 17zM930 681q0 231 -7 409q-98 25 -227 25
q-163 0 -251 -135t-88 -322q0 -190 95 -331.5t260 -141.5q131 0 210 31q8 194 8 465z" />
    <glyph glyph-name="Racute" unicode="&#x154;" horiz-adv-x="1187" 
d="M1166 0h-296q-116 354 -178 437t-200 83q-58 0 -111 -1q0 -257 9 -519h-278q13 302 13 681q0 364 -13 621h173q30 0 125.5 3t176.5 3q459 0 459 -314q0 -249 -262 -347v-15q101 -28 177 -157.5t205 -474.5zM791 920q0 199 -256 199q-94 0 -166 -14q11 -155 11 -404
q55 -2 93 -2q318 0 318 221zM897 1690q0 -12 -133 -135t-143 -139h-175q0 16 80 139.5t80 134.5h291z" />
    <glyph glyph-name="Rcaron" unicode="&#x158;" horiz-adv-x="1187" 
d="M1166 0h-296q-116 354 -178 437t-200 83q-58 0 -111 -1q0 -257 9 -519h-278q13 302 13 681q0 364 -13 621h173q30 0 125.5 3t176.5 3q459 0 459 -314q0 -249 -262 -347v-15q101 -28 177 -157.5t205 -474.5zM791 920q0 199 -256 199q-94 0 -166 -14q11 -155 11 -404
q55 -2 93 -2q318 0 318 221zM903 1690q0 -16 -100 -139.5t-100 -134.5h-242q0 11 -100 134.5t-100 139.5h155q10 -16 166 -134q156 118 166 134h155z" />
    <glyph glyph-name="Rcommaaccent" unicode="&#x156;" horiz-adv-x="1187" 
d="M1166 0h-296q-116 354 -178 437t-200 83q-58 0 -111 -1q0 -257 9 -519h-278q13 302 13 681q0 364 -13 621h173q30 0 125.5 3t176.5 3q459 0 459 -314q0 -249 -262 -347v-15q101 -28 177 -157.5t205 -474.5zM791 920q0 199 -256 199q-94 0 -166 -14q11 -155 11 -404
q55 -2 93 -2q318 0 318 221zM749 -210q0 -188 -200 -314l-64 54q58 75 58 156q-64 38 -64 102q0 61 37 100.5t102 39.5q61 0 96 -40t35 -98z" />
    <glyph glyph-name="Sacute" unicode="&#x15a;" horiz-adv-x="1049" 
d="M984 355q0 -391 -562 -391q-191 0 -355 46l49 223q162 -56 306 -56q160 0 230 31t70 104q0 76 -66 128q-57 46 -231 120q-158 68 -235 148q-97 101 -97 249q0 172 127.5 269t366.5 97q196 0 329 -33l-37 -222q-135 49 -292 49q-236 0 -236 -126q0 -67 55 -109
q48 -36 209 -101q171 -69 256 -152q113 -111 113 -274zM911 1690q0 -12 -133 -135t-143 -139h-175q0 16 80 139.5t80 134.5h291z" />
    <glyph glyph-name="Scircumflex" unicode="&#x15c;" horiz-adv-x="1049" 
d="M984 355q0 -391 -562 -391q-191 0 -355 46l49 223q162 -56 306 -56q160 0 230 31t70 104q0 76 -66 128q-57 46 -231 120q-158 68 -235 148q-97 101 -97 249q0 172 127.5 269t366.5 97q196 0 329 -33l-37 -222q-135 49 -292 49q-236 0 -236 -126q0 -67 55 -109
q48 -36 209 -101q171 -69 256 -152q113 -111 113 -274zM873 1416h-155q-10 16 -166 134q-156 -118 -166 -134h-155q0 16 100 139.5t100 134.5h242q0 -11 100 -134.5t100 -139.5z" />
    <glyph glyph-name="Scaron" unicode="&#x160;" horiz-adv-x="1049" 
d="M984 355q0 -391 -562 -391q-191 0 -355 46l49 223q162 -56 306 -56q160 0 230 31t70 104q0 76 -66 128q-57 46 -231 120q-158 68 -235 148q-97 101 -97 249q0 172 127.5 269t366.5 97q196 0 329 -33l-37 -222q-135 49 -292 49q-236 0 -236 -126q0 -67 55 -109
q48 -36 209 -101q171 -69 256 -152q113 -111 113 -274zM888 1690q0 -16 -100 -139.5t-100 -134.5h-242q0 11 -100 134.5t-100 139.5h155q10 -16 166 -134q156 118 166 134h155z" />
    <glyph glyph-name="Scedilla" unicode="&#x15e;" horiz-adv-x="1071" 
d="M994 355q0 -365 -491 -389l-10 -58q189 -47 189 -195q0 -227 -248 -227l-24 112q42 0 71 29.5t29 65.5q0 101 -129 125l25 146q-176 3 -329 46l49 223q162 -56 306 -56q160 0 230 31t70 104q0 76 -66 128q-57 46 -231 120q-158 68 -235 148q-97 101 -97 249
q0 172 127.5 269t366.5 97q196 0 329 -33l-37 -222q-135 49 -292 49q-236 0 -236 -126q0 -67 55 -109q48 -36 209 -101q171 -69 256 -152q113 -111 113 -274z" />
    <glyph glyph-name="Scommaaccent" unicode="&#x218;" horiz-adv-x="1049" 
d="M984 355q0 -391 -562 -391q-191 0 -355 46l49 223q162 -56 306 -56q160 0 230 31t70 104q0 76 -66 128q-57 46 -231 120q-158 68 -235 148q-97 101 -97 249q0 172 127.5 269t366.5 97q196 0 329 -33l-37 -222q-135 49 -292 49q-236 0 -236 -126q0 -67 55 -109
q48 -36 209 -101q171 -69 256 -152q113 -111 113 -274zM598 -210q0 -188 -200 -314l-64 54q58 75 58 156q-64 38 -64 102q0 61 37 100.5t102 39.5q61 0 96 -40t35 -98z" />
    <glyph glyph-name="Tcaron" unicode="&#x164;" horiz-adv-x="1077" 
d="M1055 1302l-7 -215q-200 15 -377 15q-2 -189 -2 -421q0 -360 11 -681h-280q13 318 13 681q0 228 -4 421q-141 0 -387 -16l8 216h1025zM858 1690q0 -16 -100 -139.5t-100 -134.5h-242q0 11 -100 134.5t-100 139.5h155q10 -16 166 -134q156 118 166 134h155z" />
    <glyph glyph-name="Tcommaaccent" unicode="&#x162;" horiz-adv-x="1077" 
d="M1055 1302l-7 -215q-200 15 -377 15q-2 -189 -2 -421q0 -360 11 -681h-280q13 318 13 681q0 228 -4 421q-141 0 -387 -16l8 216h1025zM670 -210q0 -188 -200 -314l-64 54q58 75 58 156q-64 38 -64 102q0 61 37 100.5t102 39.5q61 0 96 -40t35 -98z" />
    <glyph glyph-name="Tcommaaccent" unicode="&#x21a;" horiz-adv-x="1077" 
d="M1055 1302l-7 -215q-200 15 -377 15q-2 -189 -2 -421q0 -360 11 -681h-280q13 318 13 681q0 228 -4 421q-141 0 -387 -16l8 216h1025zM670 -210q0 -188 -200 -314l-64 54q58 75 58 156q-64 38 -64 102q0 61 37 100.5t102 39.5q61 0 96 -40t35 -98z" />
    <glyph glyph-name="Tbar" unicode="&#x166;" horiz-adv-x="1077" 
d="M1055 1302l-7 -215q-200 15 -377 15q-2 -146 -2 -319h322l-10 -148h-312q0 -335 11 -635h-280q12 297 13 635h-321l10 148h311q-1 170 -4 319q-141 0 -387 -16l8 216h1025z" />
    <glyph glyph-name="Ugrave" unicode="&#xd9;" horiz-adv-x="1347" 
d="M1225 1302q-9 -336 -9 -672q0 -664 -544 -664q-269 0 -405 147t-136 528q0 336 -9 661h283q-13 -338 -13 -652q0 -275 70 -377t216 -102q153 0 221 101.5t68 379.5q0 305 -13 650h271zM804 1416h-175q-10 16 -143 139t-133 135h291q0 -11 80 -134.5t80 -139.5z" />
    <glyph glyph-name="Uacute" unicode="&#xda;" horiz-adv-x="1347" 
d="M1225 1302q-9 -336 -9 -672q0 -664 -544 -664q-269 0 -405 147t-136 528q0 336 -9 661h283q-13 -338 -13 -652q0 -275 70 -377t216 -102q153 0 221 101.5t68 379.5q0 305 -13 650h271zM1025 1690q0 -12 -133 -135t-143 -139h-175q0 16 80 139.5t80 134.5h291z" />
    <glyph glyph-name="Ucircumflex" unicode="&#xdb;" horiz-adv-x="1347" 
d="M1225 1302q-9 -336 -9 -672q0 -664 -544 -664q-269 0 -405 147t-136 528q0 336 -9 661h283q-13 -338 -13 -652q0 -275 70 -377t216 -102q153 0 221 101.5t68 379.5q0 305 -13 650h271zM997 1416h-155q-10 16 -166 134q-156 -118 -166 -134h-155q0 16 100 139.5t100 134.5
h242q0 -11 100 -134.5t100 -139.5z" />
    <glyph glyph-name="Utilde" unicode="&#x168;" horiz-adv-x="1347" 
d="M1225 1302q-9 -336 -9 -672q0 -664 -544 -664q-269 0 -405 147t-136 528q0 336 -9 661h283q-13 -338 -13 -652q0 -275 70 -377t216 -102q153 0 221 101.5t68 379.5q0 305 -13 650h271zM1082 1625q-112 -196 -256 -196q-46 0 -121.5 23t-115.5 23q-91 0 -176 -67l-89 75
q112 186 256 186q50 0 124 -23t113 -23q91 0 176 77z" />
    <glyph glyph-name="Udieresis" unicode="&#xdc;" horiz-adv-x="1347" 
d="M1225 1302q-9 -336 -9 -672q0 -664 -544 -664q-269 0 -405 147t-136 528q0 336 -9 661h283q-13 -338 -13 -652q0 -275 70 -377t216 -102q153 0 221 101.5t68 379.5q0 305 -13 650h271zM1018 1567q0 -58 -39.5 -101.5t-110.5 -43.5q-60 0 -93.5 37.5t-33.5 90.5
q0 57 40.5 100t111.5 43q60 0 92.5 -37t32.5 -89zM623 1567q0 -58 -39.5 -101.5t-110.5 -43.5q-59 0 -92.5 37.5t-33.5 90.5q0 58 40 100.5t111 42.5q60 0 92.5 -37t32.5 -89z" />
    <glyph glyph-name="Umacron" unicode="&#x16a;" horiz-adv-x="1347" 
d="M1225 1302q-9 -336 -9 -672q0 -664 -544 -664q-269 0 -405 147t-136 528q0 336 -9 661h283q-13 -338 -13 -652q0 -275 70 -377t216 -102q153 0 221 101.5t68 379.5q0 305 -13 650h271zM936 1621l-12 -174h-504l11 174h505z" />
    <glyph glyph-name="Ubreve" unicode="&#x16c;" horiz-adv-x="1347" 
d="M1225 1302q-9 -336 -9 -672q0 -664 -544 -664q-269 0 -405 147t-136 528q0 336 -9 661h283q-13 -338 -13 -652q0 -275 70 -377t216 -102q153 0 221 101.5t68 379.5q0 305 -13 650h271zM1017 1630q-94 -251 -327 -251q-246 0 -329 251l132 60q72 -147 196 -147
q120 0 196 147z" />
    <glyph glyph-name="Uring" unicode="&#x16e;" horiz-adv-x="1347" 
d="M1225 1302q-9 -336 -9 -672q0 -664 -544 -664q-269 0 -405 147t-136 528q0 336 -9 661h283q-13 -338 -13 -652q0 -275 70 -377t216 -102q153 0 221 101.5t68 379.5q0 305 -13 650h271zM923 1605q0 -115 -77.5 -182.5t-177.5 -67.5q-90 0 -155.5 57.5t-65.5 163.5
q0 114 77.5 180t177.5 66q90 0 155.5 -56.5t65.5 -160.5zM809 1596q0 60 -33.5 92t-81.5 32q-52 0 -92 -37t-40 -101q0 -60 33.5 -92.5t81.5 -32.5q52 0 92 37.5t40 101.5z" />
    <glyph glyph-name="Uhungarumlaut" unicode="&#x170;" horiz-adv-x="1347" 
d="M1225 1302q-9 -336 -9 -672q0 -664 -544 -664q-269 0 -405 147t-136 528q0 336 -9 661h283q-13 -338 -13 -652q0 -275 70 -377t216 -102q153 0 221 101.5t68 379.5q0 305 -13 650h271zM745 1690q0 -22 -92 -140t-102 -134h-149q0 16 35 134.5t35 139.5h273zM1132 1690
q0 -22 -92 -140t-102 -134h-149q0 16 35 134.5t35 139.5h273z" />
    <glyph glyph-name="Uogonek" unicode="&#x172;" horiz-adv-x="1347" 
d="M959 -468q-62 -18 -139 -18q-143 0 -208.5 59t-65.5 157q0 164 178 228v10q-25 -2 -82 -2q-233 0 -372 142t-139 563q0 306 -9 631h283q-13 -338 -13 -652q0 -275 70 -377t216 -102q153 0 221 102.5t68 387.5q0 296 -13 641h271q-9 -336 -9 -672q0 -484 -289 -615
q-194 -92 -194 -217q0 -127 119 -127q31 0 79 10z" />
    <glyph glyph-name="Wgrave" unicode="&#x1e80;" horiz-adv-x="1877" 
d="M1866 1302q0 -93 -200 -660t-200 -642h-264q0 79 -121 445q-129 392 -145 517h-17q-16 -126 -134 -521q-110 -369 -110 -441h-270q0 94 -197 669t-197 633h317q0 -63 114 -502t114 -521h16q0 82 122 511.5t122 511.5h285q0 -75 122 -520.5t122 -502.5h16q0 72 110.5 489
t110.5 534h284zM1052 1416h-175q-10 16 -143 139t-133 135h291q0 -11 80 -134.5t80 -139.5z" />
    <glyph glyph-name="Wacute" unicode="&#x1e82;" horiz-adv-x="1877" 
d="M1866 1302q0 -93 -200 -660t-200 -642h-264q0 79 -121 445q-129 392 -145 517h-17q-16 -126 -134 -521q-110 -369 -110 -441h-270q0 94 -197 669t-197 633h317q0 -63 114 -502t114 -521h16q0 82 122 511.5t122 511.5h285q0 -75 122 -520.5t122 -502.5h16q0 72 110.5 489
t110.5 534h284zM1290 1690q0 -12 -133 -135t-143 -139h-175q0 16 80 139.5t80 134.5h291z" />
    <glyph glyph-name="Wcircumflex" unicode="&#x174;" horiz-adv-x="1877" 
d="M1866 1302q0 -93 -200 -660t-200 -642h-264q0 79 -121 445q-129 392 -145 517h-17q-16 -126 -134 -521q-110 -369 -110 -441h-270q0 94 -197 669t-197 633h317q0 -63 114 -502t114 -521h16q0 82 122 511.5t122 511.5h285q0 -75 122 -520.5t122 -502.5h16q0 72 110.5 489
t110.5 534h284zM1277 1416h-155q-10 16 -166 134q-156 -118 -166 -134h-155q0 16 100 139.5t100 134.5h242q0 -11 100 -134.5t100 -139.5z" />
    <glyph glyph-name="Wdieresis" unicode="&#x1e84;" horiz-adv-x="1877" 
d="M1866 1302q0 -93 -200 -660t-200 -642h-264q0 79 -121 445q-129 392 -145 517h-17q-16 -126 -134 -521q-110 -369 -110 -441h-270q0 94 -197 669t-197 633h317q0 -63 114 -502t114 -521h16q0 82 122 511.5t122 511.5h285q0 -75 122 -520.5t122 -502.5h16q0 72 110.5 489
t110.5 534h284zM1280 1567q0 -58 -39.5 -101.5t-110.5 -43.5q-60 0 -93.5 37.5t-33.5 90.5q0 57 40.5 100t111.5 43q60 0 92.5 -37t32.5 -89zM885 1567q0 -58 -39.5 -101.5t-110.5 -43.5q-59 0 -92.5 37.5t-33.5 90.5q0 58 40 100.5t111 42.5q60 0 92.5 -37t32.5 -89z" />
    <glyph glyph-name="Ygrave" unicode="&#x1ef2;" horiz-adv-x="1130" 
d="M1119 1302q0 -41 -114 -221q-175 -275 -213 -342q-114 -203 -114 -301q0 -220 12 -438h-284q11 219 11 441q0 102 -105 309q-49 96 -196 343q-105 177 -105 209h314q0 -36 125.5 -303.5t125.5 -345.5h16q0 72 122.5 328t122.5 321h282zM682 1416h-175q-10 16 -143 139
t-133 135h291q0 -11 80 -134.5t80 -139.5z" />
    <glyph glyph-name="Yacute" unicode="&#xdd;" horiz-adv-x="1130" 
d="M1119 1302q0 -41 -114 -221q-175 -275 -213 -342q-114 -203 -114 -301q0 -220 12 -438h-284q11 219 11 441q0 102 -105 309q-49 96 -196 343q-105 177 -105 209h314q0 -36 125.5 -303.5t125.5 -345.5h16q0 72 122.5 328t122.5 321h282zM944 1690q0 -12 -133 -135
t-143 -139h-175q0 16 80 139.5t80 134.5h291z" />
    <glyph glyph-name="Ycircumflex" unicode="&#x176;" horiz-adv-x="1130" 
d="M1119 1302q0 -41 -114 -221q-175 -275 -213 -342q-114 -203 -114 -301q0 -220 12 -438h-284q11 219 11 441q0 102 -105 309q-49 96 -196 343q-105 177 -105 209h314q0 -36 125.5 -303.5t125.5 -345.5h16q0 72 122.5 328t122.5 321h282zM901 1416h-155q-10 16 -166 134
q-156 -118 -166 -134h-155q0 16 100 139.5t100 134.5h242q0 -11 100 -134.5t100 -139.5z" />
    <glyph glyph-name="Ydieresis" unicode="&#x178;" horiz-adv-x="1130" 
d="M1119 1302q0 -41 -114 -221q-175 -275 -213 -342q-114 -203 -114 -301q0 -220 12 -438h-284q11 219 11 441q0 102 -105 309q-49 96 -196 343q-105 177 -105 209h314q0 -36 125.5 -303.5t125.5 -345.5h16q0 72 122.5 328t122.5 321h282zM914 1567q0 -58 -39.5 -101.5
t-110.5 -43.5q-60 0 -93.5 37.5t-33.5 90.5q0 57 40.5 100t111.5 43q60 0 92.5 -37t32.5 -89zM519 1567q0 -58 -39.5 -101.5t-110.5 -43.5q-59 0 -92.5 37.5t-33.5 90.5q0 58 40 100.5t111 42.5q60 0 92.5 -37t32.5 -89z" />
    <glyph glyph-name="Zacute" unicode="&#x179;" horiz-adv-x="1054" 
d="M977 226l-7 -226h-893l15 205q109 144 323 478q232 362 232 407v16q-239 0 -553 -23l6 219h856l-14 -207q-110 -152 -308 -470q-224 -360 -224 -407v-15q210 0 567 23zM891 1690q0 -12 -133 -135t-143 -139h-175q0 16 80 139.5t80 134.5h291z" />
    <glyph glyph-name="Zcaron" unicode="&#x17d;" horiz-adv-x="1054" 
d="M977 226l-7 -226h-893l15 205q109 144 323 478q232 362 232 407v16q-239 0 -553 -23l6 219h856l-14 -207q-110 -152 -308 -470q-224 -360 -224 -407v-15q210 0 567 23zM834 1690q0 -16 -100 -139.5t-100 -134.5h-242q0 11 -100 134.5t-100 139.5h155q10 -16 166 -134
q156 118 166 134h155z" />
    <glyph glyph-name="Zdotaccent" unicode="&#x17b;" horiz-adv-x="1054" 
d="M977 226l-7 -226h-893l15 205q109 144 323 478q232 362 232 407v16q-239 0 -553 -23l6 219h856l-14 -207q-110 -152 -308 -470q-224 -360 -224 -407v-15q210 0 567 23zM721 1566q0 -68 -46.5 -119t-129.5 -51q-70 0 -109.5 44t-39.5 106q0 68 46.5 118t130.5 50
q71 0 109.5 -43.5t38.5 -104.5z" />
    <glyph glyph-name="Eng" unicode="&#x14a;" horiz-adv-x="1361" 
d="M1217 0q0 -211 -99 -308q-134 -130 -436 -135l-22 200q148 5 237.5 78.5t89.5 200.5q-64 76 -292 397q-288 413 -328 565h-16q25 -219 25 -396q0 -247 14 -602h-246q15 310 15 681q0 365 -15 621h297q0 -53 247 -423q263 -393 302 -533h15q-24 223 -24 400q0 271 -14 556
h250q-14 -248 -14 -621q0 -185 6.5 -361.5t7 -230t0.5 -89.5z" />
    <glyph glyph-name="Eth" unicode="&#xd0;" horiz-adv-x="1321" 
d="M1244 696q0 -282 -181 -495t-502 -213q-157 0 -417 12q13 248 13 582q-56 -4 -146 -14l9 179q80 -1 137 -1q0 307 -13 556h175q44 0 130 3t129 3q335 0 500.5 -176t165.5 -436zM971 653q0 189 -115 322t-339 133q-51 0 -118 -8q12 -139 11 -347q99 5 329 26l-9 -176
q-70 0 -320 -7q0 -224 9 -389q65 -13 135 -13q210 0 313.5 133.5t103.5 325.5z" />
    <glyph glyph-name="Thorn" unicode="&#xde;" horiz-adv-x="1138" 
d="M1094 798q0 -236 -178.5 -351.5t-454.5 -115.5h-47q0 -125 8 -331h-278q12 317 12 684q0 357 -12 618h284q-6 -72 -9 -162q115 5 223 5q190 0 321 -86t131 -261zM836 743q0 214 -284 214q-66 0 -136 -15q-2 -191 -2 -430h57q365 0 365 231z" />
    <glyph glyph-name="a" unicode="a" horiz-adv-x="1006" 
d="M925 1l-236 -8q-16 42 -16 76h-13q-110 -94 -297 -94q-125 0 -207.5 69.5t-82.5 184.5q0 152 128.5 249t450.5 103q2 18 2 34q0 108 -52 142.5t-191 34.5q-151 0 -295 -40l22 184q136 47 384 47q181 0 279.5 -76t98.5 -266q0 -42 -3.5 -153t-3.5 -148q0 -207 32 -339z
M658 209q-6 135 -6 233q-341 0 -341 -173q0 -119 150 -119q118 0 197 59z" />
    <glyph glyph-name="b" unicode="b" horiz-adv-x="1136" 
d="M1067 516q0 -217 -124 -381t-341 -164q-160 0 -226 68h-13l-20 -39h-235q13 351 13 743q0 369 -33 663l287 16q-10 -233 -10 -527h12q101 89 273 89q192 0 304.5 -138.5t112.5 -329.5zM801 490q0 125 -63.5 216.5t-174.5 91.5q-138 0 -202 -81q0 -342 15 -515
q63 -49 163 -49q133 0 197.5 98.5t64.5 238.5z" />
    <glyph glyph-name="c" unicode="c" horiz-adv-x="912" 
d="M868 210l-17 -191q-91 -48 -247 -48q-258 0 -396.5 144t-138.5 346q0 210 145 366.5t397 156.5q123 0 219 -28l-34 -204q-92 38 -206 38q-121 0 -191 -85.5t-70 -210.5q0 -136 83 -230t235 -94q89 0 221 40z" />
    <glyph glyph-name="d" unicode="d" horiz-adv-x="1127" 
d="M1027 1l-237 -8q-7 35 -7 73h-15q-110 -95 -281 -95q-192 0 -305 139t-113 330q0 219 123 381.5t342 162.5q142 0 213 -53h14q0 236 -23 475l283 8q-16 -233 -16 -670q0 -443 22 -743zM776 228q0 319 -15 528q-69 48 -165 48q-132 0 -196 -98t-64 -240q0 -126 62 -217.5
t172 -91.5q147 0 206 71z" />
    <glyph glyph-name="e" unicode="e" horiz-adv-x="1049" 
d="M980 577q0 -51 -6 -133l-644 -11q14 -113 97 -188t218 -75q150 0 319 45l-20 -194q-138 -50 -342 -50q-258 0 -395.5 145t-137.5 349q0 213 130.5 369.5t362.5 156.5q212 0 315 -115t103 -299zM746 586q0 230 -196 230q-187 0 -222 -238z" />
    <glyph glyph-name="f" unicode="f" horiz-adv-x="741" 
d="M737 1419l-36 -178q-57 14 -117 14q-72 0 -99 -66t-27 -256q89 0 245 8l-8 -199q-156 6 -237 6q0 -377 15 -748h-264q15 366 15 748q-59 0 -175 -6l8 198q106 -7 167 -7q0 503 338 503q101 0 175 -17zM347 950z" />
    <glyph glyph-name="g" unicode="g" horiz-adv-x="1128" 
d="M1109 1088l-22 -186q-156 0 -195 -45v-13q59 -75 59 -168q0 -143 -105.5 -244t-314.5 -101q-102 0 -167 16q-53 -24 -53 -63q0 -61 63.5 -85.5t295.5 -24.5q401 0 401 -273q0 -192 -167 -305t-406 -113q-468 0 -468 294q0 91 52.5 154.5t121.5 77.5v15q-84 53 -84 162
q0 110 115 184v14q-162 81 -162 253q0 147 111.5 246t344.5 99q159 0 258 -60h14q29 189 194 189q65 0 114 -23zM824 -173q0 74 -56.5 107t-194.5 33q-112 0 -226 10q-88 -52 -88 -155q0 -192 256 -192q143 0 226 54t83 143zM706 650q0 90 -58 137t-133 47t-131.5 -45.5
t-56.5 -133.5q0 -89 58 -135t135 -46q73 0 129.5 44.5t56.5 131.5z" />
    <glyph glyph-name="h" unicode="h" horiz-adv-x="1126" 
d="M1015 0h-266q22 253 22 492q0 178 -45 233.5t-148 55.5q-109 0 -214 -73q0 -425 10 -708h-266q11 310 11 743q0 399 -31 663l283 16q-15 -322 -15 -560h13q132 121 302 121q161 0 252.5 -73t91.5 -257q0 -19 -2.5 -77.5t-2.5 -77.5q0 -167 5 -498z" />
    <glyph glyph-name="i" unicode="i" horiz-adv-x="510" 
d="M395 0h-269q14 207 14 475q0 266 -34 466l288 29q-13 -194 -13 -495q0 -257 14 -475zM441 1252q0 -68 -46.5 -119t-129.5 -51q-70 0 -109.5 44t-39.5 106q0 68 46.5 118t130.5 50q71 0 109.5 -43.5t38.5 -104.5z" />
    <glyph glyph-name="j" unicode="j" horiz-adv-x="510" 
d="M394 971q-14 -303 -14 -602q0 -78 4 -214.5t4 -182.5q0 -369 -295 -428l-73 140q71 57 96.5 167.5t25.5 465.5q0 403 -36 626zM438 1253q0 -68 -47 -119t-130 -51q-70 0 -109.5 44t-39.5 106q0 68 47 118t131 50q71 0 109.5 -43.5t38.5 -104.5z" />
    <glyph glyph-name="k" unicode="k" horiz-adv-x="1045" 
d="M1029 0h-306q0 37 -152 250.5t-194 213.5h-13q0 -205 12 -464h-265q12 467 12 743q0 382 -31 663l284 16q-14 -380 -14 -679q0 -38 1 -148h14q28 0 159 161.5t131 193.5h298q0 -31 -136 -173t-220 -196v-15q93 -65 256.5 -295.5t163.5 -270.5z" />
    <glyph glyph-name="l" unicode="l" horiz-adv-x="528" 
d="M410 0h-273q15 343 15 743q0 390 -31 663l289 16q-15 -283 -15 -679q0 -402 15 -743z" />
    <glyph glyph-name="m" unicode="m" horiz-adv-x="1704" 
d="M1593 0h-265q21 253 21 492q0 179 -46 234t-147 55q-81 0 -171 -59q-4 -125 -4 -224q0 -167 6 -498h-268q22 274 22 533q0 134 -37.5 191t-155.5 57q-109 0 -181 -73q5 -396 5 -708h-269q18 312 18 492q0 234 -49 451l256 28l17 -106h16q130 118 293 118q204 0 287 -118
h16q148 118 293 118q170 0 256.5 -73.5t86.5 -266.5q0 -19 -2 -72.5t-2 -72.5q0 -167 4 -498z" />
    <glyph glyph-name="n" unicode="n" horiz-adv-x="1126" 
d="M1015 0h-266q22 253 22 512q0 157 -46.5 213t-141.5 56q-114 0 -216 -78q5 -390 5 -703h-269q18 313 18 492q0 239 -49 451l256 28l17 -106h16q137 118 315 118q154 0 246.5 -72.5t92.5 -267.5q0 -29 -2.5 -77.5t-2.5 -99.5q0 -135 5 -466z" />
    <glyph glyph-name="o" unicode="o" horiz-adv-x="1144" 
d="M1075 497q0 -252 -155 -394t-365 -142q-200 0 -343 129.5t-143 364.5q0 253 156 396t366 143q199 0 341.5 -130.5t142.5 -366.5zM814 467q0 145 -68 243.5t-177 98.5q-106 0 -172.5 -92t-66.5 -230q0 -145 68 -243.5t177 -98.5q106 0 172.5 92t66.5 230z" />
    <glyph glyph-name="p" unicode="p" horiz-adv-x="1146" 
d="M1076 516q0 -217 -124 -381t-339 -164q-160 0 -220 68h-12q0 -245 7 -496h-272q18 287 18 662q0 484 -52 738l256 28l15 -86h16q107 99 291 99q192 0 304 -138.5t112 -329.5zM810 490q0 126 -63 217t-174 91q-138 0 -202 -81q15 -281 15 -515q63 -49 163 -49
q133 0 197 98.5t64 238.5z" />
    <glyph glyph-name="q" unicode="q" horiz-adv-x="1136" 
d="M1033 -455h-266q11 274 11 521h-16q-103 -95 -275 -95q-192 0 -305 139t-113 330q0 220 125 382t340 162q159 0 240 -59h14l35 25l210 16q-13 -314 -13 -680q0 -419 13 -741zM778 239q0 329 -11 516q-75 49 -171 49q-131 0 -195.5 -97.5t-64.5 -240.5q0 -126 62 -217.5
t172 -91.5q147 0 208 82z" />
    <glyph glyph-name="r" unicode="r" horiz-adv-x="789" 
d="M771 950l-58 -234q-74 30 -150 30q-147 0 -194 -132q0 -399 6 -614h-266q17 301 17 492q0 238 -50 451l255 28q17 -110 17 -129h16q92 141 245 141q72 0 162 -33z" />
    <glyph glyph-name="s" unicode="s" horiz-adv-x="859" 
d="M791 273q0 -300 -444 -300q-162 0 -283 35l34 197q125 -45 249 -45q120 0 166.5 20t46.5 67q0 73 -168 139q-147 58 -214 114q-92 78 -92 191q0 133 99 214t288 81q177 0 278 -31l-34 -198q-113 44 -244 44q-160 0 -160 -82q0 -42 34 -67.5t139 -64.5q145 -53 211 -109
q94 -80 94 -205z" />
    <glyph glyph-name="t" unicode="t" horiz-adv-x="743" 
d="M704 187l-17 -178q-70 -30 -176 -30q-162 0 -244 88t-82 339q0 151 2 342q-51 0 -138 -6l7 197q77 -6 143 -6q1 53 8 279l237 29q-15 -199 -15 -308q84 0 251 8l-8 -199q-152 6 -247 6q-2 -133 -2 -279q0 -178 36 -238.5t127 -60.5q55 0 118 17zM327 950z" />
    <glyph glyph-name="u" unicode="u" horiz-adv-x="1107" 
d="M1005 1l-234 -8q-16 54 -16 86h-16q-131 -108 -306 -108q-165 0 -248.5 86.5t-83.5 345.5q0 31 1.5 87t1.5 98q0 111 -19 354l279 10q-16 -192 -16 -364q0 -245 36.5 -330t143.5 -85q117 0 202 56q0 526 -12 714l270 9q-10 -189 -10 -490q0 -223 27 -461z" />
    <glyph glyph-name="v" unicode="v" horiz-adv-x="1002" 
d="M976 950q0 -58 -179 -475t-179 -475h-273q0 64 -159 486.5t-159 463.5h292q0 -45 98.5 -347.5t98.5 -355.5h13q0 48 94 336t94 367h259z" />
    <glyph glyph-name="w" unicode="w" horiz-adv-x="1613" 
d="M1581 950q0 -57 -166.5 -468t-166.5 -482h-233q0 46 -82 283q-102 296 -130 403h-16q-26 -103 -124 -398q-79 -234 -79 -288h-234q0 61 -158.5 486.5t-158.5 463.5h288q0 -41 87.5 -343.5t87.5 -359.5h15q0 69 100 358.5t100 344.5h235q0 -38 97.5 -345t97.5 -358h14
q0 56 88.5 340.5t88.5 362.5h249z" />
    <glyph glyph-name="x" unicode="x" horiz-adv-x="1055" 
d="M1023 0h-313q0 27 -82 180q-78 145 -119 203h-14q-33 -45 -108 -200t-75 -183h-278q0 24 144.5 234t201.5 268v15q-48 52 -174 225q-134 185 -134 208h311q0 -26 67 -155q65 -125 100 -172h12q31 39 92.5 169.5t61.5 157.5h268q0 -19 -133.5 -200t-175.5 -220v-15
q57 -63 200 -271q148 -215 148 -244z" />
    <glyph glyph-name="y" unicode="y" horiz-adv-x="1002" 
d="M968 950q0 -65 -143 -412q-163 -399 -201 -544q-65 -250 -175 -345q-106 -92 -318 -92l-20 193q124 0 204 70.5t80 188.5q0 119 -180 520.5t-180 420.5h309q0 -35 91 -339t91 -372h14q0 58 82.5 342.5t82.5 368.5h263z" />
    <glyph glyph-name="z" unicode="z" horiz-adv-x="890" 
d="M834 200l-5 -200h-756l14 191q50 45 235 278q198 249 198 285v16q-238 0 -438 -17l5 197h726l-15 -192q-63 -69 -225 -280q-189 -246 -189 -282v-15q227 0 450 19z" />
    <glyph glyph-name="agrave" unicode="&#xe0;" horiz-adv-x="1006" 
d="M925 1l-236 -8q-16 42 -16 76h-13q-110 -94 -297 -94q-125 0 -207.5 69.5t-82.5 184.5q0 152 128.5 249t450.5 103q2 18 2 34q0 108 -52 142.5t-191 34.5q-151 0 -295 -40l22 184q136 47 384 47q181 0 279.5 -76t98.5 -266q0 -42 -3.5 -153t-3.5 -148q0 -207 32 -339z
M658 209q-6 135 -6 233q-341 0 -341 -173q0 -119 150 -119q118 0 197 59zM612 1086h-175q0 16 -138 164t-138 160h271q0 -11 90 -159.5t90 -164.5z" />
    <glyph glyph-name="aacute" unicode="&#xe1;" horiz-adv-x="1006" 
d="M925 1l-236 -8q-16 42 -16 76h-13q-110 -94 -297 -94q-125 0 -207.5 69.5t-82.5 184.5q0 152 128.5 249t450.5 103q2 18 2 34q0 108 -52 142.5t-191 34.5q-151 0 -295 -40l22 184q136 47 384 47q181 0 279.5 -76t98.5 -266q0 -42 -3.5 -153t-3.5 -148q0 -207 32 -339z
M658 209q-6 135 -6 233q-341 0 -341 -173q0 -119 150 -119q118 0 197 59zM830 1410q0 -12 -138 -160t-138 -164h-175q0 16 90 164.5t90 159.5h271z" />
    <glyph glyph-name="acircumflex" unicode="&#xe2;" horiz-adv-x="1006" 
d="M925 1l-236 -8q-16 42 -16 76h-13q-110 -94 -297 -94q-125 0 -207.5 69.5t-82.5 184.5q0 152 128.5 249t450.5 103q2 18 2 34q0 108 -52 142.5t-191 34.5q-151 0 -295 -40l22 184q136 47 384 47q181 0 279.5 -76t98.5 -266q0 -42 -3.5 -153t-3.5 -148q0 -207 32 -339z
M658 209q-6 135 -6 233q-341 0 -341 -173q0 -119 150 -119q118 0 197 59zM801 1086h-155q0 16 -166 194q-166 -178 -166 -194h-155q0 16 95 164.5t95 159.5h262q0 -11 95 -159.5t95 -164.5z" />
    <glyph glyph-name="atilde" unicode="&#xe3;" horiz-adv-x="1006" 
d="M925 1l-236 -8q-16 42 -16 76h-13q-110 -94 -297 -94q-125 0 -207.5 69.5t-82.5 184.5q0 152 128.5 249t450.5 103q2 18 2 34q0 108 -52 142.5t-191 34.5q-151 0 -295 -40l22 184q136 47 384 47q181 0 279.5 -76t98.5 -266q0 -42 -3.5 -153t-3.5 -148q0 -207 32 -339z
M658 209q-6 135 -6 233q-341 0 -341 -173q0 -119 150 -119q118 0 197 59zM900 1355q-112 -226 -256 -226q-46 0 -121.5 23t-115.5 23q-91 0 -176 -107l-89 75q112 226 256 226q50 0 124 -23t113 -23q91 0 176 107z" />
    <glyph glyph-name="adieresis" unicode="&#xe4;" horiz-adv-x="1006" 
d="M925 1l-236 -8q-16 42 -16 76h-13q-110 -94 -297 -94q-125 0 -207.5 69.5t-82.5 184.5q0 152 128.5 249t450.5 103q2 18 2 34q0 108 -52 142.5t-191 34.5q-151 0 -295 -40l22 184q136 47 384 47q181 0 279.5 -76t98.5 -266q0 -42 -3.5 -153t-3.5 -148q0 -207 32 -339z
M658 209q-6 135 -6 233q-341 0 -341 -173q0 -119 150 -119q118 0 197 59zM833 1251q0 -58 -39.5 -101.5t-110.5 -43.5q-60 0 -93.5 37.5t-33.5 90.5q0 57 40.5 100t111.5 43q60 0 92.5 -37t32.5 -89zM438 1251q0 -58 -39.5 -101.5t-110.5 -43.5q-59 0 -92.5 37.5t-33.5 90.5
q0 58 40 100.5t111 42.5q60 0 92.5 -37t32.5 -89z" />
    <glyph glyph-name="amacron" unicode="&#x101;" horiz-adv-x="1006" 
d="M925 1l-236 -8q-16 42 -16 76h-13q-110 -94 -297 -94q-125 0 -207.5 69.5t-82.5 184.5q0 152 128.5 249t450.5 103q2 18 2 34q0 108 -52 142.5t-191 34.5q-151 0 -295 -40l22 184q136 47 384 47q181 0 279.5 -76t98.5 -266q0 -42 -3.5 -153t-3.5 -148q0 -207 32 -339z
M658 209q-6 135 -6 233q-341 0 -341 -173q0 -119 150 -119q118 0 197 59zM751 1335l-12 -174h-484l11 174h485z" />
    <glyph glyph-name="abreve" unicode="&#x103;" horiz-adv-x="1006" 
d="M925 1l-236 -8q-16 42 -16 76h-13q-110 -94 -297 -94q-125 0 -207.5 69.5t-82.5 184.5q0 152 128.5 249t450.5 103q2 18 2 34q0 108 -52 142.5t-191 34.5q-151 0 -295 -40l22 184q136 47 384 47q181 0 279.5 -76t98.5 -266q0 -42 -3.5 -153t-3.5 -148q0 -207 32 -339z
M658 209q-6 135 -6 233q-341 0 -341 -173q0 -119 150 -119q118 0 197 59zM842 1360q-94 -286 -327 -286q-246 0 -329 286l132 60q92 -182 196 -182q100 0 196 182z" />
    <glyph glyph-name="aring" unicode="&#xe5;" horiz-adv-x="1006" 
d="M925 1l-236 -8q-16 42 -16 76h-13q-110 -94 -297 -94q-125 0 -207.5 69.5t-82.5 184.5q0 152 128.5 249t450.5 103q2 18 2 34q0 108 -52 142.5t-191 34.5q-151 0 -295 -40l22 184q136 47 384 47q181 0 279.5 -76t98.5 -266q0 -42 -3.5 -153t-3.5 -148q0 -207 32 -339z
M658 209q-6 135 -6 233q-341 0 -341 -173q0 -119 150 -119q118 0 197 59zM743 1289q0 -115 -77.5 -182.5t-177.5 -67.5q-90 0 -155.5 57.5t-65.5 163.5q0 114 77.5 180t177.5 66q90 0 155.5 -56.5t65.5 -160.5zM629 1280q0 60 -33.5 92t-81.5 32q-52 0 -92 -37t-40 -101
q0 -60 33.5 -92.5t81.5 -32.5q52 0 92 37.5t40 101.5z" />
    <glyph glyph-name="aringacute" unicode="&#x1fb;" horiz-adv-x="1006" 
d="M925 1l-236 -8q-16 42 -16 76h-13q-110 -94 -297 -94q-125 0 -207.5 69.5t-82.5 184.5q0 152 128.5 249t450.5 103q2 18 2 34q0 108 -52 142.5t-191 34.5q-151 0 -295 -40l22 184q136 47 384 47q181 0 279.5 -76t98.5 -266q0 -42 -3.5 -153t-3.5 -148q0 -207 32 -339z
M658 209q-6 135 -6 233q-341 0 -341 -173q0 -119 150 -119q118 0 197 59zM743 1270q0 -115 -77.5 -182.5t-177.5 -67.5q-90 0 -155.5 57.5t-65.5 163.5q0 114 77.5 180t177.5 66q90 0 155.5 -56.5t65.5 -160.5zM629 1261q0 60 -33.5 92t-81.5 32q-52 0 -92 -37t-40 -101
q0 -60 33.5 -92.5t81.5 -32.5q52 0 92 37.5t40 101.5zM886 1792q0 -12 -133 -135t-143 -139h-175q0 16 80 139.5t80 134.5h291z" />
    <glyph glyph-name="aogonek" unicode="&#x105;" horiz-adv-x="1006" 
d="M925 0q-208 -31 -208 -202q0 -127 119 -127q31 0 79 10l28 -149q-62 -18 -139 -18q-143 0 -208.5 59t-65.5 157q0 164 159 264q-16 41 -16 75h-13q-110 -94 -297 -94q-125 0 -207.5 69.5t-82.5 184.5q0 152 128.5 249t450.5 103q2 18 2 34q0 108 -52 142.5t-191 34.5
q-151 0 -295 -40l22 184q136 47 384 47q181 0 279.5 -76t98.5 -266q0 -42 -3.5 -153t-3.5 -148q0 -207 32 -340zM658 209q-6 135 -6 233q-341 0 -341 -173q0 -119 150 -119q118 0 197 59z" />
    <glyph glyph-name="ae" unicode="&#xe6;" horiz-adv-x="1611" 
d="M1542 577q0 -51 -6 -133l-640 -11q14 -114 94.5 -188.5t215.5 -74.5q150 0 320 45l-20 -194q-139 -50 -343 -50q-252 0 -391 163h-16q-97 -87 -174.5 -123t-218.5 -36q-125 0 -207.5 69.5t-82.5 184.5q0 152 128.5 249t450.5 103q2 18 2 34q0 108 -52.5 142.5
t-191.5 34.5q-151 0 -295 -40l22 184q136 47 384 47q207 0 292 -102h16q124 110 296 110q212 0 314.5 -115t102.5 -299zM696 235q-49 103 -49 207q-337 0 -337 -173q0 -119 150 -119q118 0 236 85zM1308 586q0 230 -195 230t-219 -238z" />
    <glyph glyph-name="aeacute" unicode="&#x1fd;" horiz-adv-x="1611" 
d="M1542 577q0 -51 -6 -133l-640 -11q14 -114 94.5 -188.5t215.5 -74.5q150 0 320 45l-20 -194q-139 -50 -343 -50q-252 0 -391 163h-16q-97 -87 -174.5 -123t-218.5 -36q-125 0 -207.5 69.5t-82.5 184.5q0 152 128.5 249t450.5 103q2 18 2 34q0 108 -52.5 142.5
t-191.5 34.5q-151 0 -295 -40l22 184q136 47 384 47q207 0 292 -102h16q124 110 296 110q212 0 314.5 -115t102.5 -299zM696 235q-49 103 -49 207q-337 0 -337 -173q0 -119 150 -119q118 0 236 85zM1308 586q0 230 -195 230t-219 -238zM1188 1410q0 -12 -138 -160t-138 -164
h-175q0 16 90 164.5t90 159.5h271z" />
    <glyph glyph-name="cacute" unicode="&#x107;" horiz-adv-x="912" 
d="M868 210l-17 -191q-91 -48 -247 -48q-258 0 -396.5 144t-138.5 346q0 210 145 366.5t397 156.5q123 0 219 -28l-34 -204q-92 38 -206 38q-121 0 -191 -85.5t-70 -210.5q0 -136 83 -230t235 -94q89 0 221 40zM919 1410q0 -12 -138 -160t-138 -164h-175q0 16 90 164.5
t90 159.5h271z" />
    <glyph glyph-name="ccircumflex" unicode="&#x109;" horiz-adv-x="912" 
d="M868 210l-17 -191q-91 -48 -247 -48q-258 0 -396.5 144t-138.5 346q0 210 145 366.5t397 156.5q123 0 219 -28l-34 -204q-92 38 -206 38q-121 0 -191 -85.5t-70 -210.5q0 -136 83 -230t235 -94q89 0 221 40zM863 1086h-155q0 16 -166 194q-166 -178 -166 -194h-155
q0 16 95 164.5t95 159.5h262q0 -11 95 -159.5t95 -164.5z" />
    <glyph glyph-name="ccaron" unicode="&#x10d;" horiz-adv-x="912" 
d="M868 210l-17 -191q-91 -48 -247 -48q-258 0 -396.5 144t-138.5 346q0 210 145 366.5t397 156.5q123 0 219 -28l-34 -204q-92 38 -206 38q-121 0 -191 -85.5t-70 -210.5q0 -136 83 -230t235 -94q89 0 221 40zM902 1410q0 -16 -95 -164.5t-95 -159.5h-262q0 11 -95 159.5
t-95 164.5h155q0 -16 166 -194q166 178 166 194h155z" />
    <glyph glyph-name="cdotaccent" unicode="&#x10b;" horiz-adv-x="912" 
d="M868 210l-17 -191q-91 -48 -247 -48q-258 0 -396.5 144t-138.5 346q0 210 145 366.5t397 156.5q123 0 219 -28l-34 -204q-92 38 -206 38q-121 0 -191 -85.5t-70 -210.5q0 -136 83 -230t235 -94q89 0 221 40zM752 1252q0 -68 -46.5 -119t-129.5 -51q-70 0 -109.5 44
t-39.5 106q0 68 46.5 118t130.5 50q71 0 109.5 -43.5t38.5 -104.5z" />
    <glyph glyph-name="ccedilla" unicode="&#xe7;" horiz-adv-x="912" 
d="M868 210l-17 -191q-101 -48 -247 -48q-35 0 -65 3l-10 -66q189 -47 189 -195q0 -227 -246 -227l-24 112q40 0 69 29.5t29 65.5q0 101 -129 125l29 170q-148 33 -262.5 152t-114.5 321q0 210 145 366.5t397 156.5q123 0 219 -28l-34 -204q-92 38 -206 38
q-121 0 -191 -85.5t-70 -210.5q0 -136 83 -230t235 -94q89 0 221 40z" />
    <glyph glyph-name="dcaron" unicode="&#x10f;" horiz-adv-x="1342" 
d="M1027 1l-237 -8q-7 35 -7 73h-15q-110 -95 -281 -95q-192 0 -305 139t-113 330q0 219 123 381.5t342 162.5q142 0 213 -53h14q0 236 -23 475l283 8q-16 -233 -16 -670q0 -443 22 -743zM776 228q0 319 -15 528q-69 48 -165 48q-132 0 -196 -98t-64 -240q0 -126 62 -217.5
t172 -91.5q147 0 206 71zM1384 1177q0 -222 -204 -351l-66 55q54 89 54 174q-80 39 -80 120q0 62 43 107.5t119 45.5q63 0 98.5 -46t35.5 -105z" />
    <glyph glyph-name="dcroat" unicode="&#x111;" horiz-adv-x="1136" 
d="M1133 1238l-9 -142h-116q-3 -156 -3 -352q0 -443 22 -743l-237 -10q-7 37 -7 76l-15 -1q-110 -95 -281 -95q-192 0 -305 131.5t-113 322.5q0 202 124 365.5t341 163.5q142 0 213 -53h14q0 82 -3 195h-250l6 142h237q-5 84 -13 161l283 15q-6 -77 -9 -176h121zM776 228
q0 319 -15 498q-69 48 -165 48q-133 0 -196.5 -98.5t-63.5 -224.5t62 -210t172 -84q147 0 206 71z" />
    <glyph glyph-name="egrave" unicode="&#xe8;" horiz-adv-x="1049" 
d="M980 577q0 -51 -6 -133l-644 -11q14 -113 97 -188t218 -75q150 0 319 45l-20 -194q-138 -50 -342 -50q-258 0 -395.5 145t-137.5 349q0 213 130.5 369.5t362.5 156.5q212 0 315 -115t103 -299zM746 586q0 230 -196 230q-187 0 -222 -238zM672 1086h-175q0 16 -138 164
t-138 160h271q0 -11 90 -159.5t90 -164.5z" />
    <glyph glyph-name="eacute" unicode="&#xe9;" horiz-adv-x="1049" 
d="M980 577q0 -51 -6 -133l-644 -11q14 -113 97 -188t218 -75q150 0 319 45l-20 -194q-138 -50 -342 -50q-258 0 -395.5 145t-137.5 349q0 213 130.5 369.5t362.5 156.5q212 0 315 -115t103 -299zM746 586q0 230 -196 230q-187 0 -222 -238zM905 1410q0 -12 -138 -160
t-138 -164h-175q0 16 90 164.5t90 159.5h271z" />
    <glyph glyph-name="ecircumflex" unicode="&#xea;" horiz-adv-x="1049" 
d="M980 577q0 -51 -6 -133l-644 -11q14 -113 97 -188t218 -75q150 0 319 45l-20 -194q-138 -50 -342 -50q-258 0 -395.5 145t-137.5 349q0 213 130.5 369.5t362.5 156.5q212 0 315 -115t103 -299zM746 586q0 230 -196 230q-187 0 -222 -238zM876 1086h-155q0 16 -166 194
q-166 -178 -166 -194h-155q0 16 95 164.5t95 159.5h262q0 -11 95 -159.5t95 -164.5z" />
    <glyph glyph-name="ecaron" unicode="&#x11b;" horiz-adv-x="1049" 
d="M980 577q0 -51 -6 -133l-644 -11q14 -113 97 -188t218 -75q150 0 319 45l-20 -194q-138 -50 -342 -50q-258 0 -395.5 145t-137.5 349q0 213 130.5 369.5t362.5 156.5q212 0 315 -115t103 -299zM746 586q0 230 -196 230q-187 0 -222 -238zM906 1410q0 -16 -95 -164.5
t-95 -159.5h-262q0 11 -95 159.5t-95 164.5h155q0 -16 166 -194q166 178 166 194h155z" />
    <glyph glyph-name="edieresis" unicode="&#xeb;" horiz-adv-x="1049" 
d="M980 577q0 -51 -6 -133l-644 -11q14 -113 97 -188t218 -75q150 0 319 45l-20 -194q-138 -50 -342 -50q-258 0 -395.5 145t-137.5 349q0 213 130.5 369.5t362.5 156.5q212 0 315 -115t103 -299zM746 586q0 230 -196 230q-187 0 -222 -238zM893 1251q0 -58 -39.5 -101.5
t-110.5 -43.5q-60 0 -93.5 37.5t-33.5 90.5q0 57 40.5 100t111.5 43q60 0 92.5 -37t32.5 -89zM498 1251q0 -58 -39.5 -101.5t-110.5 -43.5q-59 0 -92.5 37.5t-33.5 90.5q0 58 40 100.5t111 42.5q60 0 92.5 -37t32.5 -89z" />
    <glyph glyph-name="emacron" unicode="&#x113;" horiz-adv-x="1049" 
d="M980 577q0 -51 -6 -133l-644 -11q14 -113 97 -188t218 -75q150 0 319 45l-20 -194q-138 -50 -342 -50q-258 0 -395.5 145t-137.5 349q0 213 130.5 369.5t362.5 156.5q212 0 315 -115t103 -299zM746 586q0 230 -196 230q-187 0 -222 -238zM823 1335l-12 -174h-484l11 174
h485z" />
    <glyph glyph-name="ebreve" unicode="&#x115;" horiz-adv-x="1049" 
d="M980 577q0 -51 -6 -133l-644 -11q14 -113 97 -188t218 -75q150 0 319 45l-20 -194q-138 -50 -342 -50q-258 0 -395.5 145t-137.5 349q0 213 130.5 369.5t362.5 156.5q212 0 315 -115t103 -299zM746 586q0 230 -196 230q-187 0 -222 -238zM904 1360q-94 -286 -327 -286
q-246 0 -329 286l132 60q92 -182 196 -182q100 0 196 182z" />
    <glyph glyph-name="edotaccent" unicode="&#x117;" horiz-adv-x="1049" 
d="M980 577q0 -51 -6 -133l-644 -11q14 -113 97 -188t218 -75q150 0 319 45l-20 -194q-138 -50 -342 -50q-258 0 -395.5 145t-137.5 349q0 213 130.5 369.5t362.5 156.5q212 0 315 -115t103 -299zM746 586q0 230 -196 230q-187 0 -222 -238zM733 1252q0 -68 -46.5 -119
t-129.5 -51q-70 0 -109.5 44t-39.5 106q0 68 46.5 118t130.5 50q71 0 109.5 -43.5t38.5 -104.5z" />
    <glyph glyph-name="eogonek" unicode="&#x119;" horiz-adv-x="1049" 
d="M980 577q0 -51 -6 -133l-644 -11q14 -113 97 -188t218 -75q150 0 319 45l-20 -194q-212 -78 -212 -223q0 -127 119 -127q31 0 79 10l28 -149q-62 -18 -139 -18q-143 0 -208.5 59t-65.5 157q0 164 144 234v10q-42 -3 -87 -3q-258 0 -395.5 145t-137.5 349
q0 213 130.5 369.5t362.5 156.5q212 0 315 -115t103 -299zM746 586q0 230 -196 230q-187 0 -222 -238z" />
    <glyph glyph-name="gcircumflex" unicode="&#x11d;" horiz-adv-x="1128" 
d="M1109 1088l-22 -186q-156 0 -195 -45v-13q59 -75 59 -168q0 -143 -105.5 -244t-314.5 -101q-102 0 -167 16q-53 -24 -53 -63q0 -61 63.5 -85.5t295.5 -24.5q401 0 401 -273q0 -192 -167 -305t-406 -113q-468 0 -468 294q0 91 52.5 154.5t121.5 77.5v15q-84 53 -84 162
q0 110 115 184v14q-162 81 -162 253q0 147 111.5 246t344.5 99q159 0 258 -60h14q29 189 194 189q65 0 114 -23zM824 -173q0 74 -56.5 107t-194.5 33q-112 0 -226 10q-88 -52 -88 -155q0 -192 256 -192q143 0 226 54t83 143zM706 650q0 90 -58 137t-133 47t-131.5 -45.5
t-56.5 -133.5q0 -89 58 -135t135 -46q73 0 129.5 44.5t56.5 131.5zM833 1086h-155q0 16 -166 194q-166 -178 -166 -194h-155q0 16 95 164.5t95 159.5h262q0 -11 95 -159.5t95 -164.5z" />
    <glyph glyph-name="gbreve" unicode="&#x11f;" horiz-adv-x="1128" 
d="M1109 1088l-22 -186q-156 0 -195 -45v-13q59 -75 59 -168q0 -143 -105.5 -244t-314.5 -101q-102 0 -167 16q-53 -24 -53 -63q0 -61 63.5 -85.5t295.5 -24.5q401 0 401 -273q0 -192 -167 -305t-406 -113q-468 0 -468 294q0 91 52.5 154.5t121.5 77.5v15q-84 53 -84 162
q0 110 115 184v14q-162 81 -162 253q0 147 111.5 246t344.5 99q159 0 258 -60h14q29 189 194 189q65 0 114 -23zM824 -173q0 74 -56.5 107t-194.5 33q-112 0 -226 10q-88 -52 -88 -155q0 -192 256 -192q143 0 226 54t83 143zM706 650q0 90 -58 137t-133 47t-131.5 -45.5
t-56.5 -133.5q0 -89 58 -135t135 -46q73 0 129.5 44.5t56.5 131.5zM867 1360q-94 -286 -327 -286q-246 0 -329 286l132 60q92 -182 196 -182q100 0 196 182z" />
    <glyph glyph-name="gdotaccent" unicode="&#x121;" horiz-adv-x="1128" 
d="M1109 1088l-22 -186q-156 0 -195 -45v-13q59 -75 59 -168q0 -143 -105.5 -244t-314.5 -101q-102 0 -167 16q-53 -24 -53 -63q0 -61 63.5 -85.5t295.5 -24.5q401 0 401 -273q0 -192 -167 -305t-406 -113q-468 0 -468 294q0 91 52.5 154.5t121.5 77.5v15q-84 53 -84 162
q0 110 115 184v14q-162 81 -162 253q0 147 111.5 246t344.5 99q159 0 258 -60h14q29 189 194 189q65 0 114 -23zM824 -173q0 74 -56.5 107t-194.5 33q-112 0 -226 10q-88 -52 -88 -155q0 -192 256 -192q143 0 226 54t83 143zM706 650q0 90 -58 137t-133 47t-131.5 -45.5
t-56.5 -133.5q0 -89 58 -135t135 -46q73 0 129.5 44.5t56.5 131.5zM699 1252q0 -68 -46.5 -119t-129.5 -51q-70 0 -109.5 44t-39.5 106q0 68 46.5 118t130.5 50q71 0 109.5 -43.5t38.5 -104.5z" />
    <glyph glyph-name="gcommaaccent" unicode="&#x123;" horiz-adv-x="1128" 
d="M1109 1088l-22 -186q-156 0 -195 -45v-13q59 -75 59 -168q0 -143 -105.5 -244t-314.5 -101q-102 0 -167 16q-53 -24 -53 -63q0 -61 63.5 -85.5t295.5 -24.5q401 0 401 -273q0 -192 -167 -305t-406 -113q-468 0 -468 294q0 91 52.5 154.5t121.5 77.5v15q-84 53 -84 162
q0 110 115 184v14q-162 81 -162 253q0 147 111.5 246t344.5 99q159 0 258 -60h14q29 189 194 189q65 0 114 -23zM824 -173q0 74 -56.5 107t-194.5 33q-112 0 -226 10q-88 -52 -88 -155q0 -192 256 -192q143 0 226 54t83 143zM706 650q0 90 -58 137t-133 47t-131.5 -45.5
t-56.5 -133.5q0 -89 58 -135t135 -46q73 0 129.5 44.5t56.5 131.5zM692 1235q0 -62 -43 -107.5t-119 -45.5q-63 0 -98.5 46t-35.5 105q0 222 204 351l64 -54q-49 -66 -49 -159q77 -50 77 -136z" />
    <glyph glyph-name="hcircumflex" unicode="&#x125;" horiz-adv-x="1126" 
d="M1015 0h-266q22 253 22 492q0 178 -45 233.5t-148 55.5q-109 0 -214 -73q0 -425 10 -708h-266q11 310 11 743q0 399 -31 663l283 16q-15 -322 -15 -560h13q132 121 302 121q161 0 252.5 -73t91.5 -257q0 -19 -2.5 -77.5t-2.5 -77.5q0 -167 5 -498zM551 1416h-155
q-10 16 -166 134q-156 -118 -166 -134h-155q0 16 100 139.5t100 134.5h242q0 -11 100 -134.5t100 -139.5z" />
    <glyph glyph-name="hbar" unicode="&#x127;" horiz-adv-x="1126" 
d="M1015 0h-266q22 253 22 492q0 152 -53 212q-42 47 -140 47q-109 0 -214 -73q0 -395 10 -678h-266q11 310 11 743q0 192 -7 353h-106l6 142h91q-6 90 -15 168l283 16q-5 -97 -8 -184h307l-6 -142h-305q-3 -126 -3 -264h13q134 121 292 121q169 0 254 -66q100 -79 100 -264
q0 -19 -2.5 -67.5t-2.5 -77.5q0 -147 5 -478z" />
    <glyph glyph-name="igrave" unicode="&#xec;" horiz-adv-x="510" 
d="M395 0h-269q14 207 14 475q0 266 -34 466l288 29q-13 -194 -13 -495q0 -257 14 -475zM393 1086h-175q0 16 -138 164t-138 160h271q0 -11 90 -159.5t90 -164.5z" />
    <glyph glyph-name="iacute" unicode="&#xed;" horiz-adv-x="510" 
d="M395 0h-269q14 207 14 475q0 266 -34 466l288 29q-13 -194 -13 -495q0 -257 14 -475zM608 1410q0 -12 -138 -160t-138 -164h-175q0 16 90 164.5t90 159.5h271z" />
    <glyph glyph-name="icircumflex" unicode="&#xee;" horiz-adv-x="510" 
d="M395 0h-269q14 207 14 475q0 266 -34 466l288 29q-13 -194 -13 -495q0 -257 14 -475zM582 1086h-155q0 16 -166 194q-166 -178 -166 -194h-155q0 16 95 164.5t95 159.5h262q0 -11 95 -159.5t95 -164.5z" />
    <glyph glyph-name="itilde" unicode="&#x129;" horiz-adv-x="510" 
d="M395 0h-269q14 207 14 475q0 266 -34 466l288 29q-13 -194 -13 -495q0 -257 14 -475zM648 1355q-112 -226 -256 -226q-46 0 -121.5 23t-115.5 23q-91 0 -176 -107l-89 75q112 226 256 226q50 0 124 -23t113 -23q91 0 176 107z" />
    <glyph glyph-name="idieresis" unicode="&#xef;" horiz-adv-x="510" 
d="M395 0h-269q14 207 14 475q0 266 -34 466l288 29q-13 -194 -13 -495q0 -257 14 -475zM600 1251q0 -58 -39.5 -101.5t-110.5 -43.5q-60 0 -93.5 37.5t-33.5 90.5q0 57 40.5 100t111.5 43q60 0 92.5 -37t32.5 -89zM205 1251q0 -58 -39.5 -101.5t-110.5 -43.5
q-59 0 -92.5 37.5t-33.5 90.5q0 58 40 100.5t111 42.5q60 0 92.5 -37t32.5 -89z" />
    <glyph glyph-name="imacron" unicode="&#x12b;" horiz-adv-x="510" 
d="M395 0h-269q14 207 14 475q0 266 -34 466l288 29q-13 -194 -13 -495q0 -257 14 -475zM506 1335l-12 -174h-484l11 174h485z" />
    <glyph glyph-name="ibreve" unicode="&#x12d;" horiz-adv-x="510" 
d="M395 0h-269q14 207 14 475q0 266 -34 466l288 29q-13 -194 -13 -495q0 -257 14 -475zM593 1360q-94 -286 -327 -286q-246 0 -329 286l132 60q92 -182 196 -182q100 0 196 182z" />
    <glyph glyph-name="iogonek" unicode="&#x12f;" horiz-adv-x="510" 
d="M412 -468q-62 -18 -139 -18q-143 0 -207 57q-67 61 -67 159q0 164 127 270q14 207 14 475q0 266 -34 466l288 29q-13 -194 -13 -495q0 -257 14 -475h-1q-208 -31 -208 -202q0 -127 119 -127q31 0 79 10zM441 1252q0 -68 -44 -116q-49 -54 -132 -54q-70 0 -112 46
q-37 42 -37 104q0 68 44 115q49 53 133 53q71 0 111 -45q37 -42 37 -103z" />
    <glyph glyph-name="dotlessi" unicode="&#x131;" horiz-adv-x="510" 
d="M395 0h-269q14 207 14 475q0 266 -34 466l288 29q-13 -194 -13 -495q0 -257 14 -475z" />
    <glyph glyph-name="ij" unicode="&#x133;" horiz-adv-x="1020" 
d="M395 0h-269q14 207 14 475q0 266 -34 466l288 29q-13 -194 -13 -495q0 -257 14 -475zM441 1252q0 -68 -46.5 -119t-129.5 -51q-70 0 -109.5 44t-39.5 106q0 68 46.5 118t130.5 50q71 0 109.5 -43.5t38.5 -104.5zM904 971q-14 -303 -14 -602q0 -78 4 -214.5t4 -182.5
q0 -369 -295 -428l-73 140q71 57 96.5 167.5t25.5 465.5q0 403 -36 626zM948 1253q0 -68 -47 -119t-130 -51q-70 0 -109.5 44t-39.5 106q0 68 47 118t131 50q71 0 109.5 -43.5t38.5 -104.5z" />
    <glyph glyph-name="jcircumflex" unicode="&#x135;" horiz-adv-x="510" 
d="M394 971q-14 -303 -14 -602q0 -78 4 -214.5t4 -182.5q0 -369 -295 -428l-73 140q71 57 93 152q29 126 29 481q0 403 -36 626zM584 1086h-155q0 16 -166 194q-166 -178 -166 -194h-155q0 16 95 164.5t95 159.5h262q0 -11 95 -159.5t95 -164.5z" />
    <glyph glyph-name="kcommaaccent" unicode="&#x137;" horiz-adv-x="1045" 
d="M1029 0h-306q0 37 -152 250.5t-194 213.5h-13q0 -205 12 -464h-265q12 467 12 743q0 382 -31 663l284 16q-14 -380 -14 -679q0 -38 1 -148h14q28 0 159 161.5t131 193.5h298q0 -31 -136 -173t-220 -196v-15q93 -65 256.5 -295.5t163.5 -270.5zM676 -210q0 -188 -200 -314
l-64 54q58 75 58 156q-64 38 -64 102q0 61 37 100.5t102 39.5q61 0 96 -40t35 -98z" />
    <glyph glyph-name="kgreenlandic" unicode="&#x138;" horiz-adv-x="1045" 
d="M1029 0h-306q0 37 -150 248q-154 216 -196 216h-10q0 -205 9 -464h-265q12 215 12 566q0 158 -31 379l284 16q-11 -157 -11 -366h12q28 0 159 161.5t131 193.5h298q0 -31 -136 -173t-220 -196v-15q93 -65 261 -302q159 -224 159 -264z" />
    <glyph glyph-name="lacute" unicode="&#x13a;" horiz-adv-x="528" 
d="M410 0h-273q15 343 15 743q0 390 -31 663l289 16q-15 -283 -15 -679q0 -402 15 -743zM583 1790q0 -12 -133 -135t-143 -139h-175q0 16 80 139.5t80 134.5h291z" />
    <glyph glyph-name="lcaron" unicode="&#x13e;" horiz-adv-x="730" 
d="M410 0h-273q15 343 15 743q0 390 -31 663l289 16q-15 -283 -15 -679q0 -402 15 -743zM772 1177q0 -222 -204 -351l-66 55q54 89 54 174q-80 39 -80 120q0 62 43 107.5t119 45.5q63 0 98.5 -46t35.5 -105z" />
    <glyph glyph-name="lcommaaccent" unicode="&#x13c;" horiz-adv-x="528" 
d="M410 0h-273q15 343 15 743q0 390 -31 663l289 16q-15 -283 -15 -679q0 -402 15 -743zM409 -210q0 -188 -200 -314l-64 54q58 75 58 156q-64 38 -64 102q0 61 37 100.5t102 39.5q61 0 96 -40t35 -98z" />
    <glyph glyph-name="lslash" unicode="&#x142;" horiz-adv-x="640" 
d="M716 934l-272 -202q0 -315 14 -732h-274q6 122 15 538l-123 -110l-80 95l204 162q0 510 -31 721l289 16q-7 -115 -15 -534l168 149z" />
    <glyph glyph-name="ldot" unicode="&#x140;" horiz-adv-x="779" 
d="M410 0h-273q15 343 15 743q0 390 -31 663l289 16q-15 -283 -15 -679q0 -402 15 -743zM819 613q0 -68 -46.5 -119t-129.5 -51q-70 0 -109.5 44t-39.5 106q0 68 46.5 118t130.5 50q71 0 109.5 -43.5t38.5 -104.5z" />
    <glyph glyph-name="nacute" unicode="&#x144;" horiz-adv-x="1126" 
d="M1015 0h-266q22 253 22 512q0 157 -46.5 213t-141.5 56q-114 0 -216 -78q5 -390 5 -703h-269q18 313 18 492q0 239 -49 451l256 28l17 -106h16q137 118 315 118q154 0 246.5 -72.5t92.5 -267.5q0 -29 -2.5 -77.5t-2.5 -99.5q0 -135 5 -466zM971 1410q0 -12 -138 -160
t-138 -164h-175q0 16 90 164.5t90 159.5h271z" />
    <glyph glyph-name="ncaron" unicode="&#x148;" horiz-adv-x="1126" 
d="M1015 0h-266q22 253 22 512q0 157 -46.5 213t-141.5 56q-114 0 -216 -78q5 -390 5 -703h-269q18 313 18 492q0 239 -49 451l256 28l17 -106h16q137 118 315 118q154 0 246.5 -72.5t92.5 -267.5q0 -29 -2.5 -77.5t-2.5 -99.5q0 -135 5 -466zM930 1410q0 -16 -95 -164.5
t-95 -159.5h-262q0 11 -95 159.5t-95 164.5h155q0 -16 166 -194q166 178 166 194h155z" />
    <glyph glyph-name="ntilde" unicode="&#xf1;" horiz-adv-x="1126" 
d="M1015 0h-266q22 253 22 512q0 157 -46.5 213t-141.5 56q-114 0 -216 -78q5 -390 5 -703h-269q18 313 18 492q0 239 -49 451l256 28l17 -106h16q137 118 315 118q154 0 246.5 -72.5t92.5 -267.5q0 -29 -2.5 -77.5t-2.5 -99.5q0 -135 5 -466zM960 1355q-112 -226 -256 -226
q-46 0 -121.5 23t-115.5 23q-91 0 -176 -107l-89 75q112 226 256 226q50 0 124 -23t113 -23q91 0 176 107z" />
    <glyph glyph-name="ncommaaccent" unicode="&#x146;" horiz-adv-x="1126" 
d="M1015 0h-266q22 253 22 512q0 157 -46.5 213t-141.5 56q-114 0 -216 -78q5 -390 5 -703h-269q18 313 18 492q0 239 -49 451l256 28l17 -106h16q137 118 315 118q154 0 246.5 -72.5t92.5 -267.5q0 -29 -2.5 -77.5t-2.5 -99.5q0 -135 5 -466zM693 -210q0 -188 -200 -314
l-64 54q58 75 58 156q-64 38 -64 102q0 61 37 100.5t102 39.5q61 0 96 -40t35 -98z" />
    <glyph glyph-name="napostrophe" unicode="&#x149;" horiz-adv-x="1446" 
d="M1335 0h-266q22 253 22 512q0 157 -46.5 213t-141.5 56q-114 0 -216 -78q5 -390 5 -703h-269q18 313 18 492q0 239 -49 451l256 28l17 -106h16q137 118 315 118q154 0 246.5 -72.5t92.5 -267.5q0 -29 -2.5 -77.5t-2.5 -99.5q0 -135 5 -466zM414 1253q0 -262 -319 -555
l-89 76q136 151 136 329q-76 46 -76 147q0 73 50.5 126.5t140.5 53.5q74 0 115.5 -54t41.5 -123zM235 1087z" />
    <glyph glyph-name="ograve" unicode="&#xf2;" horiz-adv-x="1144" 
d="M1075 497q0 -252 -155 -394t-365 -142q-200 0 -343 129.5t-143 364.5q0 253 156 396t366 143q199 0 341.5 -130.5t142.5 -366.5zM814 467q0 145 -68 243.5t-177 98.5q-106 0 -172.5 -92t-66.5 -230q0 -145 68 -243.5t177 -98.5q106 0 172.5 92t66.5 230zM702 1086h-175
q0 16 -138 164t-138 160h271q0 -11 90 -159.5t90 -164.5z" />
    <glyph glyph-name="oacute" unicode="&#xf3;" horiz-adv-x="1144" 
d="M1075 497q0 -252 -155 -394t-365 -142q-200 0 -343 129.5t-143 364.5q0 253 156 396t366 143q199 0 341.5 -130.5t142.5 -366.5zM814 467q0 145 -68 243.5t-177 98.5q-106 0 -172.5 -92t-66.5 -230q0 -145 68 -243.5t177 -98.5q106 0 172.5 92t66.5 230zM925 1410
q0 -12 -138 -160t-138 -164h-175q0 16 90 164.5t90 159.5h271z" />
    <glyph glyph-name="ocircumflex" unicode="&#xf4;" horiz-adv-x="1144" 
d="M1075 497q0 -252 -155 -394t-365 -142q-200 0 -343 129.5t-143 364.5q0 253 156 396t366 143q199 0 341.5 -130.5t142.5 -366.5zM814 467q0 145 -68 243.5t-177 98.5q-106 0 -172.5 -92t-66.5 -230q0 -145 68 -243.5t177 -98.5q106 0 172.5 92t66.5 230zM911 1086h-155
q0 16 -166 194q-166 -178 -166 -194h-155q0 16 95 164.5t95 159.5h262q0 -11 95 -159.5t95 -164.5z" />
    <glyph glyph-name="otilde" unicode="&#xf5;" horiz-adv-x="1144" 
d="M1075 497q0 -252 -155 -394t-365 -142q-200 0 -343 129.5t-143 364.5q0 253 156 396t366 143q199 0 341.5 -130.5t142.5 -366.5zM814 467q0 145 -68 243.5t-177 98.5q-106 0 -172.5 -92t-66.5 -230q0 -145 68 -243.5t177 -98.5q106 0 172.5 92t66.5 230zM1000 1355
q-112 -226 -256 -226q-46 0 -121.5 23t-115.5 23q-91 0 -176 -107l-89 75q112 226 256 226q50 0 124 -23t113 -23q91 0 176 107z" />
    <glyph glyph-name="odieresis" unicode="&#xf6;" horiz-adv-x="1144" 
d="M1075 497q0 -252 -155 -394t-365 -142q-200 0 -343 129.5t-143 364.5q0 253 156 396t366 143q199 0 341.5 -130.5t142.5 -366.5zM814 467q0 145 -68 243.5t-177 98.5q-106 0 -172.5 -92t-66.5 -230q0 -145 68 -243.5t177 -98.5q106 0 172.5 92t66.5 230zM933 1251
q0 -58 -39.5 -101.5t-110.5 -43.5q-60 0 -93.5 37.5t-33.5 90.5q0 57 40.5 100t111.5 43q60 0 92.5 -37t32.5 -89zM538 1251q0 -58 -39.5 -101.5t-110.5 -43.5q-59 0 -92.5 37.5t-33.5 90.5q0 58 40 100.5t111 42.5q60 0 92.5 -37t32.5 -89z" />
    <glyph glyph-name="omacron" unicode="&#x14d;" horiz-adv-x="1144" 
d="M1075 497q0 -252 -155 -394t-365 -142q-200 0 -343 129.5t-143 364.5q0 253 156 396t366 143q199 0 341.5 -130.5t142.5 -366.5zM814 467q0 145 -68 243.5t-177 98.5q-106 0 -172.5 -92t-66.5 -230q0 -145 68 -243.5t177 -98.5q106 0 172.5 92t66.5 230zM847 1335
l-12 -174h-484l11 174h485z" />
    <glyph glyph-name="obreve" unicode="&#x14f;" horiz-adv-x="1144" 
d="M1075 497q0 -252 -155 -394t-365 -142q-200 0 -343 129.5t-143 364.5q0 253 156 396t366 143q199 0 341.5 -130.5t142.5 -366.5zM814 467q0 145 -68 243.5t-177 98.5q-106 0 -172.5 -92t-66.5 -230q0 -145 68 -243.5t177 -98.5q106 0 172.5 92t66.5 230zM919 1360
q-94 -286 -327 -286q-246 0 -329 286l132 60q92 -182 196 -182q100 0 196 182z" />
    <glyph glyph-name="ohungarumlaut" unicode="&#x151;" horiz-adv-x="1144" 
d="M1075 497q0 -252 -155 -394t-365 -142q-200 0 -343 129.5t-143 364.5q0 253 156 396t366 143q199 0 341.5 -130.5t142.5 -366.5zM814 467q0 145 -68 243.5t-177 98.5q-106 0 -172.5 -92t-66.5 -230q0 -145 68 -243.5t177 -98.5q106 0 172.5 92t66.5 230zM645 1410
q0 -22 -92 -165t-92 -159h-149q0 16 35 159.5t35 164.5h263zM1032 1410q0 -22 -92 -165t-92 -159h-149q0 16 35 159.5t35 164.5h263z" />
    <glyph glyph-name="oslash" unicode="&#xf8;" horiz-adv-x="1144" 
d="M1100 981q0 -37 -117 -174q92 -125 92 -310q0 -253 -155 -394.5t-365 -141.5q-161 0 -284 84q-118 -132 -118 -159l-111 42q0 35 142 193q-115 132 -115 334q0 253 156 396t366 143q182 0 313 -106q84 101 84 130zM745 711q-69 98 -176 98q-106 0 -172.5 -92t-66.5 -230
q0 -98 33 -176zM814 467q0 70 -20 132l-370 -387q64 -67 151 -67q106 0 172.5 92t66.5 230z" />
    <glyph glyph-name="oslashacute" unicode="&#x1ff;" horiz-adv-x="1144" 
d="M1100 981q0 -37 -117 -174q92 -125 92 -310q0 -253 -155 -394.5t-365 -141.5q-161 0 -284 84q-118 -132 -118 -159l-111 42q0 35 142 193q-115 132 -115 334q0 253 156 396t366 143q182 0 313 -106q84 101 84 130zM745 711q-69 98 -176 98q-106 0 -172.5 -92t-66.5 -230
q0 -98 33 -176zM814 467q0 70 -20 132l-370 -387q64 -67 151 -67q106 0 172.5 92t66.5 230zM944 1410q0 -12 -138 -160t-138 -164h-175q0 16 90 164.5t90 159.5h271z" />
    <glyph glyph-name="oe" unicode="&#x153;" horiz-adv-x="1765" 
d="M1696 577q0 -51 -6 -133l-630 -11q14 -114 92.5 -188.5t212.5 -74.5q150 0 315 45l-20 -194q-134 -50 -338 -50q-257 0 -382 167h-15q-129 -177 -375 -177q-199 0 -340 129.5t-141 364.5q0 254 153.5 396.5t363.5 142.5q238 0 351 -164h16q102 161 329 161
q212 0 313 -114.5t101 -299.5zM810 467q0 145 -68.5 243.5t-177.5 98.5q-106 0 -170 -91.5t-64 -230.5q0 -146 66 -244t174 -98q106 0 173 92t67 230zM1462 586q0 230 -192 230q-188 0 -212 -238z" />
    <glyph glyph-name="racute" unicode="&#x155;" horiz-adv-x="789" 
d="M771 950l-58 -234q-74 30 -150 30q-147 0 -194 -132q0 -399 6 -614h-266q17 301 17 492q0 238 -50 451l255 28q17 -110 17 -129h16q92 141 245 141q72 0 162 -33zM788 1410q0 -12 -138 -160t-138 -164h-175q0 16 90 164.5t90 159.5h271z" />
    <glyph glyph-name="rcaron" unicode="&#x159;" horiz-adv-x="789" 
d="M771 950l-58 -234q-74 30 -150 30q-147 0 -194 -132q0 -399 6 -614h-266q17 301 17 492q0 238 -50 451l255 28q17 -110 17 -129h16q92 141 245 141q72 0 162 -33zM784 1410q0 -16 -95 -164.5t-95 -159.5h-262q0 11 -95 159.5t-95 164.5h155q0 -16 166 -194
q166 178 166 194h155z" />
    <glyph glyph-name="rcommaaccent" unicode="&#x157;" horiz-adv-x="789" 
d="M771 950l-58 -234q-74 30 -150 30q-147 0 -194 -132q0 -399 6 -614h-266q17 301 17 492q0 238 -50 451l255 28q17 -110 17 -129h16q92 141 245 141q72 0 162 -33zM379 -210q0 -188 -200 -314l-64 54q58 75 58 156q-64 38 -64 102q0 61 37 100.5t102 39.5q61 0 96 -40
t35 -98z" />
    <glyph glyph-name="sacute" unicode="&#x15b;" horiz-adv-x="859" 
d="M791 273q0 -300 -444 -300q-162 0 -283 35l34 197q125 -45 249 -45q120 0 166.5 20t46.5 67q0 73 -168 139q-147 58 -214 114q-92 78 -92 191q0 133 99 214t288 81q177 0 278 -31l-34 -198q-113 44 -244 44q-160 0 -160 -82q0 -42 34 -67.5t139 -64.5q145 -53 211 -109
q94 -80 94 -205zM792 1410q0 -12 -138 -160t-138 -164h-175q0 16 90 164.5t90 159.5h271z" />
    <glyph glyph-name="scircumflex" unicode="&#x15d;" horiz-adv-x="859" 
d="M791 273q0 -300 -444 -300q-162 0 -283 35l34 197q125 -45 249 -45q120 0 166.5 20t46.5 67q0 73 -168 139q-147 58 -214 114q-92 78 -92 191q0 133 99 214t288 81q177 0 278 -31l-34 -198q-113 44 -244 44q-160 0 -160 -82q0 -42 34 -67.5t139 -64.5q145 -53 211 -109
q94 -80 94 -205zM760 1086h-155q0 16 -166 194q-166 -178 -166 -194h-155q0 16 95 164.5t95 159.5h262q0 -11 95 -159.5t95 -164.5z" />
    <glyph glyph-name="scaron" unicode="&#x161;" horiz-adv-x="859" 
d="M791 273q0 -300 -444 -300q-162 0 -283 35l34 197q125 -45 249 -45q120 0 166.5 20t46.5 67q0 73 -168 139q-147 58 -214 114q-92 78 -92 191q0 133 99 214t288 81q177 0 278 -31l-34 -198q-113 44 -244 44q-160 0 -160 -82q0 -42 34 -67.5t139 -64.5q145 -53 211 -109
q94 -80 94 -205zM771 1410q0 -16 -95 -164.5t-95 -159.5h-262q0 11 -95 159.5t-95 164.5h155q0 -16 166 -194q166 178 166 194h155z" />
    <glyph glyph-name="scedilla" unicode="&#x15f;" horiz-adv-x="859" 
d="M791 273q0 -267 -352 -296l-8 -69q189 -47 189 -195q0 -227 -246 -227l-24 112q40 0 69 29.5t29 65.5q0 101 -129 125l27 155q-162 0 -282 35l34 197q125 -45 249 -45q120 0 168 21q45 19 45 66q0 73 -168 139q-147 58 -214 114q-92 78 -92 191q0 133 96 211
q102 84 291 84q177 0 278 -31l-34 -198q-113 44 -244 44q-160 0 -160 -82q0 -42 34 -67.5t139 -64.5q145 -53 211 -109q94 -80 94 -205z" />
    <glyph glyph-name="scommaaccent" unicode="&#x219;" horiz-adv-x="859" 
d="M791 273q0 -300 -444 -300q-162 0 -283 35l34 197q125 -45 249 -45q120 0 166.5 20t46.5 67q0 73 -168 139q-147 58 -214 114q-92 78 -92 191q0 133 99 214t288 81q177 0 278 -31l-34 -198q-113 44 -244 44q-160 0 -160 -82q0 -42 34 -67.5t139 -64.5q145 -53 211 -109
q94 -80 94 -205zM528 -210q0 -188 -200 -314l-64 54q58 75 58 156q-64 38 -64 102q0 61 37 100.5t102 39.5q61 0 96 -40t35 -98z" />
    <glyph glyph-name="germandbls" unicode="&#xdf;" horiz-adv-x="1112" 
d="M1046 270q0 -136 -107.5 -214t-265.5 -78q-111 0 -195 24l21 176q76 -28 166 -28q137 0 137 92q0 62 -131 185q-147 138 -147 261q0 86 65 173l121 136q65 75 65 132q0 131 -190 131q-100 0 -168 -82t-68 -261q0 -519 15 -917h-265q10 332 10 896q0 267 152.5 403.5
t349.5 136.5q167 0 268 -72t101 -206q0 -83 -61 -164l-113 -123q-61 -68 -61 -120q0 -63 119 -168q182 -160 182 -313z" />
    <glyph glyph-name="longs" unicode="&#x17f;" horiz-adv-x="576" 
d="M627 1419l-36 -178q-57 14 -117 14q-74 0 -100 -66t-26 -256q0 -562 15 -933h-264q15 366 15 933q0 503 338 503q101 0 175 -17z" />
    <glyph glyph-name="tcaron" unicode="&#x165;" horiz-adv-x="952" 
d="M704 187l-17 -178q-70 -30 -176 -30q-162 0 -244 88t-82 339q0 151 2 342q-51 0 -138 -6l7 197q77 -6 143 -6q1 53 8 279l237 29q-15 -199 -15 -308q84 0 251 8l-8 -199q-152 6 -247 6q-2 -133 -2 -279q0 -178 36 -238.5t127 -60.5q55 0 118 17zM327 950zM994 1177
q0 -222 -204 -351l-66 55q54 89 54 174q-80 39 -80 120q0 62 43 107.5t119 45.5q63 0 98.5 -46t35.5 -105z" />
    <glyph glyph-name="tcommaaccent" unicode="&#x163;" horiz-adv-x="743" 
d="M704 187l-17 -178q-70 -30 -176 -30q-162 0 -244 88t-82 339q0 151 2 342q-51 0 -138 -6l7 197q77 -6 143 -6q1 53 8 279l237 29q-15 -199 -15 -308q84 0 251 8l-8 -199q-152 6 -247 6q-2 -133 -2 -279q0 -178 36 -238.5t127 -60.5q55 0 118 17zM327 950zM557 -210
q0 -188 -200 -314l-64 54q58 75 58 156q-64 38 -64 102q0 61 37 100.5t102 39.5q61 0 96 -40t35 -98z" />
    <glyph glyph-name="tcommaaccent" unicode="&#x21b;" horiz-adv-x="743" 
d="M704 187l-17 -178q-70 -30 -176 -30q-162 0 -244 88t-82 339q0 151 2 342q-51 0 -138 -6l7 197q77 -6 143 -6q1 53 8 279l237 29q-15 -199 -15 -308q84 0 251 8l-8 -199q-152 6 -247 6q-2 -133 -2 -279q0 -178 36 -238.5t127 -60.5q55 0 118 17zM327 950zM557 -210
q0 -188 -200 -314l-64 54q58 75 58 156q-64 38 -64 102q0 61 37 100.5t102 39.5q61 0 96 -40t35 -98z" />
    <glyph glyph-name="tbar" unicode="&#x167;" horiz-adv-x="743" 
d="M704 187l-17 -178q-70 -30 -166 -30q-172 0 -254 88t-82 339v56h-119l6 142h113q1 68 2 144q-51 0 -138 -6l7 197q77 -6 143 -6q1 53 8 279l237 29q-15 -199 -15 -308q84 0 251 8l-8 -199q-152 6 -247 6l-2 -144h227l-6 -142h-221q1 -173 36.5 -232.5t126.5 -59.5
q55 0 118 17zM327 950z" />
    <glyph glyph-name="ugrave" unicode="&#xf9;" horiz-adv-x="1107" 
d="M1005 1l-234 -8q-16 54 -16 86h-16q-131 -108 -306 -108q-165 0 -248.5 86.5t-83.5 345.5q0 31 1.5 87t1.5 98q0 111 -19 354l279 10q-16 -192 -16 -364q0 -245 36.5 -330t143.5 -85q117 0 202 56q0 526 -12 714l270 9q-10 -189 -10 -490q0 -223 27 -461zM672 1086h-175
q0 16 -138 164t-138 160h271q0 -11 90 -159.5t90 -164.5z" />
    <glyph glyph-name="uacute" unicode="&#xfa;" horiz-adv-x="1107" 
d="M1005 1l-234 -8q-16 54 -16 86h-16q-131 -108 -306 -108q-165 0 -248.5 86.5t-83.5 345.5q0 31 1.5 87t1.5 98q0 111 -19 354l279 10q-16 -192 -16 -364q0 -245 36.5 -330t143.5 -85q117 0 202 56q0 526 -12 714l270 9q-10 -189 -10 -490q0 -223 27 -461zM885 1410
q0 -12 -138 -160t-138 -164h-175q0 16 90 164.5t90 159.5h271z" />
    <glyph glyph-name="ucircumflex" unicode="&#xfb;" horiz-adv-x="1107" 
d="M1005 1l-234 -8q-16 54 -16 86h-16q-131 -108 -306 -108q-165 0 -248.5 86.5t-83.5 345.5q0 31 1.5 87t1.5 98q0 111 -19 354l279 10q-16 -192 -16 -364q0 -245 36.5 -330t143.5 -85q117 0 202 56q0 526 -12 714l270 9q-10 -189 -10 -490q0 -223 27 -461zM886 1086h-155
q0 16 -166 194q-166 -178 -166 -194h-155q0 16 95 164.5t95 159.5h262q0 -11 95 -159.5t95 -164.5z" />
    <glyph glyph-name="utilde" unicode="&#x169;" horiz-adv-x="1107" 
d="M1005 1l-234 -8q-16 54 -16 86h-16q-131 -108 -306 -108q-165 0 -248.5 86.5t-83.5 345.5q0 31 1.5 87t1.5 98q0 111 -19 354l279 10q-16 -192 -16 -364q0 -245 36.5 -330t143.5 -85q117 0 202 56q0 526 -12 714l270 9q-10 -189 -10 -490q0 -223 27 -461zM977 1355
q-112 -226 -256 -226q-46 0 -121.5 23t-115.5 23q-91 0 -176 -107l-89 75q112 226 256 226q50 0 124 -23t113 -23q91 0 176 107z" />
    <glyph glyph-name="udieresis" unicode="&#xfc;" horiz-adv-x="1107" 
d="M1005 1l-234 -8q-16 54 -16 86h-16q-131 -108 -306 -108q-165 0 -248.5 86.5t-83.5 345.5q0 31 1.5 87t1.5 98q0 111 -19 354l279 10q-16 -192 -16 -364q0 -245 36.5 -330t143.5 -85q117 0 202 56q0 526 -12 714l270 9q-10 -189 -10 -490q0 -223 27 -461zM893 1251
q0 -58 -39.5 -101.5t-110.5 -43.5q-60 0 -93.5 37.5t-33.5 90.5q0 57 40.5 100t111.5 43q60 0 92.5 -37t32.5 -89zM498 1251q0 -58 -39.5 -101.5t-110.5 -43.5q-59 0 -92.5 37.5t-33.5 90.5q0 58 40 100.5t111 42.5q60 0 92.5 -37t32.5 -89z" />
    <glyph glyph-name="umacron" unicode="&#x16b;" horiz-adv-x="1107" 
d="M1005 1l-234 -8q-16 54 -16 86h-16q-131 -108 -306 -108q-165 0 -248.5 86.5t-83.5 345.5q0 31 1.5 87t1.5 98q0 111 -19 354l279 10q-16 -192 -16 -364q0 -245 36.5 -330t143.5 -85q117 0 202 56q0 526 -12 714l270 9q-10 -189 -10 -490q0 -223 27 -461zM819 1335
l-12 -174h-484l11 174h485z" />
    <glyph glyph-name="ubreve" unicode="&#x16d;" horiz-adv-x="1107" 
d="M1005 1l-234 -8q-16 54 -16 86h-16q-131 -108 -306 -108q-165 0 -248.5 86.5t-83.5 345.5q0 31 1.5 87t1.5 98q0 111 -19 354l279 10q-16 -192 -16 -364q0 -245 36.5 -330t143.5 -85q117 0 202 56q0 526 -12 714l270 9q-10 -189 -10 -490q0 -223 27 -461zM885 1360
q-94 -286 -327 -286q-246 0 -329 286l132 60q92 -182 196 -182q100 0 196 182z" />
    <glyph glyph-name="uring" unicode="&#x16f;" horiz-adv-x="1107" 
d="M1005 1l-234 -8q-16 54 -16 86h-16q-131 -108 -306 -108q-165 0 -248.5 86.5t-83.5 345.5q0 31 1.5 87t1.5 98q0 111 -19 354l279 10q-16 -192 -16 -364q0 -245 36.5 -330t143.5 -85q117 0 202 56q0 526 -12 714l270 9q-10 -189 -10 -490q0 -223 27 -461zM801 1289
q0 -115 -77.5 -182.5t-177.5 -67.5q-90 0 -155.5 57.5t-65.5 163.5q0 114 77.5 180t177.5 66q90 0 155.5 -56.5t65.5 -160.5zM687 1280q0 60 -33.5 92t-81.5 32q-52 0 -92 -37t-40 -101q0 -60 33.5 -92.5t81.5 -32.5q52 0 92 37.5t40 101.5z" />
    <glyph glyph-name="uhungarumlaut" unicode="&#x171;" horiz-adv-x="1107" 
d="M1005 1l-234 -8q-16 54 -16 86h-16q-131 -108 -306 -108q-165 0 -248.5 86.5t-83.5 345.5q0 31 1.5 87t1.5 98q0 111 -19 354l279 10q-16 -192 -16 -364q0 -245 36.5 -330t143.5 -85q117 0 202 56q0 526 -12 714l270 9q-10 -189 -10 -490q0 -223 27 -461zM624 1410
q0 -22 -92 -165t-92 -159h-149q0 16 35 159.5t35 164.5h263zM1011 1410q0 -22 -92 -165t-92 -159h-149q0 16 35 159.5t35 164.5h263z" />
    <glyph glyph-name="uogonek" unicode="&#x173;" horiz-adv-x="1107" 
d="M1023 -468q-62 -18 -139 -18q-143 0 -208.5 59t-65.5 157q0 164 161 264q-16 53 -16 85h-16q-131 -108 -295 -108q-173 0 -258 81.5t-85 340.5q0 31 1.5 92t1.5 83q0 131 -19 375l279 8q-16 -191 -16 -363q0 -245 36.5 -330t143.5 -85q117 0 202 56q0 526 -12 714l270 8
q-10 -188 -10 -489q0 -223 27 -462q-208 -31 -208 -202q0 -127 119 -127q31 0 79 10z" />
    <glyph glyph-name="wgrave" unicode="&#x1e81;" horiz-adv-x="1613" 
d="M1581 950q0 -57 -166.5 -468t-166.5 -482h-233q0 46 -82 283q-102 296 -130 403h-16q-26 -103 -124 -398q-79 -234 -79 -288h-234q0 61 -158.5 486.5t-158.5 463.5h288q0 -41 87.5 -343.5t87.5 -359.5h15q0 69 100 358.5t100 344.5h235q0 -38 97.5 -345t97.5 -358h14
q0 56 88.5 340.5t88.5 362.5h249zM898 1086h-175q0 16 -138 164t-138 160h271q0 -11 90 -159.5t90 -164.5z" />
    <glyph glyph-name="wacute" unicode="&#x1e83;" horiz-adv-x="1613" 
d="M1581 950q0 -57 -166.5 -468t-166.5 -482h-233q0 46 -82 283q-102 296 -130 403h-16q-26 -103 -124 -398q-79 -234 -79 -288h-234q0 61 -158.5 486.5t-158.5 463.5h288q0 -41 87.5 -343.5t87.5 -359.5h15q0 69 100 358.5t100 344.5h235q0 -38 97.5 -345t97.5 -358h14
q0 56 88.5 340.5t88.5 362.5h249zM1170 1410q0 -12 -138 -160t-138 -164h-175q0 16 90 164.5t90 159.5h271z" />
    <glyph glyph-name="wcircumflex" unicode="&#x175;" horiz-adv-x="1613" 
d="M1581 950q0 -57 -166.5 -468t-166.5 -482h-233q0 46 -82 283q-102 296 -130 403h-16q-26 -103 -124 -398q-79 -234 -79 -288h-234q0 61 -158.5 486.5t-158.5 463.5h288q0 -41 87.5 -343.5t87.5 -359.5h15q0 69 100 358.5t100 344.5h235q0 -38 97.5 -345t97.5 -358h14
q0 56 88.5 340.5t88.5 362.5h249zM1140 1086h-155q0 16 -166 194q-166 -178 -166 -194h-155q0 16 95 164.5t95 159.5h262q0 -11 95 -159.5t95 -164.5z" />
    <glyph glyph-name="wdieresis" unicode="&#x1e85;" horiz-adv-x="1613" 
d="M1581 950q0 -57 -166.5 -468t-166.5 -482h-233q0 46 -82 283q-102 296 -130 403h-16q-26 -103 -124 -398q-79 -234 -79 -288h-234q0 61 -158.5 486.5t-158.5 463.5h288q0 -41 87.5 -343.5t87.5 -359.5h15q0 69 100 358.5t100 344.5h235q0 -38 97.5 -345t97.5 -358h14
q0 56 88.5 340.5t88.5 362.5h249zM1163 1251q0 -58 -39.5 -101.5t-110.5 -43.5q-60 0 -93.5 37.5t-33.5 90.5q0 57 40.5 100t111.5 43q60 0 92.5 -37t32.5 -89zM768 1251q0 -58 -39.5 -101.5t-110.5 -43.5q-59 0 -92.5 37.5t-33.5 90.5q0 58 40 100.5t111 42.5
q60 0 92.5 -37t32.5 -89z" />
    <glyph glyph-name="ygrave" unicode="&#x1ef3;" horiz-adv-x="1002" 
d="M968 950q0 -65 -143 -412q-163 -399 -201 -544q-65 -250 -175 -345q-106 -92 -318 -92l-20 193q124 0 204 70.5t80 188.5q0 119 -180 520.5t-180 420.5h309q0 -35 91 -339t91 -372h14q0 58 82.5 342.5t82.5 368.5h263zM659 1086h-175q0 16 -138 164t-138 160h271
q0 -11 90 -159.5t90 -164.5z" />
    <glyph glyph-name="yacute" unicode="&#xfd;" horiz-adv-x="1002" 
d="M968 950q0 -65 -143 -412q-163 -399 -201 -544q-65 -250 -175 -345q-106 -92 -318 -92l-20 193q124 0 204 70.5t80 188.5q0 119 -180 520.5t-180 420.5h309q0 -35 91 -339t91 -372h14q0 58 82.5 342.5t82.5 368.5h263zM875 1410q0 -12 -138 -160t-138 -164h-175
q0 16 90 164.5t90 159.5h271z" />
    <glyph glyph-name="ycircumflex" unicode="&#x177;" horiz-adv-x="1002" 
d="M968 950q0 -65 -143 -412q-163 -399 -201 -544q-65 -250 -175 -345q-106 -92 -318 -92l-20 193q124 0 204 70.5t80 188.5q0 119 -180 520.5t-180 420.5h309q0 -35 91 -339t91 -372h14q0 58 82.5 342.5t82.5 368.5h263zM838 1086h-155q0 16 -166 194q-166 -178 -166 -194
h-155q0 16 95 164.5t95 159.5h262q0 -11 95 -159.5t95 -164.5z" />
    <glyph glyph-name="ydieresis" unicode="&#xff;" horiz-adv-x="1002" 
d="M968 950q0 -65 -143 -412q-163 -399 -201 -544q-65 -250 -175 -345q-106 -92 -318 -92l-20 193q124 0 204 70.5t80 188.5q0 119 -180 520.5t-180 420.5h309q0 -35 91 -339t91 -372h14q0 58 82.5 342.5t82.5 368.5h263zM873 1251q0 -58 -39.5 -101.5t-110.5 -43.5
q-60 0 -93.5 37.5t-33.5 90.5q0 57 40.5 100t111.5 43q60 0 92.5 -37t32.5 -89zM478 1251q0 -58 -39.5 -101.5t-110.5 -43.5q-59 0 -92.5 37.5t-33.5 90.5q0 58 40 100.5t111 42.5q60 0 92.5 -37t32.5 -89z" />
    <glyph glyph-name="zacute" unicode="&#x17a;" horiz-adv-x="890" 
d="M834 200l-5 -200h-756l14 191q50 45 235 278q198 249 198 285v16q-238 0 -438 -17l5 197h726l-15 -192q-63 -69 -225 -280q-189 -246 -189 -282v-15q227 0 450 19zM813 1410q0 -12 -138 -160t-138 -164h-175q0 16 90 164.5t90 159.5h271z" />
    <glyph glyph-name="zcaron" unicode="&#x17e;" horiz-adv-x="890" 
d="M834 200l-5 -200h-756l14 191q50 45 235 278q198 249 198 285v16q-238 0 -438 -17l5 197h726l-15 -192q-63 -69 -225 -280q-189 -246 -189 -282v-15q227 0 450 19zM791 1410q0 -16 -95 -164.5t-95 -159.5h-262q0 11 -95 159.5t-95 164.5h155q0 -16 166 -194
q166 178 166 194h155z" />
    <glyph glyph-name="zdotaccent" unicode="&#x17c;" horiz-adv-x="890" 
d="M834 200l-5 -200h-756l14 191q50 45 235 278q198 249 198 285v16q-238 0 -438 -17l5 197h726l-15 -192q-63 -69 -225 -280q-189 -246 -189 -282v-15q227 0 450 19zM626 1252q0 -68 -46.5 -119t-129.5 -51q-70 0 -109.5 44t-39.5 106q0 68 46.5 118t130.5 50
q71 0 109.5 -43.5t38.5 -104.5z" />
    <glyph glyph-name="eng" unicode="&#x14b;" horiz-adv-x="1126" 
d="M1015 0q0 -211 -116.5 -324.5t-418.5 -118.5l-22 200q148 5 219 68.5t82.5 245.5t11.5 441q0 162 -47.5 215.5t-145.5 53.5q-109 0 -211 -78q5 -390 5 -703h-269q18 313 18 492q0 239 -49 451l256 28l17 -106h16q140 118 300 118q169 0 261.5 -72.5t92.5 -257.5
q0 -19 -2.5 -94.5t-2.5 -139.5q0 -117 2.5 -220.5t2.5 -198.5z" />
    <glyph glyph-name="eth" unicode="&#xf0;" horiz-adv-x="1130" 
d="M1065 580q0 -261 -132.5 -439.5t-367.5 -178.5q-237 0 -365 144.5t-128 348.5q0 187 125 338.5t349 151.5q100 0 204 -64h16q-36 158 -120 258q-88 -48 -162 -102l-89 142q40 17 174 69q-74 65 -133 110l129 101q56 -29 161 -115q75 46 166 111l88 -145q-40 -17 -150 -69
q235 -249 235 -661zM808 494q0 130 -16 201q-97 61 -217 61q-115 0 -176.5 -93t-61.5 -212q0 -125 60 -213.5t168 -88.5q111 0 177 100t66 245z" />
    <glyph glyph-name="thorn" unicode="&#xfe;" horiz-adv-x="1136" 
d="M1067 516q0 -217 -124.5 -381t-341.5 -164q-155 0 -222 63h-14q0 -236 13 -491h-282q24 506 24 1159q0 395 -33 704l287 16q-10 -233 -10 -527h12q106 89 284 89q191 0 299 -137.5t108 -330.5zM801 490q0 125 -64 216.5t-175 91.5q-138 0 -202 -81q0 -342 6 -515
q62 -49 162 -49q134 0 203.5 99.5t69.5 237.5z" />
    <glyph glyph-name="A.c2sc" horiz-adv-x="1143" 
d="M1134 0h-316q0 54 -69 292h-371q-73 -234 -73 -292h-296q0 32 198 524.5t198 543.5h378q0 -47 175.5 -535.5t175.5 -532.5zM702 467q-130 402 -130 438h-15q0 -34 -135 -438h280z" />
    <glyph glyph-name="B.c2sc" horiz-adv-x="1085" 
d="M1023 320q0 -325 -587 -325q-110 0 -325 5q12 246 12 558q0 302 -12 510h157q43 0 140 2.5t154 2.5q398 0 398 -236q0 -182 -209 -240v-14q108 -15 190 -77.5t82 -185.5zM754 313q0 149 -280 149q-57 0 -98 -4q0 -154 7 -289q29 -5 80 -5q146 0 218.5 33t72.5 116z
M692 763q0 139 -181 139q-79 0 -147 -12q12 -93 12 -268q30 -1 61 -1q255 0 255 142z" />
    <glyph glyph-name="C.c2sc" horiz-adv-x="954" 
d="M932 217l-17 -212q-141 -27 -251 -27q-304 0 -462.5 156t-158.5 378q0 234 168 402t459 168q117 0 218 -22l-33 -211q-105 31 -206 31q-161 0 -243 -97t-82 -242q0 -147 95.5 -253t267.5 -106q117 0 245 35z" />
    <glyph glyph-name="D.c2sc" horiz-adv-x="1146" 
d="M1103 570q0 -231 -159 -405t-442 -174q-155 0 -390 9q11 246 11 558q0 302 -11 510h175q39 0 114 2.5t116 2.5q292 0 439 -143.5t147 -359.5zM831 535q0 149 -90 251.5t-267 102.5q-41 0 -108 -6q10 -155 10 -325q0 -187 8 -367q53 -11 112 -11q168 0 251.5 103.5
t83.5 251.5z" />
    <glyph glyph-name="E.c2sc" horiz-adv-x="933" 
d="M883 201l-8 -201h-764q12 246 12 558q0 302 -12 510h731l-8 -201q-273 15 -468 15q12 -111 12 -243q166 0 383 10v-190q-207 9 -383 9q0 -151 6 -282q222 0 499 15z" />
    <glyph glyph-name="F.c2sc" horiz-adv-x="883" 
d="M857 1068l-7 -201q-289 15 -485 15q13 -142 13 -288q157 0 378 9v-188q-228 8 -378 8q0 -200 6 -423h-273q12 246 12 558q0 302 -12 510h746z" />
    <glyph glyph-name="G.c2sc" horiz-adv-x="1101" 
d="M1027 30q-233 -52 -368 -52q-303 0 -459.5 154t-156.5 374q0 236 173 406t474 170q149 0 260 -23l-31 -214q-132 34 -252 34q-175 0 -260 -98t-85 -249q0 -148 92.5 -258.5t256.5 -110.5q50 0 109 9q-14 94 -14 173q0 85 -20 203h281q-7 -134 -7 -264q0 -107 7 -254z" />
    <glyph glyph-name="H.c2sc" horiz-adv-x="1174" 
d="M1064 0h-278q8 267 8 457h-413q0 -177 9 -457h-279q12 261 12 558q0 298 -12 510h279q-11 -229 -11 -416h417q0 171 -10 416h278q-12 -201 -12 -510q0 -317 12 -558z" />
    <glyph glyph-name="I.c2sc" horiz-adv-x="501" 
d="M390 0h-278q11 250 11 558q0 303 -11 510h278q-11 -200 -11 -510q0 -314 11 -558z" />
    <glyph glyph-name="J.c2sc" horiz-adv-x="737" 
d="M641 1068q-11 -242 -11 -591q0 -280 -111 -389.5t-323 -109.5q-85 0 -165 17l17 196q58 -23 127 -23q98 0 155 55.5t57 237.5q0 366 -13 607h267z" />
    <glyph glyph-name="K.c2sc" horiz-adv-x="1064" 
d="M1055 0h-323q0 42 -133.5 262.5t-191.5 220.5h-26q0 -185 9 -483h-278q12 246 12 558q0 302 -12 510h278q-9 -230 -9 -420h19q38 0 173.5 195t135.5 225h298q0 -27 -154.5 -207.5t-226.5 -227.5v-14q85 -46 257 -314t172 -305z" />
    <glyph glyph-name="L.c2sc" horiz-adv-x="883" 
d="M865 200l-8 -200h-746q11 230 11 558q0 308 -11 510h278q-10 -193 -10 -510q0 -235 -13 -372q236 0 499 14z" />
    <glyph glyph-name="M.c2sc" horiz-adv-x="1496" 
d="M1442 0h-288q0 123 -15.5 449t-16.5 413h-14q-10 -59 -46.5 -195.5t-129.5 -376.5t-93 -290h-224q0 51 -90 292.5t-119.5 343.5t-50.5 226h-15q-1 -99 -17.5 -435t-16.5 -427h-261q0 31 65.5 471.5t65.5 596.5h379q0 -93 96 -388.5t96 -387.5h15q0 93 110 388.5
t110 387.5h378q0 -168 41 -603t41 -465z" />
    <glyph glyph-name="N.c2sc" horiz-adv-x="1188" 
d="M1077 0h-251q0 41 -225 342q-236 316 -269 449h-15q24 -173 24 -320q0 -176 11 -471h-241q13 250 13 558q0 302 -13 510h295q0 -51 199 -337q215 -306 248 -422h16q-24 178 -24 325q0 193 -13 434h245q-11 -198 -11 -510q0 -314 11 -558z" />
    <glyph glyph-name="O.c2sc" horiz-adv-x="1222" 
d="M1179 555q0 -244 -164 -413.5t-419 -169.5q-242 0 -397.5 155t-155.5 384q0 244 164 413.5t419 169.5q242 0 397.5 -155t155.5 -384zM905 528q0 156 -86 259.5t-216 103.5q-124 0 -205 -102t-81 -251q0 -156 86 -260t216 -104q123 0 204.5 102.5t81.5 251.5z" />
    <glyph glyph-name="P.c2sc" horiz-adv-x="1006" 
d="M972 779q0 -201 -155.5 -292t-380.5 -91q-41 0 -57 1q0 -145 8 -397h-275q11 239 11 558q0 300 -11 510h163q36 0 128 2.5t180 2.5q149 0 269 -71t120 -223zM715 738q0 164 -228 164q-57 0 -119 -12q11 -164 11 -329q18 -1 42 -1q294 0 294 178z" />
    <glyph glyph-name="Q.c2sc" horiz-adv-x="1222" 
d="M1215 -354l-292 -10q-43 207 -102 271.5t-225 64.5q-242 0 -397.5 155t-155.5 384q0 244 164 413.5t419 169.5q242 0 397.5 -155t155.5 -384q0 -163 -77.5 -299t-213.5 -211v-14q142 -17 212 -96.5t115 -288.5zM905 528q0 156 -86 259.5t-216 103.5q-124 0 -205 -102
t-81 -251q0 -156 86 -260t216 -104q123 0 204.5 102.5t81.5 251.5z" />
    <glyph glyph-name="R.c2sc" horiz-adv-x="1071" 
d="M1062 0h-293q-97 277 -150 346t-154 69q-42 0 -86 -1q0 -191 8 -414h-275q12 246 12 558q0 302 -12 510h163q35 0 120.5 2.5t154.5 2.5q411 0 411 -262q0 -203 -235 -282v-15q86 -21 157 -133t179 -381zM710 749q0 152 -205 152q-76 0 -137 -11q11 -123 11 -312
q47 -2 75 -2q256 0 256 173z" />
    <glyph glyph-name="S.c2sc" horiz-adv-x="936" 
d="M882 296q0 -326 -510 -326q-169 0 -319 38l48 202q147 -45 271 -45q136 0 192 21.5t56 74.5q0 56 -53 94q-49 36 -204 97q-283 111 -283 327q0 148 118 227.5t337 79.5q159 0 290 -27l-36 -201q-120 40 -254 40q-198 0 -198 -92q0 -50 45 -81q41 -28 184 -80
q316 -116 316 -349z" />
    <glyph glyph-name="T.c2sc" horiz-adv-x="958" 
d="M939 1068l-7 -198q-176 14 -322 14q-2 -154 -2 -326q0 -305 10 -558h-276q12 254 12 558q0 168 -3 326q-122 0 -332 -15l8 199h912z" />
    <glyph glyph-name="U.c2sc" horiz-adv-x="1152" 
d="M1068 1068q-9 -264 -9 -555q0 -543 -482 -543q-236 0 -359.5 116t-123.5 429q0 300 -9 553h279q-11 -264 -11 -551q0 -209 56.5 -283t172.5 -74q115 0 173.5 72t58.5 287q0 278 -11 549h265z" />
    <glyph glyph-name="V.c2sc" 
d="M1031 1068q0 -67 -194 -535.5t-194 -532.5h-288q0 63 -176 537t-176 531h319q0 -58 103 -414t103 -402h17q0 42 102.5 383t102.5 433h281z" />
    <glyph glyph-name="W.c2sc" horiz-adv-x="1668" 
d="M1661 1068q0 -82 -171 -543.5t-171 -524.5h-275q0 62 -94 346q-101 301 -113 402h-17q-12 -99 -106 -404q-87 -284 -87 -344h-281q0 75 -168.5 544.5t-168.5 523.5h319q0 -58 88.5 -407t88.5 -409h15q0 59 97.5 400t97.5 416h285q0 -65 95.5 -417t95.5 -399h16
q0 51 86.5 381.5t86.5 434.5h281z" />
    <glyph glyph-name="X.c2sc" horiz-adv-x="1071" 
d="M1065 0h-333q0 27 -88 202q-86 170 -122 219h-16q-32 -43 -114 -215q-83 -175 -83 -206h-303q0 25 167 274.5t216 295.5v14q-48 51 -185 249q-142 207 -142 235h318q0 -27 74 -172t103 -179h15q28 35 98 177q72 146 72 174h288q0 -23 -148.5 -231t-186.5 -242v-14
q55 -56 212.5 -304t157.5 -277z" />
    <glyph glyph-name="Y.c2sc" horiz-adv-x="988" 
d="M985 1068q0 -34 -188.5 -318.5t-188.5 -385.5q0 -185 9 -364h-279q10 183 10 366q0 104 -172.5 391t-172.5 311h311q0 -33 96 -245t96 -271h15q0 52 94.5 253.5t94.5 262.5h275z" />
    <glyph glyph-name="Z.c2sc" horiz-adv-x="924" 
d="M864 204l-7 -204h-797l15 193q90 107 269 364q194 278 194 314v14q-217 0 -463 -18l6 201h766l-14 -194q-94 -119 -255 -357q-187 -277 -187 -317v-14q186 0 473 18z" />
    <glyph glyph-name="Agrave.c2sc" horiz-adv-x="1143" 
d="M1134 0h-316q0 54 -69 292h-371q-73 -234 -73 -292h-296q0 32 198 524.5t198 543.5h378q0 -47 175.5 -535.5t175.5 -532.5zM702 467q-130 402 -130 438h-15q0 -34 -135 -438h280zM737 1166h-175q0 16 -138 164t-138 160h271q0 -11 90 -159.5t90 -164.5z" />
    <glyph glyph-name="Aacute.c2sc" horiz-adv-x="1143" 
d="M1134 0h-316q0 54 -69 292h-371q-73 -234 -73 -292h-296q0 32 198 524.5t198 543.5h378q0 -47 175.5 -535.5t175.5 -532.5zM702 467q-130 402 -130 438h-15q0 -34 -135 -438h280zM900 1490q0 -12 -138 -160t-138 -164h-175q0 16 90 164.5t90 159.5h271z" />
    <glyph glyph-name="Acircumflex.c2sc" horiz-adv-x="1143" 
d="M1134 0h-316q0 54 -69 292h-371q-73 -234 -73 -292h-296q0 32 198 524.5t198 543.5h378q0 -47 175.5 -535.5t175.5 -532.5zM702 467q-130 402 -130 438h-15q0 -34 -135 -438h280zM909 1166h-155q0 16 -166 194q-166 -178 -166 -194h-155q0 16 95 164.5t95 159.5h262
q0 -11 95 -159.5t95 -164.5z" />
    <glyph glyph-name="Atilde.c2sc" horiz-adv-x="1143" 
d="M1134 0h-316q0 54 -69 292h-371q-73 -234 -73 -292h-296q0 32 198 524.5t198 543.5h378q0 -47 175.5 -535.5t175.5 -532.5zM702 467q-130 402 -130 438h-15q0 -34 -135 -438h280zM989 1435q-112 -226 -256 -226q-46 0 -121.5 23t-115.5 23q-91 0 -176 -107l-89 75
q112 226 256 226q50 0 124 -23t113 -23q91 0 176 107z" />
    <glyph glyph-name="Adieresis.c2sc" horiz-adv-x="1143" 
d="M1134 0h-316q0 54 -69 292h-371q-73 -234 -73 -292h-296q0 32 198 524.5t198 543.5h378q0 -47 175.5 -535.5t175.5 -532.5zM702 467q-130 402 -130 438h-15q0 -34 -135 -438h280zM920 1331q0 -58 -39.5 -101.5t-110.5 -43.5q-60 0 -93.5 37.5t-33.5 90.5q0 57 40.5 100
t111.5 43q60 0 92.5 -37t32.5 -89zM525 1331q0 -58 -39.5 -101.5t-110.5 -43.5q-59 0 -92.5 37.5t-33.5 90.5q0 58 40 100.5t111 42.5q60 0 92.5 -37t32.5 -89z" />
    <glyph glyph-name="Amacron.c2sc" horiz-adv-x="1143" 
d="M1134 0h-316q0 54 -69 292h-371q-73 -234 -73 -292h-296q0 32 198 524.5t198 543.5h378q0 -47 175.5 -535.5t175.5 -532.5zM702 467q-130 402 -130 438h-15q0 -34 -135 -438h280zM847 1415l-12 -174h-484l11 174h485z" />
    <glyph glyph-name="Abreve.c2sc" horiz-adv-x="1143" 
d="M1134 0h-316q0 54 -69 292h-371q-73 -234 -73 -292h-296q0 32 198 524.5t198 543.5h378q0 -47 175.5 -535.5t175.5 -532.5zM702 467q-130 402 -130 438h-15q0 -34 -135 -438h280zM922 1440q-94 -286 -327 -286q-246 0 -329 286l132 60q92 -182 196 -182q100 0 196 182z
" />
    <glyph glyph-name="Aring.c2sc" horiz-adv-x="1143" 
d="M1134 0h-316q0 54 -69 292h-371q-73 -234 -73 -292h-296q0 32 198 524.5t198 543.5h378q0 -47 175.5 -535.5t175.5 -532.5zM702 467q-130 402 -130 438h-15q0 -34 -135 -438h280zM835 1389q0 -115 -77.5 -182.5t-177.5 -67.5q-90 0 -155.5 57.5t-65.5 163.5
q0 114 77.5 180t177.5 66q90 0 155.5 -56.5t65.5 -160.5zM721 1380q0 60 -33.5 92t-81.5 32q-52 0 -92 -37t-40 -101q0 -60 33.5 -92.5t81.5 -32.5q52 0 92 37.5t40 101.5z" />
    <glyph glyph-name="Aringacute.c2sc" horiz-adv-x="1143" 
d="M1134 0h-316q0 54 -69 292h-371q-73 -234 -73 -292h-296q0 32 198 524.5t198 543.5h378q0 -47 175.5 -535.5t175.5 -532.5zM702 467q-130 402 -130 438h-15q0 -34 -135 -438h280zM844 1349q0 -115 -77.5 -182.5t-177.5 -67.5q-90 0 -155.5 57.5t-65.5 163.5
q0 114 77.5 180t177.5 66q90 0 155.5 -56.5t65.5 -160.5zM730 1340q0 60 -33.5 92t-81.5 32q-52 0 -92 -37t-40 -101q0 -60 33.5 -92.5t81.5 -32.5q52 0 92 37.5t40 101.5zM993 1872q0 -12 -133 -135t-143 -139h-175q0 16 80 139.5t80 134.5h291z" />
    <glyph glyph-name="Aogonek.c2sc" horiz-adv-x="1143" 
d="M1134 0q-256 -18 -256 -202q0 -127 119 -127q31 0 79 10l28 -149q-62 -18 -139 -18q-143 0 -207 57q-67 61 -67 159q0 164 127 270q0 54 -69 292h-371q-73 -234 -73 -292h-296q0 32 198 524.5t198 543.5h378q0 -47 175.5 -535.5t175.5 -532.5zM702 467q-130 402 -130 438
h-15q0 -34 -135 -438h280z" />
    <glyph glyph-name="AE.c2sc" horiz-adv-x="1478" 
d="M1428 201l-8 -201h-768q9 139 9 292h-298q-72 -220 -72 -292h-282q0 32 196.5 524t196.5 544h986l-9 -201q-279 15 -474 15q11 -112 11 -243q157 0 392 8v-188q-217 9 -392 9q0 -139 7 -282q224 0 505 15zM664 467q0 257 -9 415h-106q0 -32 -143 -415h258z" />
    <glyph glyph-name="AEacute.c2sc" horiz-adv-x="1478" 
d="M1428 201l-8 -201h-768q9 139 9 292h-298q-72 -220 -72 -292h-282q0 32 196.5 524t196.5 544h986l-9 -201q-279 15 -474 15q11 -112 11 -243q157 0 392 8v-188q-217 9 -392 9q0 -139 7 -282q224 0 505 15zM664 467q0 257 -9 415h-106q0 -32 -143 -415h258zM1180 1490
q0 -12 -138 -160t-138 -164h-175q0 16 90 164.5t90 159.5h271z" />
    <glyph glyph-name="Cacute.c2sc" horiz-adv-x="954" 
d="M932 217l-17 -212q-141 -27 -251 -27q-304 0 -462.5 156t-158.5 378q0 234 168 402t459 168q117 0 218 -22l-33 -211q-105 31 -206 31q-161 0 -243 -97t-82 -242q0 -147 95.5 -253t267.5 -106q117 0 245 35zM973 1490q0 -12 -138 -160t-138 -164h-175q0 16 90 164.5
t90 159.5h271z" />
    <glyph glyph-name="Ccircumflex.c2sc" horiz-adv-x="954" 
d="M932 217l-17 -212q-141 -27 -251 -27q-304 0 -462.5 156t-158.5 378q0 234 168 402t459 168q117 0 218 -22l-33 -211q-105 31 -206 31q-161 0 -243 -97t-82 -242q0 -147 95.5 -253t267.5 -106q117 0 245 35zM891 1166h-155q0 16 -166 194q-166 -178 -166 -194h-155
q0 16 95 164.5t95 159.5h262q0 -11 95 -159.5t95 -164.5z" />
    <glyph glyph-name="Ccaron.c2sc" horiz-adv-x="954" 
d="M932 217l-17 -212q-141 -27 -251 -27q-304 0 -462.5 156t-158.5 378q0 234 168 402t459 168q117 0 218 -22l-33 -211q-105 31 -206 31q-161 0 -243 -97t-82 -242q0 -147 95.5 -253t267.5 -106q117 0 245 35zM945 1490q0 -16 -95 -164.5t-95 -159.5h-262q0 11 -95 159.5
t-95 164.5h155q0 -16 166 -194q166 178 166 194h155z" />
    <glyph glyph-name="Cdotaccent.c2sc" horiz-adv-x="954" 
d="M932 217l-17 -212q-141 -27 -251 -27q-304 0 -462.5 156t-158.5 378q0 234 168 402t459 168q117 0 218 -22l-33 -211q-105 31 -206 31q-161 0 -243 -97t-82 -242q0 -147 95.5 -253t267.5 -106q117 0 245 35zM787 1332q0 -68 -46.5 -119t-129.5 -51q-70 0 -109.5 44
t-39.5 106q0 68 46.5 118t130.5 50q71 0 109.5 -43.5t38.5 -104.5z" />
    <glyph glyph-name="Ccedilla.c2sc" horiz-adv-x="954" 
d="M932 217l-17 -212q-141 -27 -251 -27q-31 0 -59 2l-11 -72q189 -47 189 -195q0 -227 -246 -227l-24 112q40 0 69 29.5t29 65.5q0 101 -129 125l30 172q-197 32 -333 166t-136 356q0 229 167.5 399.5t459.5 170.5q117 0 218 -22l-33 -211q-105 31 -206 31
q-163 0 -244 -98.5t-81 -240.5q0 -145 95.5 -252t267.5 -107q117 0 245 35z" />
    <glyph glyph-name="Dcaron.c2sc" horiz-adv-x="1146" 
d="M1103 570q0 -231 -159 -405t-442 -174q-155 0 -390 9q11 246 11 558q0 302 -11 510h175q39 0 114 2.5t116 2.5q292 0 439 -143.5t147 -359.5zM831 535q0 149 -90 251.5t-267 102.5q-41 0 -108 -6q10 -155 10 -325q0 -187 8 -367q53 -11 112 -11q168 0 251.5 103.5
t83.5 251.5zM916 1490q0 -16 -95 -164.5t-95 -159.5h-262q0 11 -95 159.5t-95 164.5h155q0 -16 166 -194q166 178 166 194h155z" />
    <glyph glyph-name="Dcroat.c2sc" horiz-adv-x="1146" 
d="M1103 570q0 -231 -159 -405t-442 -174q-155 0 -390 9q11 203 11 476q-46 -2 -124 -10l8 150q67 -1 116 0q0 259 -11 452h175q39 0 115 2.5t115 2.5q295 0 440.5 -145t145.5 -358zM831 535q0 146 -94 250t-274 104q-41 0 -97 -5q13 -109 12 -260q71 3 269 19l-9 -149
q-104 0 -260 -4q0 -168 6 -299q53 -11 112 -11q168 0 251.5 103.5t83.5 251.5z" />
    <glyph glyph-name="Egrave.c2sc" horiz-adv-x="933" 
d="M883 201l-8 -201h-764q12 246 12 558q0 302 -12 510h731l-8 -201q-273 15 -468 15q12 -111 12 -243q166 0 383 10v-190q-207 9 -383 9q0 -151 6 -282q222 0 499 15zM649 1166h-175q0 16 -138 164t-138 160h271q0 -11 90 -159.5t90 -164.5z" />
    <glyph glyph-name="Eacute.c2sc" horiz-adv-x="933" 
d="M883 201l-8 -201h-764q12 246 12 558q0 302 -12 510h731l-8 -201q-273 15 -468 15q12 -111 12 -243q166 0 383 10v-190q-207 9 -383 9q0 -151 6 -282q222 0 499 15zM803 1490q0 -12 -138 -160t-138 -164h-175q0 16 90 164.5t90 159.5h271z" />
    <glyph glyph-name="Ecircumflex.c2sc" horiz-adv-x="933" 
d="M883 201l-8 -201h-764q12 246 12 558q0 302 -12 510h731l-8 -201q-273 15 -468 15q12 -111 12 -243q166 0 383 10v-190q-207 9 -383 9q0 -151 6 -282q222 0 499 15zM803 1166h-155q0 16 -166 194q-166 -178 -166 -194h-155q0 16 95 164.5t95 159.5h262q0 -11 95 -159.5
t95 -164.5z" />
    <glyph glyph-name="Ecaron.c2sc" horiz-adv-x="933" 
d="M883 201l-8 -201h-764q12 246 12 558q0 302 -12 510h731l-8 -201q-273 15 -468 15q12 -111 12 -243q166 0 383 10v-190q-207 9 -383 9q0 -151 6 -282q222 0 499 15zM811 1490q0 -16 -95 -164.5t-95 -159.5h-262q0 11 -95 159.5t-95 164.5h155q0 -16 166 -194
q166 178 166 194h155z" />
    <glyph glyph-name="Edieresis.c2sc" horiz-adv-x="933" 
d="M883 201l-8 -201h-764q12 246 12 558q0 302 -12 510h731l-8 -201q-273 15 -468 15q12 -111 12 -243q166 0 383 10v-190q-207 9 -383 9q0 -151 6 -282q222 0 499 15zM818 1331q0 -58 -39.5 -101.5t-110.5 -43.5q-60 0 -93.5 37.5t-33.5 90.5q0 57 40.5 100t111.5 43
q60 0 92.5 -37t32.5 -89zM423 1331q0 -58 -39.5 -101.5t-110.5 -43.5q-59 0 -92.5 37.5t-33.5 90.5q0 58 40 100.5t111 42.5q60 0 92.5 -37t32.5 -89z" />
    <glyph glyph-name="Emacron.c2sc" horiz-adv-x="933" 
d="M883 201l-8 -201h-764q12 246 12 558q0 302 -12 510h731l-8 -201q-273 15 -468 15q12 -111 12 -243q166 0 383 10v-190q-207 9 -383 9q0 -151 6 -282q222 0 499 15zM751 1415l-12 -174h-484l11 174h485z" />
    <glyph glyph-name="Ebreve.c2sc" horiz-adv-x="933" 
d="M883 201l-8 -201h-764q12 246 12 558q0 302 -12 510h731l-8 -201q-273 15 -468 15q12 -111 12 -243q166 0 383 10v-190q-207 9 -383 9q0 -151 6 -282q222 0 499 15zM818 1440q-94 -286 -327 -286q-246 0 -329 286l132 60q92 -182 196 -182q100 0 196 182z" />
    <glyph glyph-name="Edotaccent.c2sc" horiz-adv-x="933" 
d="M883 201l-8 -201h-764q12 246 12 558q0 302 -12 510h731l-8 -201q-273 15 -468 15q12 -111 12 -243q166 0 383 10v-190q-207 9 -383 9q0 -151 6 -282q222 0 499 15zM684 1332q0 -68 -46.5 -119t-129.5 -51q-70 0 -109.5 44t-39.5 106q0 68 46.5 118t130.5 50
q71 0 109.5 -43.5t38.5 -104.5z" />
    <glyph glyph-name="Eogonek.c2sc" horiz-adv-x="933" 
d="M881 -468q-62 -18 -139 -18q-143 0 -207 57q-67 61 -67 159q0 164 140 260v10h-497q12 246 12 558q0 302 -12 510h731l-8 -201q-273 15 -468 15q12 -111 12 -243q150 0 383 10v-190q-207 9 -383 9q0 -151 6 -282q222 0 499 16l-9 -202h1q-220 -31 -220 -202
q0 -127 119 -127q31 0 79 10z" />
    <glyph glyph-name="Gcircumflex.c2sc" horiz-adv-x="1101" 
d="M1027 30q-233 -52 -368 -52q-303 0 -459.5 154t-156.5 374q0 236 173 406t474 170q149 0 260 -23l-31 -214q-132 34 -252 34q-175 0 -260 -98t-85 -249q0 -148 92.5 -258.5t256.5 -110.5q50 0 109 9q-14 94 -14 173q0 85 -20 203h281q-7 -134 -7 -264q0 -107 7 -254z
M955 1166h-155q0 16 -166 194q-166 -178 -166 -194h-155q0 16 95 164.5t95 159.5h262q0 -11 95 -159.5t95 -164.5z" />
    <glyph glyph-name="Gbreve.c2sc" horiz-adv-x="1101" 
d="M1027 30q-233 -52 -368 -52q-303 0 -459.5 154t-156.5 374q0 236 173 406t474 170q149 0 260 -23l-31 -214q-132 34 -252 34q-175 0 -260 -98t-85 -249q0 -148 92.5 -258.5t256.5 -110.5q50 0 109 9q-14 94 -14 173q0 85 -20 203h281q-7 -134 -7 -264q0 -107 7 -254z
M953 1440q-94 -286 -327 -286q-246 0 -329 286l132 60q92 -182 196 -182q100 0 196 182z" />
    <glyph glyph-name="Gdotaccent.c2sc" horiz-adv-x="1101" 
d="M1027 30q-233 -52 -368 -52q-303 0 -459.5 154t-156.5 374q0 236 173 406t474 170q149 0 260 -23l-31 -214q-132 34 -252 34q-175 0 -260 -98t-85 -249q0 -148 92.5 -258.5t256.5 -110.5q50 0 109 9q-14 94 -14 173q0 85 -20 203h281q-7 -134 -7 -264q0 -107 7 -254z
M814 1332q0 -68 -46.5 -119t-129.5 -51q-70 0 -109.5 44t-39.5 106q0 68 46.5 118t130.5 50q71 0 109.5 -43.5t38.5 -104.5z" />
    <glyph glyph-name="Gcommaaccent.c2sc" horiz-adv-x="1101" 
d="M1027 30q-233 -52 -368 -52q-303 0 -459.5 154t-156.5 374q0 236 173 406t474 170q149 0 260 -23l-31 -214q-132 34 -252 34q-175 0 -260 -98t-85 -249q0 -148 92.5 -258.5t256.5 -110.5q50 0 109 9q-14 94 -14 173q0 85 -20 203h281q-7 -134 -7 -264q0 -107 7 -254z
M722 -210q0 -188 -200 -314l-64 54q58 75 58 156q-64 38 -64 102q0 61 37 100.5t102 39.5q61 0 96 -40t35 -98z" />
    <glyph glyph-name="Hcircumflex.c2sc" horiz-adv-x="1174" 
d="M1064 0h-278q8 267 8 457h-413q0 -177 9 -457h-279q12 261 12 558q0 298 -12 510h279q-11 -229 -11 -416h417q0 171 -10 416h278q-12 -201 -12 -510q0 -317 12 -558zM911 1166h-155q0 16 -166 194q-166 -178 -166 -194h-155q0 16 95 164.5t95 159.5h262q0 -11 95 -159.5
t95 -164.5z" />
    <glyph glyph-name="Hbar.c2sc" horiz-adv-x="1174" 
d="M1159 909l-10 -138h-96q-1 -99 -1 -213q0 -317 12 -558h-278q8 267 8 457h-413q0 -177 9 -457h-279q12 261 12 558q0 112 -2 213h-91l10 138h78q-3 85 -7 159h279q-4 -82 -7 -159h408q-2 75 -5 159h278q-5 -73 -7 -159h102zM796 652q0 55 -1 119h-415q-1 -62 -1 -119h417
z" />
    <glyph glyph-name="Igrave.c2sc" horiz-adv-x="501" 
d="M390 0h-278q11 250 11 558q0 303 -11 510h278q-11 -200 -11 -510q0 -314 11 -558zM382 1166h-175q0 16 -138 164t-138 160h271q0 -11 90 -159.5t90 -164.5z" />
    <glyph glyph-name="Iacute.c2sc" horiz-adv-x="501" 
d="M390 0h-278q11 250 11 558q0 303 -11 510h278q-11 -200 -11 -510q0 -314 11 -558zM571 1490q0 -12 -138 -160t-138 -164h-175q0 16 90 164.5t90 159.5h271z" />
    <glyph glyph-name="Icircumflex.c2sc" horiz-adv-x="501" 
d="M390 0h-278q11 250 11 558q0 303 -11 510h278q-11 -200 -11 -510q0 -314 11 -558zM568 1166h-155q0 16 -166 194q-166 -178 -166 -194h-155q0 16 95 164.5t95 159.5h262q0 -11 95 -159.5t95 -164.5z" />
    <glyph glyph-name="Itilde.c2sc" horiz-adv-x="501" 
d="M390 0h-278q11 250 11 558q0 303 -11 510h278q-11 -200 -11 -510q0 -314 11 -558zM640 1435q-112 -226 -256 -226q-46 0 -121.5 23t-115.5 23q-91 0 -176 -107l-89 75q112 226 256 226q50 0 124 -23t113 -23q91 0 176 107z" />
    <glyph glyph-name="Idieresis.c2sc" horiz-adv-x="501" 
d="M390 0h-278q11 250 11 558q0 303 -11 510h278q-11 -200 -11 -510q0 -314 11 -558zM588 1331q0 -58 -39.5 -101.5t-110.5 -43.5q-60 0 -93.5 37.5t-33.5 90.5q0 57 40.5 100t111.5 43q60 0 92.5 -37t32.5 -89zM193 1331q0 -58 -39.5 -101.5t-110.5 -43.5q-59 0 -92.5 37.5
t-33.5 90.5q0 58 40 100.5t111 42.5q60 0 92.5 -37t32.5 -89z" />
    <glyph glyph-name="Imacron.c2sc" horiz-adv-x="501" 
d="M390 0h-278q11 250 11 558q0 303 -11 510h278q-11 -200 -11 -510q0 -314 11 -558zM497 1415l-12 -174h-484l11 174h485z" />
    <glyph glyph-name="Ibreve.c2sc" horiz-adv-x="501" 
d="M390 0h-278q11 250 11 558q0 303 -11 510h278q-11 -200 -11 -510q0 -314 11 -558zM579 1440q-94 -286 -327 -286q-246 0 -329 286l132 60q92 -182 196 -182q100 0 196 182z" />
    <glyph glyph-name="Idotaccent.c2sc" horiz-adv-x="501" 
d="M390 0h-278q11 250 11 558q0 303 -11 510h278q-11 -200 -11 -510q0 -314 11 -558zM419 1332q0 -68 -46.5 -119t-129.5 -51q-70 0 -109.5 44t-39.5 106q0 68 46.5 118t130.5 50q71 0 109.5 -43.5t38.5 -104.5z" />
    <glyph glyph-name="Iogonek.c2sc" horiz-adv-x="501" 
d="M398 -468q-62 -18 -139 -18q-143 0 -207 57q-67 61 -67 159q0 164 127 270q11 250 11 558q0 303 -11 510h278q-11 -200 -11 -510q0 -314 11 -558q-218 -31 -218 -202q0 -127 119 -127q31 0 79 10z" />
    <glyph glyph-name="IJ.c2sc" horiz-adv-x="1219" 
d="M390 0h-278q11 250 11 558q0 303 -11 510h278q-11 -200 -11 -510q0 -314 11 -558zM1123 1068q-11 -242 -11 -591q0 -280 -111 -389.5t-323 -109.5q-85 0 -165 17l17 196q58 -23 127 -23q98 0 155 55.5t57 237.5q0 366 -13 607h267z" />
    <glyph glyph-name="Jcircumflex.c2sc" horiz-adv-x="737" 
d="M641 1068q-11 -242 -11 -591q0 -280 -111 -389.5t-323 -109.5q-85 0 -165 17l17 196q58 -23 127 -23q98 0 155 55.5t57 237.5q0 366 -13 607h267zM819 1166h-155q0 16 -166 194q-166 -178 -166 -194h-155q0 16 95 164.5t95 159.5h262q0 -11 95 -159.5t95 -164.5z" />
    <glyph glyph-name="Kcommaaccent.c2sc" horiz-adv-x="1064" 
d="M1055 0h-323q0 42 -133.5 262.5t-191.5 220.5h-26q0 -185 9 -483h-278q12 246 12 558q0 302 -12 510h278q-9 -230 -9 -420h19q38 0 173.5 195t135.5 225h298q0 -27 -154.5 -207.5t-226.5 -227.5v-14q85 -46 257 -314t172 -305zM695 -210q0 -188 -200 -314l-64 54
q58 75 58 156q-64 38 -64 102q0 61 37 100.5t102 39.5q61 0 96 -40t35 -98z" />
    <glyph glyph-name="Lacute.c2sc" horiz-adv-x="883" 
d="M865 200l-8 -200h-746q11 230 11 558q0 308 -11 510h278q-10 -193 -10 -510q0 -235 -13 -372q236 0 499 14zM567 1490q0 -12 -138 -160t-138 -164h-175q0 16 90 164.5t90 159.5h271z" />
    <glyph glyph-name="Lcaron.c2sc" horiz-adv-x="883" 
d="M865 200l-8 -200h-746q11 230 11 558q0 308 -11 510h278q-10 -193 -10 -510q0 -235 -13 -372q236 0 499 14zM916 938q0 -222 -204 -351l-66 55q54 89 54 174q-80 39 -80 120q0 62 43 107.5t119 45.5q63 0 98.5 -46t35.5 -105z" />
    <glyph glyph-name="Lcommaaccent.c2sc" horiz-adv-x="883" 
d="M865 200l-8 -200h-746q11 230 11 558q0 308 -11 510h278q-10 -193 -10 -510q0 -235 -13 -372q236 0 499 14zM613 -210q0 -188 -200 -314l-64 54q58 75 58 156q-64 38 -64 102q0 61 37 100.5t102 39.5q61 0 96 -40t35 -98z" />
    <glyph glyph-name="Lslash.c2sc" horiz-adv-x="883" 
d="M865 200l-7 -200h-747q10 285 10 388l-81 -54l-67 129l148 82q-1 332 -10 523h278q-4 -65 -8 -378l278 183l76 -136l-356 -197q0 -194 -13 -354q220 0 499 14z" />
    <glyph glyph-name="Ldot.c2sc" horiz-adv-x="883" 
d="M865 200l-8 -200h-746q11 230 11 558q0 308 -11 510h278q-10 -193 -10 -510q0 -235 -13 -372q236 0 499 14zM853 597q0 -68 -46.5 -119t-129.5 -51q-70 0 -109.5 44t-39.5 106q0 68 46.5 118t130.5 50q71 0 109.5 -43.5t38.5 -104.5z" />
    <glyph glyph-name="Nacute.c2sc" horiz-adv-x="1188" 
d="M1077 0h-251q0 41 -225 342q-236 316 -269 449h-15q24 -173 24 -320q0 -176 11 -471h-241q13 250 13 558q0 302 -13 510h295q0 -51 199 -337q215 -306 248 -422h16q-24 178 -24 325q0 193 -13 434h245q-11 -198 -11 -510q0 -314 11 -558zM956 1490q0 -12 -138 -160
t-138 -164h-175q0 16 90 164.5t90 159.5h271z" />
    <glyph glyph-name="Ncaron.c2sc" horiz-adv-x="1188" 
d="M1077 0h-251q0 41 -225 342q-236 316 -269 449h-15q24 -173 24 -320q0 -176 11 -471h-241q13 250 13 558q0 302 -13 510h295q0 -51 199 -337q215 -306 248 -422h16q-24 178 -24 325q0 193 -13 434h245q-11 -198 -11 -510q0 -314 11 -558zM919 1490q0 -16 -95 -164.5
t-95 -159.5h-262q0 11 -95 159.5t-95 164.5h155q0 -16 166 -194q166 178 166 194h155z" />
    <glyph glyph-name="Ntilde.c2sc" horiz-adv-x="1188" 
d="M1077 0h-251q0 41 -225 342q-236 316 -269 449h-15q24 -173 24 -320q0 -176 11 -471h-241q13 250 13 558q0 302 -13 510h295q0 -51 199 -337q215 -306 248 -422h16q-24 178 -24 325q0 193 -13 434h245q-11 -198 -11 -510q0 -314 11 -558zM1008 1435q-112 -226 -256 -226
q-46 0 -121.5 23t-115.5 23q-91 0 -176 -107l-89 75q112 226 256 226q50 0 124 -23t113 -23q91 0 176 107z" />
    <glyph glyph-name="Ncommaaccent.c2sc" horiz-adv-x="1188" 
d="M1077 0h-251q0 41 -225 342q-236 316 -269 449h-15q24 -173 24 -320q0 -176 11 -471h-241q13 250 13 558q0 302 -13 510h295q0 -51 199 -337q215 -306 248 -422h16q-24 178 -24 325q0 193 -13 434h245q-11 -198 -11 -510q0 -314 11 -558zM717 -210q0 -188 -200 -314
l-64 54q58 75 58 156q-64 38 -64 102q0 61 37 100.5t102 39.5q61 0 96 -40t35 -98z" />
    <glyph glyph-name="Ograve.c2sc" horiz-adv-x="1222" 
d="M1179 555q0 -244 -164 -413.5t-419 -169.5q-242 0 -397.5 155t-155.5 384q0 244 164 413.5t419 169.5q242 0 397.5 -155t155.5 -384zM905 528q0 156 -86 259.5t-216 103.5q-124 0 -205 -102t-81 -251q0 -156 86 -260t216 -104q123 0 204.5 102.5t81.5 251.5zM725 1166
h-175q0 16 -138 164t-138 160h271q0 -11 90 -159.5t90 -164.5z" />
    <glyph glyph-name="Oacute.c2sc" horiz-adv-x="1222" 
d="M1179 555q0 -244 -164 -413.5t-419 -169.5q-242 0 -397.5 155t-155.5 384q0 244 164 413.5t419 169.5q242 0 397.5 -155t155.5 -384zM905 528q0 156 -86 259.5t-216 103.5q-124 0 -205 -102t-81 -251q0 -156 86 -260t216 -104q123 0 204.5 102.5t81.5 251.5zM995 1490
q0 -12 -138 -160t-138 -164h-175q0 16 90 164.5t90 159.5h271z" />
    <glyph glyph-name="Ocircumflex.c2sc" horiz-adv-x="1222" 
d="M1179 555q0 -244 -164 -413.5t-419 -169.5q-242 0 -397.5 155t-155.5 384q0 244 164 413.5t419 169.5q242 0 397.5 -155t155.5 -384zM905 528q0 156 -86 259.5t-216 103.5q-124 0 -205 -102t-81 -251q0 -156 86 -260t216 -104q123 0 204.5 102.5t81.5 251.5zM935 1166
h-155q0 16 -166 194q-166 -178 -166 -194h-155q0 16 95 164.5t95 159.5h262q0 -11 95 -159.5t95 -164.5z" />
    <glyph glyph-name="Otilde.c2sc" horiz-adv-x="1222" 
d="M1179 555q0 -244 -164 -413.5t-419 -169.5q-242 0 -397.5 155t-155.5 384q0 244 164 413.5t419 169.5q242 0 397.5 -155t155.5 -384zM905 528q0 156 -86 259.5t-216 103.5q-124 0 -205 -102t-81 -251q0 -156 86 -260t216 -104q123 0 204.5 102.5t81.5 251.5zM1015 1435
q-112 -226 -256 -226q-46 0 -121.5 23t-115.5 23q-91 0 -176 -107l-89 75q112 226 256 226q50 0 124 -23t113 -23q91 0 176 107z" />
    <glyph glyph-name="Odieresis.c2sc" horiz-adv-x="1222" 
d="M1179 555q0 -244 -164 -413.5t-419 -169.5q-242 0 -397.5 155t-155.5 384q0 244 164 413.5t419 169.5q242 0 397.5 -155t155.5 -384zM905 528q0 156 -86 259.5t-216 103.5q-124 0 -205 -102t-81 -251q0 -156 86 -260t216 -104q123 0 204.5 102.5t81.5 251.5zM957 1331
q0 -58 -39.5 -101.5t-110.5 -43.5q-60 0 -93.5 37.5t-33.5 90.5q0 57 40.5 100t111.5 43q60 0 92.5 -37t32.5 -89zM562 1331q0 -58 -39.5 -101.5t-110.5 -43.5q-59 0 -92.5 37.5t-33.5 90.5q0 58 40 100.5t111 42.5q60 0 92.5 -37t32.5 -89z" />
    <glyph glyph-name="Omacron.c2sc" horiz-adv-x="1222" 
d="M1179 555q0 -244 -164 -413.5t-419 -169.5q-242 0 -397.5 155t-155.5 384q0 244 164 413.5t419 169.5q242 0 397.5 -155t155.5 -384zM905 528q0 156 -86 259.5t-216 103.5q-124 0 -205 -102t-81 -251q0 -156 86 -260t216 -104q123 0 204.5 102.5t81.5 251.5zM883 1415
l-12 -174h-484l11 174h485z" />
    <glyph glyph-name="Obreve.c2sc" horiz-adv-x="1222" 
d="M1179 555q0 -244 -164 -413.5t-419 -169.5q-242 0 -397.5 155t-155.5 384q0 244 164 413.5t419 169.5q242 0 397.5 -155t155.5 -384zM905 528q0 156 -86 259.5t-216 103.5q-124 0 -205 -102t-81 -251q0 -156 86 -260t216 -104q123 0 204.5 102.5t81.5 251.5zM960 1440
q-94 -286 -327 -286q-246 0 -329 286l132 60q92 -182 196 -182q100 0 196 182z" />
    <glyph glyph-name="Ohungarumlaut.c2sc" horiz-adv-x="1222" 
d="M1179 555q0 -244 -164 -413.5t-419 -169.5q-242 0 -397.5 155t-155.5 384q0 244 164 413.5t419 169.5q242 0 397.5 -155t155.5 -384zM905 528q0 156 -86 259.5t-216 103.5q-124 0 -205 -102t-81 -251q0 -156 86 -260t216 -104q123 0 204.5 102.5t81.5 251.5zM684 1490
q0 -22 -92 -165t-92 -159h-149q0 16 35 159.5t35 164.5h263zM1071 1490q0 -22 -92 -165t-92 -159h-149q0 16 35 159.5t35 164.5h263z" />
    <glyph glyph-name="Oslash.c2sc" horiz-adv-x="1222" 
d="M1178 1084q0 -36 -122 -181q123 -146 123 -348q0 -244 -162 -411q-166 -172 -421 -172q-174 0 -309 86q-110 -128 -110 -157l-139 37q0 28 150 200q-145 152 -145 373q0 244 162 411q166 172 421 172q189 0 332 -102q81 99 81 123zM802 810q-81 81 -199 81
q-124 0 -205 -101.5t-81 -251.5q0 -113 47 -202zM905 528q0 92 -31 167l-429 -460q76 -61 174 -61q123 0 204.5 102.5t81.5 251.5z" />
    <glyph glyph-name="Oslashacute.c2sc" horiz-adv-x="1222" 
d="M1178 1084q0 -36 -122 -181q123 -146 123 -348q0 -244 -162 -411q-166 -172 -421 -172q-174 0 -309 86q-110 -128 -110 -157l-139 37q0 28 150 200q-145 152 -145 373q0 244 162 411q166 172 421 172q189 0 332 -102q81 99 81 123zM802 810q-81 81 -199 81
q-124 0 -205 -101.5t-81 -251.5q0 -113 47 -202zM905 528q0 92 -31 167l-429 -460q76 -61 174 -61q123 0 204.5 102.5t81.5 251.5zM991 1490q0 -12 -138 -160t-138 -164h-175q0 16 90 164.5t90 159.5h271z" />
    <glyph glyph-name="OE.c2sc" horiz-adv-x="1606" 
d="M1556 201l-9 -201h-740q-109 -28 -214 -28q-259 0 -412 169q-138 153 -138 372q0 229 147 396q163 185 429 185q86 0 208 -26h688l-8 -201q-261 15 -473 15q10 -112 10 -243q148 0 392 8v-188q-217 9 -392 9q0 -139 7 -282q195 0 505 15zM791 558q0 175 -6 316
q-78 17 -186 17q-134 0 -211 -109q-69 -98 -69 -241q0 -147 74 -251q82 -115 219 -115q107 0 172 23q7 152 7 360z" />
    <glyph glyph-name="Racute.c2sc" horiz-adv-x="1071" 
d="M1062 0h-293q-97 277 -150 346t-154 69q-42 0 -86 -1q0 -191 8 -414h-275q12 246 12 558q0 302 -12 510h163q35 0 120.5 2.5t154.5 2.5q411 0 411 -262q0 -203 -235 -282v-15q86 -21 157 -133t179 -381zM710 749q0 152 -205 152q-76 0 -137 -11q11 -123 11 -312
q47 -2 75 -2q256 0 256 173zM868 1490q0 -12 -138 -160t-138 -164h-175q0 16 90 164.5t90 159.5h271z" />
    <glyph glyph-name="Rcaron.c2sc" horiz-adv-x="1071" 
d="M1062 0h-293q-97 277 -150 346t-154 69q-42 0 -86 -1q0 -191 8 -414h-275q12 246 12 558q0 302 -12 510h163q35 0 120.5 2.5t154.5 2.5q411 0 411 -262q0 -203 -235 -282v-15q86 -21 157 -133t179 -381zM710 749q0 152 -205 152q-76 0 -137 -11q11 -123 11 -312
q47 -2 75 -2q256 0 256 173zM855 1490q0 -16 -95 -164.5t-95 -159.5h-262q0 11 -95 159.5t-95 164.5h155q0 -16 166 -194q166 178 166 194h155z" />
    <glyph glyph-name="Rcommaaccent.c2sc" horiz-adv-x="1071" 
d="M1062 0h-293q-97 277 -150 346t-154 69q-42 0 -86 -1q0 -191 8 -414h-275q12 246 12 558q0 302 -12 510h163q35 0 120.5 2.5t154.5 2.5q411 0 411 -262q0 -203 -235 -282v-15q86 -21 157 -133t179 -381zM710 749q0 152 -205 152q-76 0 -137 -11q11 -123 11 -312
q47 -2 75 -2q256 0 256 173zM698 -210q0 -188 -200 -314l-64 54q58 75 58 156q-64 38 -64 102q0 61 37 100.5t102 39.5q61 0 96 -40t35 -98z" />
    <glyph glyph-name="Sacute.c2sc" horiz-adv-x="936" 
d="M882 296q0 -326 -510 -326q-169 0 -319 38l48 202q147 -45 271 -45q136 0 192 21.5t56 74.5q0 56 -53 94q-49 36 -204 97q-283 111 -283 327q0 148 118 227.5t337 79.5q159 0 290 -27l-36 -201q-120 40 -254 40q-198 0 -198 -92q0 -50 45 -81q41 -28 184 -80
q316 -116 316 -349zM846 1490q0 -12 -138 -160t-138 -164h-175q0 16 90 164.5t90 159.5h271z" />
    <glyph glyph-name="Scircumflex.c2sc" horiz-adv-x="936" 
d="M882 296q0 -326 -510 -326q-169 0 -319 38l48 202q147 -45 271 -45q136 0 192 21.5t56 74.5q0 56 -53 94q-49 36 -204 97q-283 111 -283 327q0 148 118 227.5t337 79.5q159 0 290 -27l-36 -201q-120 40 -254 40q-198 0 -198 -92q0 -50 45 -81q41 -28 184 -80
q316 -116 316 -349zM822 1166h-155q0 16 -166 194q-166 -178 -166 -194h-155q0 16 95 164.5t95 159.5h262q0 -11 95 -159.5t95 -164.5z" />
    <glyph glyph-name="Scaron.c2sc" horiz-adv-x="936" 
d="M882 296q0 -326 -510 -326q-169 0 -319 38l48 202q147 -45 271 -45q136 0 192 21.5t56 74.5q0 56 -53 94q-49 36 -204 97q-283 111 -283 327q0 148 118 227.5t337 79.5q159 0 290 -27l-36 -201q-120 40 -254 40q-198 0 -198 -92q0 -50 45 -81q41 -28 184 -80
q316 -116 316 -349zM829 1490q0 -16 -95 -164.5t-95 -159.5h-262q0 11 -95 159.5t-95 164.5h155q0 -16 166 -194q166 178 166 194h155z" />
    <glyph glyph-name="Scedilla.c2sc" horiz-adv-x="936" 
d="M882 296q0 -303 -442 -324l-8 -64q189 -47 189 -195q0 -227 -246 -227l-24 112q40 0 69 29.5t29 65.5q0 101 -129 125l26 152q-154 3 -293 38l48 202q147 -45 271 -45q136 0 192 21.5t56 74.5q0 56 -53 94q-49 36 -204 97q-283 111 -283 327q0 148 118 227.5t337 79.5
q159 0 290 -27l-36 -201q-120 40 -254 40q-198 0 -198 -92q0 -50 45 -81q41 -28 184 -80q316 -116 316 -349z" />
    <glyph glyph-name="Scommaaccent.c2sc" horiz-adv-x="936" 
d="M882 296q0 -326 -510 -326q-169 0 -319 38l48 202q147 -45 271 -45q136 0 192 21.5t56 74.5q0 56 -53 94q-49 36 -204 97q-283 111 -283 327q0 148 118 227.5t337 79.5q159 0 290 -27l-36 -201q-120 40 -254 40q-198 0 -198 -92q0 -50 45 -81q41 -28 184 -80
q316 -116 316 -349zM576 -210q0 -188 -200 -314l-64 54q58 75 58 156q-64 38 -64 102q0 61 37 100.5t102 39.5q61 0 96 -40t35 -98z" />
    <glyph glyph-name="Tcaron.c2sc" horiz-adv-x="958" 
d="M939 1068l-7 -198q-176 14 -322 14q-2 -154 -2 -326q0 -305 10 -558h-276q12 254 12 558q0 168 -3 326q-122 0 -332 -15l8 199h912zM807 1490q0 -16 -95 -164.5t-95 -159.5h-262q0 11 -95 159.5t-95 164.5h155q0 -16 166 -194q166 178 166 194h155z" />
    <glyph glyph-name="Tcommaaccent.c2sc" horiz-adv-x="958" 
d="M939 1068l-7 -198q-176 14 -322 14q-2 -154 -2 -326q0 -305 10 -558h-276q12 254 12 558q0 168 -3 326q-122 0 -332 -15l8 199h912zM627 -210q0 -188 -200 -314l-64 54q58 75 58 156q-64 38 -64 102q0 61 37 100.5t102 39.5q61 0 96 -40t35 -98z" />
    <glyph glyph-name="Tbar.c2sc" horiz-adv-x="958" 
d="M939 1068l-7 -198q-176 14 -322 14q-2 -111 -2 -232h261l-10 -138h-251q0 -280 10 -514h-276q11 235 12 514h-244l10 138h234q-1 118 -3 232q-122 0 -332 -15l8 199h912z" />
    <glyph glyph-name="Ugrave.c2sc" horiz-adv-x="1152" 
d="M1068 1068q-9 -264 -9 -555q0 -543 -482 -543q-236 0 -359.5 116t-123.5 429q0 300 -9 553h279q-11 -264 -11 -551q0 -209 56.5 -283t172.5 -74q115 0 173.5 72t58.5 287q0 278 -11 549h265zM694 1166h-175q0 16 -138 164t-138 160h271q0 -11 90 -159.5t90 -164.5z" />
    <glyph glyph-name="Uacute.c2sc" horiz-adv-x="1152" 
d="M1068 1068q-9 -264 -9 -555q0 -543 -482 -543q-236 0 -359.5 116t-123.5 429q0 300 -9 553h279q-11 -264 -11 -551q0 -209 56.5 -283t172.5 -74q115 0 173.5 72t58.5 287q0 278 -11 549h265zM944 1490q0 -12 -138 -160t-138 -164h-175q0 16 90 164.5t90 159.5h271z" />
    <glyph glyph-name="Ucircumflex.c2sc" horiz-adv-x="1152" 
d="M1068 1068q-9 -264 -9 -555q0 -543 -482 -543q-236 0 -359.5 116t-123.5 429q0 300 -9 553h279q-11 -264 -11 -551q0 -209 56.5 -283t172.5 -74q115 0 173.5 72t58.5 287q0 278 -11 549h265zM907 1166h-155q0 16 -166 194q-166 -178 -166 -194h-155q0 16 95 164.5
t95 159.5h262q0 -11 95 -159.5t95 -164.5z" />
    <glyph glyph-name="Utilde.c2sc" horiz-adv-x="1152" 
d="M1068 1068q-9 -264 -9 -555q0 -543 -482 -543q-236 0 -359.5 116t-123.5 429q0 300 -9 553h279q-11 -264 -11 -551q0 -209 56.5 -283t172.5 -74q115 0 173.5 72t58.5 287q0 278 -11 549h265zM981 1435q-112 -226 -256 -226q-46 0 -121.5 23t-115.5 23q-91 0 -176 -107
l-89 75q112 226 256 226q50 0 124 -23t113 -23q91 0 176 107z" />
    <glyph glyph-name="Udieresis.c2sc" horiz-adv-x="1152" 
d="M1068 1068q-9 -264 -9 -555q0 -543 -482 -543q-236 0 -359.5 116t-123.5 429q0 300 -9 553h279q-11 -264 -11 -551q0 -209 56.5 -283t172.5 -74q115 0 173.5 72t58.5 287q0 278 -11 549h265zM913 1331q0 -58 -39.5 -101.5t-110.5 -43.5q-60 0 -93.5 37.5t-33.5 90.5
q0 57 40.5 100t111.5 43q60 0 92.5 -37t32.5 -89zM518 1331q0 -58 -39.5 -101.5t-110.5 -43.5q-59 0 -92.5 37.5t-33.5 90.5q0 58 40 100.5t111 42.5q60 0 92.5 -37t32.5 -89z" />
    <glyph glyph-name="Umacron.c2sc" horiz-adv-x="1152" 
d="M1068 1068q-9 -264 -9 -555q0 -543 -482 -543q-236 0 -359.5 116t-123.5 429q0 300 -9 553h279q-11 -264 -11 -551q0 -209 56.5 -283t172.5 -74q115 0 173.5 72t58.5 287q0 278 -11 549h265zM828 1415l-12 -174h-484l11 174h485z" />
    <glyph glyph-name="Ubreve.c2sc" horiz-adv-x="1152" 
d="M1068 1068q-9 -264 -9 -555q0 -543 -482 -543q-236 0 -359.5 116t-123.5 429q0 300 -9 553h279q-11 -264 -11 -551q0 -209 56.5 -283t172.5 -74q115 0 173.5 72t58.5 287q0 278 -11 549h265zM900 1440q-94 -286 -327 -286q-246 0 -329 286l132 60q92 -182 196 -182
q100 0 196 182z" />
    <glyph glyph-name="Uring.c2sc" horiz-adv-x="1152" 
d="M1068 1068q-9 -264 -9 -555q0 -543 -482 -543q-236 0 -359.5 116t-123.5 429q0 300 -9 553h279q-11 -264 -11 -551q0 -209 56.5 -283t172.5 -74q115 0 173.5 72t58.5 287q0 278 -11 549h265zM831 1369q0 -115 -77.5 -182.5t-177.5 -67.5q-90 0 -155.5 57.5t-65.5 163.5
q0 114 77.5 180t177.5 66q90 0 155.5 -56.5t65.5 -160.5zM717 1360q0 60 -33.5 92t-81.5 32q-52 0 -92 -37t-40 -101q0 -60 33.5 -92.5t81.5 -32.5q52 0 92 37.5t40 101.5z" />
    <glyph glyph-name="Uhungarumlaut.c2sc" horiz-adv-x="1152" 
d="M1068 1068q-9 -264 -9 -555q0 -543 -482 -543q-236 0 -359.5 116t-123.5 429q0 300 -9 553h279q-11 -264 -11 -551q0 -209 56.5 -283t172.5 -74q115 0 173.5 72t58.5 287q0 278 -11 549h265zM629 1490q0 -22 -92 -165t-92 -159h-149q0 16 35 159.5t35 164.5h263z
M1016 1490q0 -22 -92 -165t-92 -159h-149q0 16 35 159.5t35 164.5h263z" />
    <glyph glyph-name="Uogonek.c2sc" horiz-adv-x="1152" 
d="M1068 1068q-9 -264 -9 -555q0 -397 -258 -504q-147 -60 -147 -211q0 -127 119 -127q31 0 79 10l28 -149q-62 -18 -139 -18q-143 0 -207 57q-67 61 -67 159q0 164 145 231v9h-35q-222 0 -332 92q-151 125 -151 443q0 310 -9 563h279q-11 -264 -11 -551q0 -209 64 -291
q51 -66 165 -66q115 0 166 63q66 81 66 296q0 278 -11 549h265z" />
    <glyph glyph-name="Wgrave.c2sc" horiz-adv-x="1668" 
d="M1661 1068q0 -82 -171 -543.5t-171 -524.5h-275q0 62 -94 346q-101 301 -113 402h-17q-12 -99 -106 -404q-87 -284 -87 -344h-281q0 75 -168.5 544.5t-168.5 523.5h319q0 -58 88.5 -407t88.5 -409h15q0 59 97.5 400t97.5 416h285q0 -65 95.5 -417t95.5 -399h16
q0 51 86.5 381.5t86.5 434.5h281zM953 1166h-175q0 16 -138 164t-138 160h271q0 -11 90 -159.5t90 -164.5z" />
    <glyph glyph-name="Wacute.c2sc" horiz-adv-x="1668" 
d="M1661 1068q0 -82 -171 -543.5t-171 -524.5h-275q0 62 -94 346q-101 301 -113 402h-17q-12 -99 -106 -404q-87 -284 -87 -344h-281q0 75 -168.5 544.5t-168.5 523.5h319q0 -58 88.5 -407t88.5 -409h15q0 59 97.5 400t97.5 416h285q0 -65 95.5 -417t95.5 -399h16
q0 51 86.5 381.5t86.5 434.5h281zM1200 1490q0 -12 -138 -160t-138 -164h-175q0 16 90 164.5t90 159.5h271z" />
    <glyph glyph-name="Wcircumflex.c2sc" horiz-adv-x="1668" 
d="M1661 1068q0 -82 -171 -543.5t-171 -524.5h-275q0 62 -94 346q-101 301 -113 402h-17q-12 -99 -106 -404q-87 -284 -87 -344h-281q0 75 -168.5 544.5t-168.5 523.5h319q0 -58 88.5 -407t88.5 -409h15q0 59 97.5 400t97.5 416h285q0 -65 95.5 -417t95.5 -399h16
q0 51 86.5 381.5t86.5 434.5h281zM1171 1166h-155q0 16 -166 194q-166 -178 -166 -194h-155q0 16 95 164.5t95 159.5h262q0 -11 95 -159.5t95 -164.5z" />
    <glyph glyph-name="Wdieresis.c2sc" horiz-adv-x="1668" 
d="M1661 1068q0 -82 -171 -543.5t-171 -524.5h-275q0 62 -94 346q-101 301 -113 402h-17q-12 -99 -106 -404q-87 -284 -87 -344h-281q0 75 -168.5 544.5t-168.5 523.5h319q0 -58 88.5 -407t88.5 -409h15q0 59 97.5 400t97.5 416h285q0 -65 95.5 -417t95.5 -399h16
q0 51 86.5 381.5t86.5 434.5h281zM1188 1331q0 -58 -39.5 -101.5t-110.5 -43.5q-60 0 -93.5 37.5t-33.5 90.5q0 57 40.5 100t111.5 43q60 0 92.5 -37t32.5 -89zM793 1331q0 -58 -39.5 -101.5t-110.5 -43.5q-59 0 -92.5 37.5t-33.5 90.5q0 58 40 100.5t111 42.5
q60 0 92.5 -37t32.5 -89z" />
    <glyph glyph-name="Ygrave.c2sc" horiz-adv-x="988" 
d="M985 1068q0 -34 -188.5 -318.5t-188.5 -385.5q0 -185 9 -364h-279q10 183 10 366q0 104 -172.5 391t-172.5 311h311q0 -33 96 -245t96 -271h15q0 52 94.5 253.5t94.5 262.5h275zM619 1166h-175q0 16 -138 164t-138 160h271q0 -11 90 -159.5t90 -164.5z" />
    <glyph glyph-name="Yacute.c2sc" horiz-adv-x="988" 
d="M985 1068q0 -34 -188.5 -318.5t-188.5 -385.5q0 -185 9 -364h-279q10 183 10 366q0 104 -172.5 391t-172.5 311h311q0 -33 96 -245t96 -271h15q0 52 94.5 253.5t94.5 262.5h275zM860 1490q0 -12 -138 -160t-138 -164h-175q0 16 90 164.5t90 159.5h271z" />
    <glyph glyph-name="Ycircumflex.c2sc" horiz-adv-x="988" 
d="M985 1068q0 -34 -188.5 -318.5t-188.5 -385.5q0 -185 9 -364h-279q10 183 10 366q0 104 -172.5 391t-172.5 311h311q0 -33 96 -245t96 -271h15q0 52 94.5 253.5t94.5 262.5h275zM833 1166h-155q0 16 -166 194q-166 -178 -166 -194h-155q0 16 95 164.5t95 159.5h262
q0 -11 95 -159.5t95 -164.5z" />
    <glyph glyph-name="Ydieresis.c2sc" horiz-adv-x="988" 
d="M985 1068q0 -34 -188.5 -318.5t-188.5 -385.5q0 -185 9 -364h-279q10 183 10 366q0 104 -172.5 391t-172.5 311h311q0 -33 96 -245t96 -271h15q0 52 94.5 253.5t94.5 262.5h275zM832 1331q0 -58 -39.5 -101.5t-110.5 -43.5q-60 0 -93.5 37.5t-33.5 90.5q0 57 40.5 100
t111.5 43q60 0 92.5 -37t32.5 -89zM437 1331q0 -58 -39.5 -101.5t-110.5 -43.5q-59 0 -92.5 37.5t-33.5 90.5q0 58 40 100.5t111 42.5q60 0 92.5 -37t32.5 -89z" />
    <glyph glyph-name="Zacute.c2sc" horiz-adv-x="924" 
d="M864 204l-7 -204h-797l15 193q90 107 269 364q194 278 194 314v14q-217 0 -463 -18l6 201h766l-14 -194q-94 -119 -255 -357q-187 -277 -187 -317v-14q186 0 473 18zM808 1490q0 -12 -138 -160t-138 -164h-175q0 16 90 164.5t90 159.5h271z" />
    <glyph glyph-name="Zcaron.c2sc" horiz-adv-x="924" 
d="M864 204l-7 -204h-797l15 193q90 107 269 364q194 278 194 314v14q-217 0 -463 -18l6 201h766l-14 -194q-94 -119 -255 -357q-187 -277 -187 -317v-14q186 0 473 18zM788 1490q0 -16 -95 -164.5t-95 -159.5h-262q0 11 -95 159.5t-95 164.5h155q0 -16 166 -194
q166 178 166 194h155z" />
    <glyph glyph-name="Zdotaccent.c2sc" horiz-adv-x="924" 
d="M864 204l-7 -204h-797l15 193q90 107 269 364q194 278 194 314v14q-217 0 -463 -18l6 201h766l-14 -194q-94 -119 -255 -357q-187 -277 -187 -317v-14q186 0 473 18zM624 1332q0 -68 -46.5 -119t-129.5 -51q-70 0 -109.5 44t-39.5 106q0 68 46.5 118t130.5 50
q71 0 109.5 -43.5t38.5 -104.5z" />
    <glyph glyph-name="Eng.c2sc" horiz-adv-x="1188" 
d="M1077 -56q0 -159 -110.5 -272.5t-378.5 -113.5l-8 200q103 4 184 47.5t82 194.5q0 16 -245 342q-236 316 -269 449h-15q24 -173 24 -320q0 -176 11 -471h-241q13 250 13 558q0 302 -13 510h295q0 -51 199 -337q215 -306 248 -422h16q-24 178 -24 325q0 193 -13 434h245
q-11 -198 -11 -510q0 -314 5.5 -427.5t5.5 -186.5z" />
    <glyph glyph-name="Eth.c2sc" horiz-adv-x="1146" 
d="M1103 570q0 -231 -159 -405t-442 -174q-155 0 -390 9q11 203 11 476q-46 -2 -124 -10l8 150q67 -1 116 0q0 259 -11 452h175q39 0 115 2.5t115 2.5q295 0 440.5 -145t145.5 -358zM831 535q0 146 -94 250t-274 104q-41 0 -97 -5q13 -109 12 -260q71 3 269 19l-9 -149
q-104 0 -260 -4q0 -168 6 -299q53 -11 112 -11q168 0 251.5 103.5t83.5 251.5z" />
    <glyph glyph-name="Thorn.c2sc" horiz-adv-x="1006" 
d="M972 664q0 -206 -165.5 -295.5t-390.5 -89.5h-37q0 -111 7 -279h-274q11 254 11 560q0 299 -11 508h278q-9 -89 -8 -117q94 4 181 4q168 0 288.5 -70t120.5 -221zM715 621q0 163 -228 163q-52 0 -110 -12q-2 -81 -2 -162q0 -84 3 -167h43q294 0 294 178z" />
    <glyph glyph-name="a.superior" horiz-adv-x="574" 
d="M521 609l-158 -7q-6 12 -6 45h-7q-49 -51 -147 -51q-75 0 -124 38t-49 119q0 96 86.5 151t232.5 55q-1 52 -18.5 68.5t-90.5 16.5q-66 0 -184 -33l16 133q96 31 199 31q53 0 93.5 -9.5t73 -32t50.5 -62t18 -92.5q0 -65 -1.5 -97.5t-1.5 -88.5q0 -92 18 -184zM349 748v2
q-2 32 -2 99q-159 -9 -159 -78q0 -48 63 -48q57 0 98 25z" />
    <glyph glyph-name="b.superior" horiz-adv-x="634" 
d="M597 902q0 -134 -76.5 -220.5t-202.5 -86.5q-75 0 -114 37h-6l-6 -25h-135q2 45 3 96.5t2.5 105t2 108.5t0.5 107q0 90 -5.5 181.5t-15.5 187.5l182 9q-2 -42 -4 -99.5t-7 -188.5h10q56 62 140 62q109 0 170.5 -74t61.5 -200zM431 891q0 34 -8.5 62t-23.5 49t-37.5 33
t-48.5 12q-63 0 -96 -35q0 -92 2 -158t6 -121q30 -18 72 -18q66 0 100 50.5t34 125.5zM145 1417z" />
    <glyph glyph-name="c.superior" horiz-adv-x="528" 
d="M506 757l-10 -126q-66 -36 -176 -36q-123 0 -204 74t-81 207q0 126 87.5 212.5t230.5 86.5q25 0 60.5 -5.5t71.5 -18.5l-23 -143q-72 36 -142 36q-56 0 -89.5 -42.5t-33.5 -109.5q0 -81 37 -123.5t113 -42.5q68 0 159 31z" />
    <glyph glyph-name="d.superior" horiz-adv-x="624" 
d="M575 607l-150 -5q-4 12 -7 50h-4q-38 -57 -118 -57q-67 0 -114 22t-79.5 62.5t-49.5 88t-17 98.5q0 120 73 215t207 95q50 0 92 -10q0 19 -4 95t-5 131l176 7q-11 -214 -11 -374q0 -210 11 -418zM417 748q0 78 -1.5 146t-6.5 141q-30 20 -74 20q-31 0 -56.5 -14
t-42.5 -38.5t-25.5 -55.5t-8.5 -67q0 -67 32.5 -112.5t85.5 -45.5q63 0 97 26zM495 1417z" />
    <glyph glyph-name="e.superior" horiz-adv-x="580" 
d="M552 940q0 -43 -2 -88l-350 -7q10 -42 48.5 -80.5t108.5 -38.5q83 0 190 32l-17 -134q-99 -29 -193 -29q-153 0 -227.5 79.5t-74.5 201.5q0 120 73 212t204 92q119 0 179.5 -68t60.5 -172zM390 958q-3 52 -24.5 75.5t-58.5 23.5q-81 0 -100 -103z" />
    <glyph glyph-name="f.superior" horiz-adv-x="433" 
d="M439 1391l-28 -125q-49 16 -91 16q-22 0 -32.5 -19.5t-12.5 -115.5q26 0 146 8l-8 -136q-115 1 -138 1q0 -161 3.5 -266t5.5 -147h-171q4 88 7 190t3 223q-22 0 -114 -1l8 136q83 -8 106 -8q3 140 52.5 201.5t149.5 61.5q60 0 114 -19zM225 1417zM205 1158z" />
    <glyph glyph-name="g.superior" horiz-adv-x="639" 
d="M619 1221l-15 -117q-76 0 -95 -17q14 -21 20 -44.5t6 -48.5q0 -83 -59.5 -146t-188.5 -63q-22 0 -49 1.5t-41 3.5q-7 -13 -7 -27q0 -22 60.5 -25.5t117.5 -3.5q233 0 233 -150q0 -115 -94.5 -179.5t-219.5 -64.5q-142 0 -203.5 53t-61.5 136q0 90 81 125v15
q-31 18 -31 71q0 45 39 77v12q-16 12 -30.5 32t-24 45.5t-9.5 52.5q0 88 62 151.5t187 63.5q35 0 61.5 -3.5t69.5 -21.5q9 43 36.5 63t67.5 20t88 -11zM450 549q0 28 -24.5 43.5t-122.5 15.5q-26 0 -55 0.5t-55 3.5q-32 -21 -32 -67q0 -99 138 -99q71 0 111 30.5t40 72.5z
M379 973q0 41 -26.5 65t-64.5 24q-36 0 -61 -22t-25 -61q0 -44 26 -65.5t67 -21.5q34 0 59 20t25 61z" />
    <glyph glyph-name="h.superior" horiz-adv-x="628" 
d="M565 607h-167q6 74 9.5 159t3.5 168q0 67 -24 88.5t-63 21.5q-52 0 -105 -36q0 -69 0.5 -131t1.5 -114t2 -91.5t2 -64.5h-167q1 34 2 79.5t1.5 99.5t0.5 114v124q0 107 -5 198t-14 171l177 9q-2 -72 -3.5 -131.5t-2.5 -159.5h6q58 64 135 64q91 0 150.5 -46.5
t59.5 -152.5q0 -30 -1 -66.5t-1 -69.5q0 -175 2 -233zM145 1417z" />
    <glyph glyph-name="i.superior" horiz-adv-x="305" 
d="M240 607h-172q10 90 10 267q0 142 -24 275l185 23q-9 -80 -9 -298q0 -154 10 -267zM252 1324q0 -36 -26.5 -65t-74.5 -29q-45 0 -69 27t-24 59q0 18 6.5 33.5t27 38t69.5 22.5q42 0 66.5 -22t24.5 -64z" />
    <glyph glyph-name="j.superior" horiz-adv-x="305" 
d="M239 1174q-11 -179 -11 -248v-109q0 -40 3 -110.5t3 -99.5q0 -185 -183 -238l-53 80q29 23 45.5 45t21.5 41q15 56 15 262q0 212 -26 354zM254 1326q0 -36 -26.5 -65t-74.5 -29q-45 0 -69 27t-24 59q0 18 6.5 33.5t27 38t69.5 22.5q42 0 66.5 -22t24.5 -64zM158 607z" />
    <glyph glyph-name="k.superior" horiz-adv-x="594" 
d="M583 607h-195q0 38 -70.5 148.5t-89.5 110.5h-6q0 -125 14 -259h-169q4 97 6.5 207t2.5 210q0 96 -5 187.5t-14 181.5l179 9q-3 -54 -4.5 -168t-9.5 -266h6q19 0 78.5 77t59.5 113h179q0 -27 -73 -110.5t-125 -106.5v-9q52 -28 144 -162t92 -163zM165 1417z" />
    <glyph glyph-name="l.superior" horiz-adv-x="315" 
d="M245 607h-177q3 43 7 182t4 235q0 101 -4.5 191.5t-13.5 177.5l184 9q-3 -35 -7.5 -128t-4.5 -250q0 -120 4.5 -246.5t7.5 -170.5zM165 1417z" />
    <glyph glyph-name="m.superior" horiz-adv-x="940" 
d="M872 607h-170q8 85 12 166.5t4 160.5q0 59 -23.5 84.5t-66.5 25.5q-37 0 -77 -24q-3 -70 -3 -126q0 -134 4 -287h-170q9 92 12 174t3 163q0 55 -20 77.5t-68 22.5q-45 0 -82 -28q1 -23 1.5 -62t1 -91.5t0.5 -117.5v-138h-170q5 90 8 167t3 118q0 57 -7.5 121.5
t-21.5 136.5l161 24l5 -63h10q51 64 142 64q107 0 145 -64h11q61 64 151 64q94 0 149.5 -48.5t55.5 -150.5q0 -23 -1.5 -52.5t-1.5 -51.5q0 -145 3 -265z" />
    <glyph glyph-name="uni207F" unicode="&#x207f;" horiz-adv-x="628" 
d="M564 607h-167q8 80 11 161t3 166q0 60 -23.5 85t-63.5 25q-54 0 -103 -36q1 -23 1.5 -61.5t1 -90t0.5 -114.5v-135h-170q5 90 8 167t3 118q0 60 -7.5 124.5t-21.5 134.5l166 23l5 -59l10 1q53 59 148 59q91 0 145 -51t54 -148q0 -42 -0.5 -71.5t-0.5 -72.5q0 -97 1 -225z
" />
    <glyph glyph-name="o.superior" horiz-adv-x="637" 
d="M600 897q0 -142 -85 -225.5t-207 -83.5q-112 0 -191.5 75t-79.5 205q0 146 84.5 229t208.5 83q112 0 191 -74.5t79 -208.5zM437 880q0 76 -34.5 127t-84.5 51q-56 0 -87 -46t-31 -123q0 -74 34.5 -126t85.5 -52q56 0 86.5 45t30.5 124z" />
    <glyph glyph-name="p.superior" horiz-adv-x="633" 
d="M596 902q0 -120 -71 -213.5t-207 -93.5q-58 0 -94 20q0 -73 1 -133.5t3 -111.5h-174q8 82 11 173t3 197q0 122 -8 224t-23 187l168 23l5 -55h11q57 57 134 57q119 0 180 -78.5t61 -195.5zM431 891q0 72 -34 114t-84 42q-31 0 -55.5 -9.5t-40.5 -24.5q4 -85 6 -152t2 -127
q30 -19 72 -19q66 0 100 50.5t34 125.5z" />
    <glyph glyph-name="q.superior" horiz-adv-x="644" 
d="M583 371h-170q5 183 5 287h-10q-56 -62 -140 -62q-109 0 -170.5 74t-61.5 200q0 128 71.5 217.5t207.5 89.5q75 0 114 -37h7l26 17l121 10q-10 -237 -10 -381q0 -147 10 -415zM416 760q0 92 -2 158t-6 121q-30 18 -72 18q-66 0 -100 -50.5t-34 -125.5q0 -34 8.5 -62
t23.5 -49t37.5 -33t48.5 -12q63 0 96 35z" />
    <glyph glyph-name="r.superior" horiz-adv-x="442" 
d="M442 1156l-41 -140q-29 17 -80 17q-63 0 -100 -63q3 -242 4 -363h-168q10 161 10 285q0 61 -7 124t-23 135l166 23q2 -15 4 -55h11q45 56 112 56q55 0 112 -19z" />
    <glyph glyph-name="s.superior" horiz-adv-x="494" 
d="M453 778q0 -181 -231 -181q-114 0 -201 24l30 143q104 -42 171 -42q80 0 80 30q0 26 -30.5 42.5t-62 29.5t-61.5 28.5t-47 29.5h1q-64 50 -64 118q0 70 53.5 121t164.5 51q90 0 184 -24l-29 -137q-82 36 -177 36q-44 0 -44 -27q0 -19 29 -36t61 -30t62 -28t47 -28
q64 -52 64 -120z" />
    <glyph glyph-name="t.superior" horiz-adv-x="431" 
d="M417 751l-7 -128q-65 -26 -111 -26q-105 0 -153 51t-48 190v187q-17 0 -87 -7l8 136q66 -7 86 -7q3 81 8 144l155 17q-11 -115 -11 -161q34 1 150 9l-8 -137q-116 6 -145 6q-3 -51 -3 -151q0 -101 16 -124t54 -23t96 24zM185 1158z" />
    <glyph glyph-name="u.superior" horiz-adv-x="628" 
d="M568 607l-142 -5q-4 31 -4 36h-5q-59 -42 -148 -42q-106 0 -157 50t-51 191q0 26 1.5 80t1.5 80q0 83 -14 156l177 7q-1 -25 -4.5 -86t-3.5 -115q0 -170 15 -201.5t59 -31.5q65 0 107 25q0 143 -10 398l171 8q-6 -89 -6 -297q0 -59 3 -122t10 -131z" />
    <glyph glyph-name="v.superior" horiz-adv-x="571" 
d="M550 1158q0 -43 -110 -279.5t-110 -271.5h-133q0 35 -92.5 266.5t-92.5 284.5h174q0 -43 47.5 -179t50.5 -179h6q5 43 47 168t42 190h171z" />
    <glyph glyph-name="w.superior" horiz-adv-x="901" 
d="M865 1158q0 -79 -98.5 -300t-98.5 -251h-134q0 43 -44 165l-55 154q-11 -35 -59.5 -155.5t-48.5 -163.5h-134q0 60 -82 270q-85 219 -85 281h164q0 -43 47.5 -183t50.5 -175h6q5 43 47 168t42 190h148q0 -43 37.5 -183t40.5 -175h6q5 43 47 168t42 190h161z" />
    <glyph glyph-name="x.superior" horiz-adv-x="600" 
d="M572 607h-186q0 20 -50 108.5t-53 103.5h-6q-5 -23 -47 -107.5t-42 -104.5h-168q0 52 81.5 159t105.5 133q-17 20 -91 116.5t-74 142.5h185q0 -20 37.5 -98.5t40.5 -93.5h6q5 23 37 97.5t32 94.5h169q0 -25 -74.5 -132t-89.5 -124q13 -14 100 -142t87 -153z" />
    <glyph glyph-name="y.superior" horiz-adv-x="571" 
d="M542 1158q0 -32 -20.5 -95t-90 -231.5t-80.5 -208.5q-18 -64 -37.5 -114t-36.5 -69q-24 -29 -77.5 -45t-133.5 -16l-8 130q85 0 121 36v-1q32 32 32 91q0 28 -70.5 201.5l-95.5 235t-25 86.5h181q0 -43 42.5 -188t45.5 -180h6q5 43 52 173t47 195h148zM268 607z" />
    <glyph glyph-name="z.superior" horiz-adv-x="511" 
d="M488 752l-8 -145h-452l5 121q17 17 133 144.5t116 141.5v12q-124 0 -255 -9l11 141h433l-7 -121q-22 -23 -130.5 -144.5t-108.5 -137.5v-15q63 1 133.5 4t129.5 8z" />
    <glyph glyph-name="ampersand" unicode="&#x26;" horiz-adv-x="1396" 
d="M1373 0h-296q0 29 -46 108.5t-81 116.5h-15q-190 -254 -470 -254q-186 0 -294.5 94t-108.5 255q0 129 73 239.5t212 169.5v14q-177 135 -177 282q0 142 114.5 220.5t265.5 78.5q144 0 249 -72.5t105 -204.5q0 -183 -196 -272v-15q91 -49 254 -211h15q41 67 41 213h251
q0 -41 -63 -155t-116 -167v-14q80 -74 181.5 -227t101.5 -199zM857 338v15q-60 68 -159.5 163.5t-212.5 148.5q-169 -77 -169 -277q0 -103 61 -166q63 -66 172 -66q156 0 308 182zM698 1008q0 72 -41 113t-106 41q-63 0 -106.5 -36.5t-43.5 -93.5q0 -119 175 -198
q122 57 122 174z" />
    <glyph glyph-name="ampersand.c2sc" horiz-adv-x="1229" 
d="M1210 0h-287q0 26 -34.5 86t-62.5 88h-15q-166 -198 -401 -198q-169 0 -265.5 78t-96.5 210q0 100 63.5 187.5t183.5 136.5v13q-155 109 -155 233q0 120 105 186t243 66q130 0 225.5 -60t95.5 -169q0 -145 -173 -223v-15q73 -38 199 -153h15q36 53 36 159h241
q0 -34 -59 -123.5t-107 -133.5v-14q72 -62 160.5 -189t88.5 -165zM736 276v13q-48 53 -129.5 127.5t-176.5 115.5q-134 -57 -134 -213q0 -78 47 -126q51 -52 142 -52q133 0 251 135zM613 826q0 116 -123 116q-55 0 -91 -29t-36 -73q0 -94 145 -154q105 47 105 140z" />
    <glyph glyph-name="grave" unicode="`" horiz-adv-x="562" 
d="M512 1086h-175q0 16 -138 164t-138 160h271q0 -11 90 -159.5t90 -164.5z" />
    <glyph glyph-name="glyph431" horiz-adv-x="562" 
d="M512 1416h-175q-10 16 -143 139t-133 135h291q0 -11 80 -134.5t80 -139.5z" />
    <glyph glyph-name="gravecomb" unicode="&#x300;" horiz-adv-x="0" 
d="M-398 1086h-175q0 16 -138 164t-138 160h271q0 -11 90 -159.5t90 -164.5z" />
    <glyph glyph-name="glyph433" horiz-adv-x="0" 
d="M-460 1416h-175q-10 16 -143 139t-133 135h291q0 -11 80 -134.5t80 -139.5z" />
    <glyph glyph-name="acute" unicode="&#xb4;" horiz-adv-x="562" 
d="M510 1410q0 -12 -138 -160t-138 -164h-175q0 16 90 164.5t90 159.5h271z" />
    <glyph glyph-name="glyph435" horiz-adv-x="562" 
d="M513 1690q0 -12 -133 -135t-143 -139h-175q0 16 80 139.5t80 134.5h291z" />
    <glyph glyph-name="acutecomb" unicode="&#x301;" horiz-adv-x="0" 
d="M-172 1410q0 -12 -138 -160t-138 -164h-175q0 16 90 164.5t90 159.5h271z" />
    <glyph glyph-name="glyph437" horiz-adv-x="0" 
d="M-333 1690q0 -12 -133 -135t-143 -139h-175q0 16 80 139.5t80 134.5h291z" />
    <glyph glyph-name="circumflex" unicode="&#x2c6;" horiz-adv-x="782" 
d="M711 1086h-155q0 16 -166 194q-166 -178 -166 -194h-155q0 16 95 164.5t95 159.5h262q0 -11 95 -159.5t95 -164.5z" />
    <glyph glyph-name="glyph439" horiz-adv-x="782" 
d="M711 1416h-155q-10 16 -166 134q-156 -118 -166 -134h-155q0 16 100 139.5t100 134.5h242q0 -11 100 -134.5t100 -139.5z" />
    <glyph glyph-name="uni0302" unicode="&#x302;" horiz-adv-x="0" 
d="M-172 1086h-155q0 16 -166 194q-166 -178 -166 -194h-155q0 16 95 164.5t95 159.5h262q0 -11 95 -159.5t95 -164.5z" />
    <glyph glyph-name="glyph441" horiz-adv-x="0" 
d="M-294 1416h-155q-10 16 -166 134q-156 -118 -166 -134h-155q0 16 100 139.5t100 134.5h242q0 -11 100 -134.5t100 -139.5z" />
    <glyph glyph-name="caron" unicode="&#x2c7;" horiz-adv-x="782" 
d="M711 1410q0 -16 -95 -164.5t-95 -159.5h-262q0 11 -95 159.5t-95 164.5h155q0 -16 166 -194q166 178 166 194h155z" />
    <glyph glyph-name="glyph443" horiz-adv-x="782" 
d="M711 1690q0 -16 -100 -139.5t-100 -134.5h-242q0 11 -100 134.5t-100 139.5h155q10 -16 166 -134q156 118 166 134h155z" />
    <glyph glyph-name="uni030C" unicode="&#x30c;" horiz-adv-x="0" 
d="M-167 1410q0 -16 -95 -164.5t-95 -159.5h-262q0 11 -95 159.5t-95 164.5h155q0 -16 166 -194q166 178 166 194h155z" />
    <glyph glyph-name="glyph445" horiz-adv-x="0" 
d="M-305 1690q0 -16 -100 -139.5t-100 -134.5h-242q0 11 -100 134.5t-100 139.5h155q10 -16 166 -134q156 118 166 134h155z" />
    <glyph glyph-name="uni0315" unicode="&#x315;" horiz-adv-x="166" 
d="M236 1177q0 -222 -204 -351l-66 55q54 89 54 174q-80 39 -80 120q0 62 43 107.5t119 45.5q63 0 98.5 -46t35.5 -105z" />
    <glyph glyph-name="tilde" unicode="&#x2dc;" horiz-adv-x="884" 
d="M820 1355q-112 -226 -256 -226q-46 0 -121.5 23t-115.5 23q-91 0 -176 -107l-89 75q112 226 256 226q50 0 124 -23t113 -23q91 0 176 107z" />
    <glyph glyph-name="glyph448" horiz-adv-x="884" 
d="M820 1625q-112 -196 -256 -196q-46 0 -121.5 23t-115.5 23q-91 0 -176 -67l-89 75q112 186 256 186q50 0 124 -23t113 -23q91 0 176 77z" />
    <glyph glyph-name="tildecomb" unicode="&#x303;" horiz-adv-x="0" 
d="M-127 1355q-112 -226 -256 -226q-46 0 -121.5 23t-115.5 23q-91 0 -176 -107l-89 75q112 226 256 226q50 0 124 -23t113 -23q91 0 176 107z" />
    <glyph glyph-name="glyph450" horiz-adv-x="0" 
d="M-258 1625q-112 -196 -256 -196q-46 0 -121.5 23t-115.5 23q-91 0 -176 -67l-89 75q112 186 256 186q50 0 124 -23t113 -23q91 0 176 77z" />
    <glyph glyph-name="dieresis" unicode="&#xa8;" horiz-adv-x="836" 
d="M753 1251q0 -58 -39.5 -101.5t-110.5 -43.5q-60 0 -93.5 37.5t-33.5 90.5q0 57 40.5 100t111.5 43q60 0 92.5 -37t32.5 -89zM358 1251q0 -58 -39.5 -101.5t-110.5 -43.5q-59 0 -92.5 37.5t-33.5 90.5q0 58 40 100.5t111 42.5q60 0 92.5 -37t32.5 -89z" />
    <glyph glyph-name="glyph452" horiz-adv-x="836" 
d="M753 1567q0 -58 -39.5 -101.5t-110.5 -43.5q-60 0 -93.5 37.5t-33.5 90.5q0 57 40.5 100t111.5 43q60 0 92.5 -37t32.5 -89zM358 1567q0 -58 -39.5 -101.5t-110.5 -43.5q-59 0 -92.5 37.5t-33.5 90.5q0 58 40 100.5t111 42.5q60 0 92.5 -37t32.5 -89z" />
    <glyph glyph-name="uni0308" unicode="&#x308;" horiz-adv-x="0" 
d="M-145 1251q0 -58 -39.5 -101.5t-110.5 -43.5q-60 0 -93.5 37.5t-33.5 90.5q0 57 40.5 100t111.5 43q60 0 92.5 -37t32.5 -89zM-540 1251q0 -58 -39.5 -101.5t-110.5 -43.5q-59 0 -92.5 37.5t-33.5 90.5q0 58 40 100.5t111 42.5q60 0 92.5 -37t32.5 -89z" />
    <glyph glyph-name="glyph454" horiz-adv-x="0" 
d="M-264 1567q0 -58 -39.5 -101.5t-110.5 -43.5q-60 0 -93.5 37.5t-33.5 90.5q0 57 40.5 100t111.5 43q60 0 92.5 -37t32.5 -89zM-659 1567q0 -58 -39.5 -101.5t-110.5 -43.5q-59 0 -92.5 37.5t-33.5 90.5q0 58 40 100.5t111 42.5q60 0 92.5 -37t32.5 -89z" />
    <glyph glyph-name="macron" unicode="&#xaf;" horiz-adv-x="500" 
d="M497 1335l-12 -174h-484l11 174h485z" />
    <glyph glyph-name="macron" unicode="&#x2c9;" horiz-adv-x="500" 
d="M497 1335l-12 -174h-484l11 174h485z" />
    <glyph glyph-name="glyph456" horiz-adv-x="500" 
d="M507 1621l-12 -174h-504l11 174h505z" />
    <glyph glyph-name="uni0304" unicode="&#x304;" horiz-adv-x="0" 
d="M-253 1335l-12 -174h-484l11 174h485z" />
    <glyph glyph-name="glyph458" horiz-adv-x="0" 
d="M-361 1621l-12 -174h-504l11 174h505z" />
    <glyph glyph-name="breve" unicode="&#x2d8;" horiz-adv-x="782" 
d="M719 1360q-94 -286 -327 -286q-246 0 -329 286l132 60q92 -182 196 -182q100 0 196 182z" />
    <glyph glyph-name="glyph460" horiz-adv-x="782" 
d="M719 1630q-94 -251 -327 -251q-246 0 -329 251l132 60q72 -147 196 -147q120 0 196 147z" />
    <glyph glyph-name="uni0306" unicode="&#x306;" horiz-adv-x="0" 
d="M-168 1360q-94 -286 -327 -286q-246 0 -329 286l132 60q92 -182 196 -182q100 0 196 182z" />
    <glyph glyph-name="glyph462" horiz-adv-x="0" 
d="M-317 1630q-94 -251 -327 -251q-246 0 -329 251l132 60q72 -147 196 -147q120 0 196 147z" />
    <glyph glyph-name="ring" unicode="&#x2da;" horiz-adv-x="610" 
d="M543 1289q0 -115 -77.5 -182.5t-177.5 -67.5q-90 0 -155.5 57.5t-65.5 163.5q0 114 77.5 180t177.5 66q90 0 155.5 -56.5t65.5 -160.5zM429 1280q0 60 -33.5 92t-81.5 32q-52 0 -92 -37t-40 -101q0 -60 33.5 -92.5t81.5 -32.5q52 0 92 37.5t40 101.5z" />
    <glyph glyph-name="glyph464" horiz-adv-x="610" 
d="M543 1605q0 -115 -77.5 -182.5t-177.5 -67.5q-90 0 -155.5 57.5t-65.5 163.5q0 114 77.5 180t177.5 66q90 0 155.5 -56.5t65.5 -160.5zM429 1596q0 60 -33.5 92t-81.5 32q-52 0 -92 -37t-40 -101q0 -60 33.5 -92.5t81.5 -32.5q52 0 92 37.5t40 101.5z" />
    <glyph glyph-name="uni030A" unicode="&#x30a;" horiz-adv-x="0" 
d="M-270 1289q0 -115 -77.5 -182.5t-177.5 -67.5q-90 0 -155.5 57.5t-65.5 163.5q0 114 77.5 180t177.5 66q90 0 155.5 -56.5t65.5 -160.5zM-384 1280q0 60 -33.5 92t-81.5 32q-52 0 -92 -37t-40 -101q0 -60 33.5 -92.5t81.5 -32.5q52 0 92 37.5t40 101.5z" />
    <glyph glyph-name="glyph466" horiz-adv-x="0" 
d="M-384 1605q0 -115 -77.5 -182.5t-177.5 -67.5q-90 0 -155.5 57.5t-65.5 163.5q0 114 77.5 180t177.5 66q90 0 155.5 -56.5t65.5 -160.5zM-498 1596q0 60 -33.5 92t-81.5 32q-52 0 -92 -37t-40 -101q0 -60 33.5 -92.5t81.5 -32.5q52 0 92 37.5t40 101.5z" />
    <glyph glyph-name="hungarumlaut" unicode="&#x2dd;" horiz-adv-x="882" 
d="M415 1410q0 -22 -92 -165t-92 -159h-149q0 16 35 159.5t35 164.5h263zM802 1410q0 -22 -92 -165t-92 -159h-149q0 16 35 159.5t35 164.5h263z" />
    <glyph glyph-name="glyph468" horiz-adv-x="882" 
d="M432 1690q0 -22 -92 -140t-102 -134h-149q0 16 35 134.5t35 139.5h273zM819 1690q0 -22 -92 -140t-102 -134h-149q0 16 35 134.5t35 139.5h273z" />
    <glyph glyph-name="uni030B" unicode="&#x30b;" horiz-adv-x="0" 
d="M-457 1410q0 -22 -92 -165t-92 -159h-149q0 16 35 159.5t35 164.5h263zM-70 1410q0 -22 -92 -165t-92 -159h-149q0 16 35 159.5t35 164.5h263z" />
    <glyph glyph-name="glyph470" horiz-adv-x="0" 
d="M-557 1690q0 -22 -92 -140t-102 -134h-149q0 16 35 134.5t35 139.5h273zM-170 1690q0 -22 -92 -140t-102 -134h-149q0 16 35 134.5t35 139.5h273z" />
    <glyph glyph-name="dotaccent" unicode="&#x2d9;" horiz-adv-x="526" 
d="M441 1252q0 -68 -46.5 -119t-129.5 -51q-70 0 -109.5 44t-39.5 106q0 68 46.5 118t130.5 50q71 0 109.5 -43.5t38.5 -104.5z" />
    <glyph glyph-name="glyph472" horiz-adv-x="526" 
d="M441 1566q0 -68 -46.5 -119t-129.5 -51q-70 0 -109.5 44t-39.5 106q0 68 46.5 118t130.5 50q71 0 109.5 -43.5t38.5 -104.5z" />
    <glyph glyph-name="uni0307" unicode="&#x307;" horiz-adv-x="0" 
d="M-332 1252q0 -68 -46.5 -119t-129.5 -51q-70 0 -109.5 44t-39.5 106q0 68 46.5 118t130.5 50q71 0 109.5 -43.5t38.5 -104.5z" />
    <glyph glyph-name="glyph474" horiz-adv-x="0" 
d="M-456 1566q0 -68 -46.5 -119t-129.5 -51q-70 0 -109.5 44t-39.5 106q0 68 46.5 118t130.5 50q71 0 109.5 -43.5t38.5 -104.5z" />
    <glyph glyph-name="cedilla" unicode="&#xb8;" horiz-adv-x="470" 
d="M421 -287q0 -227 -246 -227l-24 112q40 0 69 29.5t29 65.5q0 101 -129 125l41 234l87 -14l-16 -130q189 -47 189 -195z" />
    <glyph glyph-name="uni0327" unicode="&#x327;" horiz-adv-x="0" 
d="M-55 -287q0 -227 -246 -227l-24 112q40 0 69 29.5t29 65.5q0 101 -129 125l41 234l87 -14l-16 -130q189 -47 189 -195z" />
    <glyph glyph-name="ogonek" unicode="&#x2db;" horiz-adv-x="470" 
d="M412 -468q-62 -18 -139 -18q-143 0 -208.5 59t-65.5 157q0 164 127 290h188q-128 -71 -128 -222q0 -127 119 -127q31 0 79 10z" />
    <glyph glyph-name="uni0328" unicode="&#x328;" horiz-adv-x="0" 
d="M-31 -468q-62 -18 -139 -18q-143 0 -208.5 59t-65.5 157q0 164 127 290h188q-128 -71 -128 -222q0 -127 119 -127q31 0 79 10z" />
    <glyph glyph-name="uni0326" unicode="&#x326;" horiz-adv-x="0" 
d="M-350 -210q0 -188 -200 -314l-64 54q58 75 58 156q-64 38 -64 102q0 61 37 100.5t102 39.5q61 0 96 -40t35 -98z" />
    <glyph glyph-name="uni0312" unicode="&#x312;" horiz-adv-x="0" 
d="M-404 1235q0 -62 -43 -107.5t-119 -45.5q-63 0 -98.5 46t-35.5 105q0 222 204 351l64 -54q-49 -66 -49 -159q77 -50 77 -136z" />
    <glyph glyph-name="comma" unicode="," horiz-adv-x="516" 
d="M428 156q0 -261 -320 -555l-89 76q136 151 136 327q-76 46 -76 149q0 72 51 126t141 54q74 0 115.5 -54t41.5 -123zM240 -10z" />
    <glyph glyph-name="semicolon" unicode=";" horiz-adv-x="516" 
d="M428 156q0 -261 -320 -555l-89 76q136 151 136 327q-76 46 -76 149q0 72 51 126t141 54q74 0 115.5 -54t41.5 -123zM240 -10zM430 798q0 -73 -50.5 -128.5t-139.5 -55.5q-75 0 -117 48t-42 115q0 73 50.5 126.5t140.5 53.5q76 0 117 -46.5t41 -112.5z" />
    <glyph glyph-name="colon" unicode=":" horiz-adv-x="516" 
d="M430 174q0 -73 -50.5 -128.5t-139.5 -55.5q-75 0 -117 48t-42 115q0 73 50.5 126.5t140.5 53.5q76 0 117 -46.5t41 -112.5zM430 798q0 -73 -50.5 -128.5t-139.5 -55.5q-75 0 -117 48t-42 115q0 73 50.5 126.5t140.5 53.5q76 0 117 -46.5t41 -112.5z" />
    <glyph glyph-name="period" unicode="." horiz-adv-x="516" 
d="M430 174q0 -73 -50.5 -128.5t-139.5 -55.5q-75 0 -117 48t-42 115q0 73 50.5 126.5t140.5 53.5q76 0 117 -46.5t41 -112.5z" />
    <glyph glyph-name="ellipsis" unicode="&#x2026;" horiz-adv-x="2048" 
d="M430 174q0 -73 -50.5 -128.5t-139.5 -55.5q-75 0 -117 48t-42 115q0 73 50.5 126.5t140.5 53.5q76 0 117 -46.5t41 -112.5zM1048 174q0 -73 -50.5 -128.5t-139.5 -55.5q-75 0 -117 48t-42 115q0 73 50.5 126.5t140.5 53.5q76 0 117 -46.5t41 -112.5zM1666 174
q0 -73 -50.5 -128.5t-139.5 -55.5q-75 0 -117 48t-42 115q0 73 50.5 126.5t140.5 53.5q76 0 117 -46.5t41 -112.5z" />
    <glyph glyph-name="hyphen" unicode="-" horiz-adv-x="516" 
d="M479 605l-12 -180l-428 -15l9 180z" />
    <glyph glyph-name="hyphen" unicode="&#x2010;" horiz-adv-x="516" 
d="M479 605l-12 -180l-428 -15l9 180z" />
    <glyph glyph-name="hyphen" unicode="&#xad;" horiz-adv-x="516" 
d="M479 605l-12 -180l-428 -15l9 180z" />
    <glyph glyph-name="hyphen.case" horiz-adv-x="516" 
d="M479 802l-12 -180l-428 -15l9 180z" />
    <glyph glyph-name="exclam" unicode="!" horiz-adv-x="516" 
d="M427 1154q0 -195 -117 -617h-102q-86 435 -86 611q0 190 160 190q145 0 145 -184zM430 174q0 -73 -50.5 -128.5t-139.5 -55.5q-75 0 -117 48t-42 115q0 73 50.5 126.5t140.5 53.5q76 0 117 -46.5t41 -112.5z" />
    <glyph glyph-name="exclamdown" unicode="&#xa1;" horiz-adv-x="516" 
d="M394 -181q0 -190 -160 -190q-145 0 -145 184q0 195 117 617h102q86 -435 86 -611zM435 814q0 -72 -50.5 -126t-140.5 -54q-76 0 -117 46.5t-41 112.5q0 74 50.5 129t139.5 55q75 0 117 -48t42 -115z" />
    <glyph glyph-name="exclamdown.case" horiz-adv-x="516" 
d="M394 150q0 -190 -160 -190q-145 0 -145 184q0 195 117 617h102q86 -435 86 -611zM435 1145q0 -72 -50.5 -126t-140.5 -54q-76 0 -117 46.5t-41 112.5q0 74 50.5 129t139.5 55q75 0 117 -48t42 -115z" />
    <glyph glyph-name="question" unicode="?" horiz-adv-x="723" 
d="M681 1033q0 -216 -279 -345l-21 -151h-133l-38 213q215 63 215 208q0 177 -371 188l23 189q311 0 457.5 -65.5t146.5 -236.5zM472 174q0 -73 -50.5 -128.5t-139.5 -55.5q-75 0 -117 48t-42 115q0 73 50.5 126.5t140.5 53.5q76 0 117 -46.5t41 -112.5z" />
    <glyph glyph-name="questiondown" unicode="&#xbf;" horiz-adv-x="723" 
d="M669 -172l-23 -189q-311 0 -457.5 65.5t-146.5 236.5q0 216 279 345l21 151h133l38 -213q-215 -62 -215 -208q0 -177 371 -188zM600 821q0 -72 -50.5 -126t-140.5 -54q-76 0 -117 46.5t-41 112.5q0 74 50 129t140 55q75 0 117 -48t42 -115z" />
    <glyph glyph-name="questiondown.case" horiz-adv-x="723" 
d="M669 159l-23 -189q-311 0 -457.5 65.5t-146.5 236.5q0 216 279 345l21 151h133l38 -213q-215 -62 -215 -208q0 -177 371 -188zM600 1152q0 -72 -50.5 -126t-140.5 -54q-76 0 -117 46.5t-41 112.5q0 74 50 129t140 55q75 0 117 -48t42 -115z" />
    <glyph glyph-name="quoteleft" unicode="&#x2018;" horiz-adv-x="516" 
d="M463 1364q-136 -151 -136 -329q76 -46 76 -147q0 -73 -50.5 -126.5t-140.5 -53.5q-74 0 -115.5 54t-41.5 123q0 262 319 555zM224 1051z" />
    <glyph glyph-name="quoteright" unicode="&#x2019;" horiz-adv-x="516" 
d="M463 1253q0 -262 -319 -555l-89 76q136 151 136 329q-76 46 -76 147q0 73 50.5 126.5t140.5 53.5q74 0 115.5 -54t41.5 -123zM284 1087z" />
    <glyph glyph-name="quoteleft.c2sc" horiz-adv-x="516" 
d="M463 1265q-136 -151 -136 -329q76 -46 76 -147q0 -73 -50.5 -126.5t-140.5 -53.5q-74 0 -115.5 54t-41.5 123q0 262 319 555zM224 952z" />
    <glyph glyph-name="quoteright.c2sc" horiz-adv-x="516" 
d="M463 1154q0 -262 -319 -555l-89 76q136 151 136 329q-76 46 -76 147q0 73 50.5 126.5t140.5 53.5q74 0 115.5 -54t41.5 -123zM284 988z" />
    <glyph glyph-name="quotedblleft" unicode="&#x201c;" 
d="M463 1364q-136 -151 -136 -329q76 -46 76 -147q0 -73 -50.5 -126.5t-140.5 -53.5q-74 0 -115.5 54t-41.5 123q0 262 319 555zM224 1051zM972 1364q-136 -151 -136 -329q76 -46 76 -147q0 -73 -50.5 -126.5t-140.5 -53.5q-74 0 -115.5 54t-41.5 123q0 262 319 555z
M733 1051z" />
    <glyph glyph-name="quotedblright" unicode="&#x201d;" 
d="M463 1253q0 -262 -319 -555l-89 76q136 151 136 329q-76 46 -76 147q0 73 50.5 126.5t140.5 53.5q74 0 115.5 -54t41.5 -123zM284 1087zM972 1253q0 -262 -319 -555l-89 76q136 151 136 329q-76 46 -76 147q0 73 50.5 126.5t140.5 53.5q74 0 115.5 -54t41.5 -123z
M793 1087z" />
    <glyph glyph-name="quotedblleft.c2sc" 
d="M463 1265q-136 -151 -136 -329q76 -46 76 -147q0 -73 -50.5 -126.5t-140.5 -53.5q-74 0 -115.5 54t-41.5 123q0 262 319 555zM224 952zM972 1265q-136 -151 -136 -329q76 -46 76 -147q0 -73 -50.5 -126.5t-140.5 -53.5q-74 0 -115.5 54t-41.5 123q0 262 319 555zM733 952
z" />
    <glyph glyph-name="quotedblright.c2sc" 
d="M463 1154q0 -262 -319 -555l-89 76q136 151 136 329q-76 46 -76 147q0 73 50.5 126.5t140.5 53.5q74 0 115.5 -54t41.5 -123zM284 988zM972 1154q0 -262 -319 -555l-89 76q136 151 136 329q-76 46 -76 147q0 73 50.5 126.5t140.5 53.5q74 0 115.5 -54t41.5 -123zM793 988
z" />
    <glyph glyph-name="quotesinglbase" unicode="&#x201a;" horiz-adv-x="516" 
d="M428 156q0 -261 -320 -555l-89 76q136 151 136 327q-76 46 -76 149q0 72 51 126t141 54q74 0 115.5 -54t41.5 -123zM240 -10z" />
    <glyph glyph-name="quotedblbase" unicode="&#x201e;" 
d="M428 156q0 -261 -320 -555l-89 76q136 151 136 327q-76 46 -76 149q0 72 51 126t141 54q74 0 115.5 -54t41.5 -123zM240 -10zM960 156q0 -261 -320 -555l-89 76q136 151 136 327q-76 46 -76 149q0 72 51 126t141 54q74 0 115.5 -54t41.5 -123zM772 -10z" />
    <glyph glyph-name="guilsinglleft" unicode="&#x2039;" horiz-adv-x="516" 
d="M446 244l-82 -118l-294 261v201l294 259l82 -117l-201 -242z" />
    <glyph glyph-name="guilsinglright" unicode="&#x203a;" horiz-adv-x="516" 
d="M446 387l-293 -261l-83 118l202 242l-202 244l83 117l293 -259v-201z" />
    <glyph glyph-name="guilsinglleft.case" horiz-adv-x="516" 
d="M446 384l-82 -118l-294 261v201l294 259l82 -117l-201 -242z" />
    <glyph glyph-name="guilsinglright.case" horiz-adv-x="516" 
d="M446 527l-293 -261l-83 118l202 242l-202 244l83 117l293 -259v-201z" />
    <glyph glyph-name="guillemotleft" unicode="&#xab;" horiz-adv-x="929" 
d="M446 244l-82 -118l-294 261v201l294 259l82 -117l-201 -242zM859 244l-82 -118l-294 261v201l294 259l82 -117l-201 -242z" />
    <glyph glyph-name="guillemotright" unicode="&#xbb;" horiz-adv-x="929" 
d="M446 387l-293 -261l-83 118l202 242l-202 244l83 117l293 -259v-201zM859 387l-293 -261l-83 118l202 242l-202 244l83 117l293 -259v-201z" />
    <glyph glyph-name="guillemotleft.case" horiz-adv-x="929" 
d="M446 384l-82 -118l-294 261v201l294 259l82 -117l-201 -242zM859 384l-82 -118l-294 261v201l294 259l82 -117l-201 -242z" />
    <glyph glyph-name="guillemotright.case" horiz-adv-x="929" 
d="M446 527l-293 -261l-83 118l202 242l-202 244l83 117l293 -259v-201zM859 527l-293 -261l-83 118l202 242l-202 244l83 117l293 -259v-201z" />
    <glyph glyph-name="slash" unicode="/" horiz-adv-x="547" 
d="M542 1455q0 -69 -178 -828.5t-178 -928.5h-181q0 65 179 816.5t179 940.5h179z" />
    <glyph glyph-name="bar" unicode="|" horiz-adv-x="516" 
d="M365 -517h-213q13 566 13 988q0 415 -13 1079h213q-12 -645 -12 -1079q0 -433 12 -988z" />
    <glyph glyph-name="endash" unicode="&#x2013;" horiz-adv-x="1024" 
d="M966 410h-909v180h909v-180z" />
    <glyph glyph-name="endash.case" horiz-adv-x="1024" 
d="M966 607h-909v180h909v-180z" />
    <glyph glyph-name="emdash" unicode="&#x2014;" horiz-adv-x="2048" 
d="M2048 410h-2048v180h2048v-180z" />
    <glyph glyph-name="emdash.case" horiz-adv-x="2048" 
d="M2048 607h-2048v180h2048v-180z" />
    <glyph glyph-name="afii00208" unicode="&#x2015;" horiz-adv-x="2048" 
d="M1995 410h-1942v200h1942v-200z" />
    <glyph glyph-name="afii00208.case" horiz-adv-x="2048" 
d="M1995 607h-1942v200h1942v-200z" />
    <glyph glyph-name="bullet" unicode="&#x2022;" horiz-adv-x="1351" 
d="M982 640q0 -154 -89.5 -240t-213.5 -86q-123 0 -213.5 85.5t-90.5 238.5q0 155 90.5 242t213.5 87t213 -86.5t90 -240.5z" />
    <glyph glyph-name="periodcentered" unicode="&#xb7;" horiz-adv-x="516" 
d="M430 613q0 -73 -50.5 -128.5t-139.5 -55.5q-75 0 -117 48t-42 115q0 73 50.5 126.5t140.5 53.5q76 0 117 -46.5t41 -112.5z" />
    <glyph glyph-name="periodcentered" unicode="&#x2219;" horiz-adv-x="516" 
d="M430 613q0 -73 -50.5 -128.5t-139.5 -55.5q-75 0 -117 48t-42 115q0 73 50.5 126.5t140.5 53.5q76 0 117 -46.5t41 -112.5z" />
    <glyph glyph-name="periodcentered.case" horiz-adv-x="516" 
d="M430 723q0 -73 -50.5 -128.5t-139.5 -55.5q-75 0 -117 48t-42 115q0 73 50.5 126.5t140.5 53.5q76 0 117 -46.5t41 -112.5z" />
    <glyph glyph-name="parenleft" unicode="(" horiz-adv-x="723" 
d="M651 -349l-73 -137q-146 67 -249 185q-250 283 -250 772q0 526 255 841q106 131 255 209l51 -136q-100 -75 -172 -191q-172 -280 -172 -723q0 -381 178 -638q73 -108 177 -182z" />
    <glyph glyph-name="parenright" unicode=")" horiz-adv-x="723" 
d="M651 564q0 -526 -255 -841q-107 -131 -256 -209l-51 137q101 74 173 191q172 279 172 722q0 381 -177 639q-74 108 -178 182l72 136q146 -67 250 -185q250 -283 250 -772z" />
    <glyph glyph-name="parenleft.case" horiz-adv-x="723" 
d="M651 -229l-73 -137q-146 67 -249 185q-250 283 -250 772q0 526 255 841q106 131 255 209l51 -136q-100 -75 -172 -191q-172 -280 -172 -723q0 -381 178 -638q73 -108 177 -182z" />
    <glyph glyph-name="parenright.case" horiz-adv-x="723" 
d="M651 684q0 -526 -255 -841q-107 -131 -256 -209l-51 137q101 74 173 191q172 279 172 722q0 381 -177 639q-74 108 -178 182l72 136q146 -67 250 -185q250 -283 250 -772z" />
    <glyph glyph-name="bracketleft" unicode="[" horiz-adv-x="723" 
d="M599 -274l-10 -212l-471 11q12 501 12 946q0 467 -12 1037l481 13l-10 -211q-181 6 -261 6q-9 -475 -9 -845q0 -278 9 -763q74 2 271 18z" />
    <glyph glyph-name="bracketright" unicode="]" horiz-adv-x="723" 
d="M600 -472l-481 -13l10 211q181 -6 261 -6q9 475 9 845q0 278 -9 763q-74 -2 -271 -18l10 212l471 -11q-12 -501 -12 -946q0 -467 12 -1037z" />
    <glyph glyph-name="bracketleft.case" horiz-adv-x="723" 
d="M599 -154l-10 -212l-471 11q12 501 12 946q0 467 -12 1037l481 13l-10 -211q-181 6 -261 6q-9 -475 -9 -845q0 -278 9 -763q74 2 271 18z" />
    <glyph glyph-name="bracketright.case" horiz-adv-x="723" 
d="M600 -352l-481 -13l10 211q181 -6 261 -6q9 475 9 845q0 278 -9 763q-74 -2 -271 -18l10 212l471 -11q-12 -501 -12 -946q0 -467 12 -1037z" />
    <glyph glyph-name="braceleft" unicode="{" horiz-adv-x="723" 
d="M692 -330l-68 -160q-432 90 -432 319q0 74 43.5 244t43.5 216q0 70 -75.5 106.5t-158.5 42.5v149q242 35 242 155q0 46 -47.5 209.5t-47.5 230.5q0 196 223 287q92 38 222 52l45 -156q-294 -38 -294 -275q0 -52 47 -180t47 -164q0 -113 -93 -176q-68 -47 -136 -47v-15
q68 0 148.5 -53.5t80.5 -165.5q0 -40 -47 -177.5t-47 -182.5q0 -187 304 -259z" />
    <glyph glyph-name="braceright" unicode="}" horiz-adv-x="723" 
d="M692 441q-235 -59 -235 -152q0 -46 44.5 -214t44.5 -240q0 -167 -218 -263q-91 -40 -218 -62l-60 159q286 58 286 260q0 47 -40.5 183.5t-40.5 175.5q0 112 93 173q68 44 137 44v14q-67 0 -148.5 56.5t-81.5 169.5q0 37 40.5 165.5t40.5 178.5q0 221 -282 275l51 157
q129 -18 221 -57q220 -93 220 -276q0 -69 -46.5 -234.5t-46.5 -211.5q0 -69 77.5 -107t161.5 -45v-149z" />
    <glyph glyph-name="braceleft.case" horiz-adv-x="723" 
d="M692 -210l-68 -160q-432 90 -432 319q0 74 43.5 244t43.5 216q0 70 -75.5 106.5t-158.5 42.5v149q242 35 242 155q0 46 -47.5 209.5t-47.5 230.5q0 196 223 287q92 38 222 52l45 -156q-294 -38 -294 -275q0 -52 47 -180t47 -164q0 -113 -93 -176q-68 -47 -136 -47v-15
q68 0 148.5 -53.5t80.5 -165.5q0 -40 -47 -177.5t-47 -182.5q0 -187 304 -259z" />
    <glyph glyph-name="braceright.case" horiz-adv-x="723" 
d="M692 561q-235 -59 -235 -152q0 -46 44.5 -214t44.5 -240q0 -167 -218 -263q-91 -40 -218 -62l-60 159q286 58 286 260q0 47 -40.5 183.5t-40.5 175.5q0 112 93 173q68 44 137 44v14q-67 0 -148.5 56.5t-81.5 169.5q0 37 40.5 165.5t40.5 178.5q0 221 -282 275l51 157
q129 -18 221 -57q220 -93 220 -276q0 -69 -46.5 -234.5t-46.5 -211.5q0 -69 77.5 -107t161.5 -45v-149z" />
    <glyph glyph-name="asterisk" unicode="*" 
d="M940 1058q0 -63 -82 -80q-32 -7 -135 -7q-43 0 -112 2l-8 -26q197 -169 197 -226q0 -41 -44 -81.5t-87 -40.5q-82 0 -151 292h-29q-105 -263 -177 -263q-42 0 -88 35.5t-46 76.5q0 72 232 214l-7 29q-100 12 -269 46q-39 13 -39 74q0 48 23 89t64 41q58 0 262 -156l23 16
q-43 203 -43 271q0 31 34.5 50.5t78.5 19.5q99 0 99 -70q0 -79 -71 -277l22 -20q200 125 260 125q38 0 65.5 -46t27.5 -88z" />
    <glyph glyph-name="dagger" unicode="&#x2020;" horiz-adv-x="723" 
d="M715 942l-10 -191q-66 3 -212 6q0 -479 -85 -1170h-92q-66 695 -66 1170q-50 0 -242 -6l13 191q93 -5 246 -10q-9 203 -48 473l287 21q-15 -133 -33 -494q71 1 242 10z" />
    <glyph glyph-name="daggerdbl" unicode="&#x2021;" horiz-adv-x="723" 
d="M715 529l-10 -198q-131 6 -206 6q1 -226 -91 -750h-92q-73 528 -72 750q-50 0 -236 -6l13 198q201 -10 261 -10q-32 198 -32 238q-56 0 -242 -6l13 191q191 -10 246 -10q-4 203 -48 473l287 21q-16 -133 -33 -494q73 0 242 10l-10 -191q-138 6 -212 6q0 -40 -30 -238
q71 0 252 10z" />
    <glyph glyph-name="section" unicode="&#xa7;" horiz-adv-x="859" 
d="M791 -109q0 -325 -444 -325q-162 0 -283 35l34 197q125 -45 249 -45q213 0 213 108q0 64 -123 174q-212 189 -228 206q-123 133 -123 253q0 201 198 264q-198 176 -198 335q0 137 95.5 228.5t280.5 91.5q177 0 289 -30l-34 -199q-124 44 -255 44q-147 0 -147 -106
q0 -65 123 -169q202 -169 230 -198q123 -132 123 -265q0 -201 -186 -262q186 -167 186 -337zM579 453q0 72 -157 197q-59 0 -90.5 -34.5t-31.5 -84.5q0 -70 161 -191q58 0 88 33.5t30 79.5z" />
    <glyph glyph-name="paragraph" unicode="&#xb6;" horiz-adv-x="1371" 
d="M1199 -413h-271q8 519 8 1128q0 262 -9 493q-32 3 -133 6q-11 -528 -11 -852q0 -497 13 -858h-186q12 365 12 858q0 85 -1 203q-246 3 -371 104t-125 336q0 194 134.5 300t318.5 106q74 0 188 -3t164 -3h269q-13 -275 -13 -711q0 -599 13 -1107z" />
    <glyph glyph-name="Alpha" unicode="&#x391;" horiz-adv-x="1290" 
d="M1279 0h-320q0 66 -91 374h-462q-94 -303 -94 -374h-301q0 39 233.5 640t233.5 662h378q0 -57 211.5 -652.5t211.5 -649.5zM817 565q-171 516 -171 558h-16q0 -39 -177 -558h364z" />
    <glyph glyph-name="Beta" unicode="&#x392;" horiz-adv-x="1224" 
d="M1147 392q0 -398 -651 -398q-113 0 -352 6q13 302 13 681q0 364 -13 621h162q46 0 154.5 3t169.5 3q443 0 443 -288q0 -222 -227 -294v-15q121 -19 211 -94.5t90 -224.5zM877 381q0 199 -349 199q-69 0 -119 -5q0 -209 9 -385q34 -8 102 -8q185 0 271 44.5t86 154.5z
M804 941q0 179 -224 179q-103 0 -183 -15q11 -101 11 -347q38 -2 80 -2q316 0 316 185z" />
    <glyph glyph-name="Gamma" unicode="&#x393;" horiz-adv-x="992" 
d="M970 1302l-7 -219q-312 16 -565 16q13 -171 13 -379q0 -467 9 -720h-276q13 302 13 681q0 364 -13 621h826z" />
    <glyph glyph-name="Delta" unicode="&#x394;" horiz-adv-x="1249" 
d="M1238 0h-1227q0 42 223.5 641.5t223.5 660.5h377q0 -57 201.5 -652.5t201.5 -649.5zM884 203q-32 133 -157 535q-102 330 -102 385h-15q0 -58 -105 -387q-126 -395 -159 -533h538z" />
    <glyph glyph-name="Epsilon" unicode="&#x395;" horiz-adv-x="1080" 
d="M1003 220l-8 -220h-851q13 302 13 681q0 364 -13 621h812l-11 -219q-300 16 -544 16q10 -139 10 -328q209 0 447 11v-209q-234 10 -447 10q0 -203 8 -380q274 0 584 17z" />
    <glyph glyph-name="Zeta" unicode="&#x396;" horiz-adv-x="1054" 
d="M977 226l-7 -226h-893l15 205q109 144 323 478q232 362 232 407v16q-239 0 -553 -23l6 219h856l-14 -207q-110 -152 -308 -470q-224 -360 -224 -407v-15q210 0 567 23z" />
    <glyph glyph-name="Eta" unicode="&#x397;" horiz-adv-x="1338" 
d="M1194 0h-283q10 331 10 574h-504q0 -218 10 -574h-283q13 330 13 681q0 355 -13 621h283q-12 -281 -12 -520h508q0 211 -12 520h283q-14 -254 -14 -621q0 -383 14 -681z" />
    <glyph glyph-name="Theta" unicode="&#x398;" horiz-adv-x="1427" 
d="M1350 675q0 -307 -188 -509t-465 -202q-264 0 -442 185.5t-178 471.5q0 307 188 509t465 202q264 0 442 -185t178 -472zM1074 646q0 209 -107 339t-264 130q-146 0 -248 -131t-102 -331q0 -208 107.5 -338.5t263.5 -130.5q146 0 248 131.5t102 330.5zM903 563
q-80 10 -188 10q-96 0 -190 -10v216q100 -10 194 -10q103 0 184 10v-216z" />
    <glyph glyph-name="Iota" unicode="&#x399;" horiz-adv-x="571" 
d="M427 0h-283q13 310 13 681q0 365 -13 621h283q-13 -252 -13 -621q0 -377 13 -681z" />
    <glyph glyph-name="Kappa" unicode="&#x39a;" horiz-adv-x="1207" 
d="M1196 0h-327q0 46 -169 317q-180 289 -255 289h-30q0 -228 11 -606h-282q13 302 13 681q0 364 -13 621h282q-11 -277 -11 -520h22q44 0 222 246q173 239 173 274h298q0 -33 -183 -249q-189 -223 -276 -284v-15q102 -53 321 -395q204 -318 204 -359z" />
    <glyph glyph-name="Lambda" unicode="&#x39b;" horiz-adv-x="1249" 
d="M1238 0h-321q0 105 -146 584.5t-146 538.5h-15q0 -62 -149 -533.5t-149 -589.5h-301q0 42 223.5 641.5t223.5 660.5h377q0 -57 201.5 -652.5t201.5 -649.5z" />
    <glyph glyph-name="Mu" unicode="&#x39c;" horiz-adv-x="1769" 
d="M1647 0h-291q0 170 -21 573.5t-22 503.5h-15q-10 -60 -53 -222t-161.5 -477.5t-118.5 -377.5h-221q0 64 -113.5 381t-148.5 444t-56 252h-15q-1 -125 -24.5 -536t-23.5 -541h-264q0 30 72.5 601t72.5 701h387q0 -112 122.5 -494t122.5 -489h15q0 108 139.5 490t139.5 493
h384q0 -207 46.5 -738.5t46.5 -563.5z" />
    <glyph glyph-name="Nu" unicode="&#x39d;" horiz-adv-x="1361" 
d="M1217 0h-247q0 41 -275 433q-288 413 -328 565h-16q25 -219 25 -396q0 -247 14 -602h-246q15 310 15 681q0 365 -15 621h297q0 -53 247 -423q263 -393 302 -533h15q-24 223 -24 400q0 271 -14 556h250q-14 -248 -14 -621q0 -376 14 -681z" />
    <glyph glyph-name="Xi" unicode="&#x39e;" horiz-adv-x="1079" 
d="M1013 237l-8 -237h-939l8 237q238 -18 478 -18q226 0 461 18zM999 1302l-9 -235q-255 17 -458 17q-206 0 -445 -17l7 235h905zM876 563q-151 9 -324 9t-344 -9v224q187 -11 340 -11q152 0 328 11v-224z" />
    <glyph glyph-name="Omicron" unicode="&#x39f;" horiz-adv-x="1427" 
d="M1350 675q0 -307 -188 -509t-465 -202q-264 0 -442 185.5t-178 471.5q0 307 188 509t465 202q264 0 442 -185t178 -472zM1074 646q0 209 -107 339t-264 130q-146 0 -248 -131t-102 -331q0 -208 107.5 -338.5t263.5 -130.5q146 0 248 131.5t102 330.5z" />
    <glyph glyph-name="Pi" unicode="&#x3a0;" horiz-adv-x="1315" 
d="M1171 0h-280q10 284 10 660q0 216 18 433h-523q18 -209 18 -420q0 -379 10 -673h-280q12 345 12 685q0 328 -12 617h1027q-12 -275 -12 -617q0 -348 12 -685z" />
    <glyph glyph-name="Rho" unicode="&#x3a1;" horiz-adv-x="1138" 
d="M1094 961q0 -239 -177.5 -353t-435.5 -114q-47 0 -67 2q0 -188 11 -496h-281q13 289 13 681q0 360 -13 621h174q37 0 142 3t182 3q190 0 321 -86t131 -261zM836 906q0 214 -284 214q-71 0 -150 -15q11 -189 11 -428q25 -2 58 -2q365 0 365 231z" />
    <glyph glyph-name="Sigma" unicode="&#x3a3;" horiz-adv-x="1092" 
d="M1037 254l-9 -254h-1006q0 77 472 673v15q-448 513 -448 614h944l-9 -219q-295 23 -509 23l1 -18q2 -42 313 -362q-390 -431 -390 -479v-16q386 0 641 23z" />
    <glyph glyph-name="Tau" unicode="&#x3a4;" horiz-adv-x="1077" 
d="M1055 1302l-7 -215q-200 15 -377 15q-2 -189 -2 -421q0 -360 11 -681h-280q13 318 13 681q0 228 -4 421q-141 0 -387 -16l8 216h1025z" />
    <glyph glyph-name="Upsilon" unicode="&#x3a5;" horiz-adv-x="1130" 
d="M1119 1302q0 -41 -114 -221q-175 -275 -213 -342q-114 -203 -114 -301q0 -220 12 -438h-284q11 219 11 441q0 102 -105 309q-49 96 -196 343q-105 177 -105 209h314q0 -36 125.5 -303.5t125.5 -345.5h16q0 72 122.5 328t122.5 321h282z" />
    <glyph glyph-name="Phi" unicode="&#x3a6;" horiz-adv-x="1441" 
d="M1386 691q0 -216 -145 -378t-385 -207q3 -88 7 -146h-283q2 27 7 143q-245 31 -388.5 182.5t-143.5 365.5q0 221 144 383.5t386 206.5l-5 101h283q-1 -18 -6 -98q245 -32 387 -183.5t142 -369.5zM598 681q0 180 -6 389q-283 -69 -283 -375q0 -165 77.5 -272t205.5 -147
q6 208 6 405zM1131 675q0 311 -281 394q-5 -200 -5 -388q0 -186 5 -407q281 75 281 401z" />
    <glyph glyph-name="Chi" unicode="&#x3a7;" horiz-adv-x="1203" 
d="M1192 0h-335q0 35 -114 257q-111 217 -159 283h-16q-43 -59 -144 -277q-104 -223 -104 -263h-309q0 30 194.5 337t249.5 361v15q-54 62 -213 304q-164 253 -164 285h322q0 -32 93 -215t131 -229h16q37 47 125.5 229t88.5 215h296q0 -28 -171.5 -277.5t-219.5 -296.5v-15
q66 -72 249.5 -374t183.5 -339z" />
    <glyph glyph-name="Psi" unicode="&#x3a8;" horiz-adv-x="1472" 
d="M1406 1264q-35 -143 -35 -320q0 -430 -506 -513q2 -246 11 -431h-283q5 84 12 427q-246 31 -365 129q-140 115 -140 349q0 189 -34 359l204 31q49 -84 68 -291q16 -181 70 -266q61 -99 199 -125q0 399 -14 689h283q-13 -284 -13 -689q140 20 198 116q49 81 67 275
q19 207 68 291z" />
    <glyph glyph-name="Omega" unicode="&#x3a9;" horiz-adv-x="1444" 
d="M1378 221l-10 -221h-545q0 180 105 312q142 190 142 411q0 172 -102 280.5t-255 108.5q-149 0 -243.5 -95.5t-94.5 -257.5q0 -245 151 -447q97 -142 97 -312h-546l-11 221q180 -30 314 -30l-1 16q0 24 -81.5 101.5t-139 176t-57.5 254.5q0 264 175 429.5t458 165.5
q269 0 439 -154.5t170 -397.5q0 -160 -62 -269.5t-148 -197t-86 -107.5l-1 -16q157 0 332 29z" />
    <glyph glyph-name="Alphatonos" unicode="&#x386;" horiz-adv-x="1374" 
d="M1363 0h-320q0 66 -91 374h-462q-94 -303 -94 -374h-301q0 39 233.5 640t233.5 662h378q0 -57 211.5 -652.5t211.5 -649.5zM901 565q-171 516 -171 558h-16q0 -39 -177 -558h364zM508 1510q0 -22 -134.5 -195t-134.5 -199h-176q0 33 79.5 203t79.5 191h286z" />
    <glyph glyph-name="Epsilontonos" unicode="&#x388;" horiz-adv-x="1431" 
d="M1354 220l-8 -220h-851q13 302 13 681q0 364 -13 621h812l-11 -219q-300 16 -544 16q10 -139 10 -328q209 0 447 11v-209q-234 10 -447 10q0 -203 8 -380q274 0 584 17zM508 1510q0 -22 -134.5 -195t-134.5 -199h-176q0 33 79.5 203t79.5 191h286z" />
    <glyph glyph-name="Etatonos" unicode="&#x389;" horiz-adv-x="1700" 
d="M1556 0h-283q10 331 10 574h-504q0 -218 10 -574h-283q13 330 13 681q0 355 -13 621h283q-12 -281 -12 -520h508q0 211 -12 520h283q-14 -254 -14 -621q0 -383 14 -681zM508 1510q0 -22 -134.5 -195t-134.5 -199h-176q0 33 79.5 203t79.5 191h286z" />
    <glyph glyph-name="Iotatonos" unicode="&#x38a;" horiz-adv-x="923" 
d="M779 0h-283q13 310 13 681q0 365 -13 621h283q-13 -252 -13 -621q0 -377 13 -681zM508 1510q0 -22 -134.5 -195t-134.5 -199h-176q0 33 79.5 203t79.5 191h286z" />
    <glyph glyph-name="Iotadieresis" unicode="&#x3aa;" horiz-adv-x="571" 
d="M427 0h-283q13 310 13 681q0 365 -13 621h283q-13 -252 -13 -621q0 -377 13 -681zM622 1567q0 -58 -39.5 -101.5t-110.5 -43.5q-60 0 -93.5 37.5t-33.5 90.5q0 57 40.5 100t111.5 43q60 0 92.5 -37t32.5 -89zM227 1567q0 -58 -39.5 -101.5t-110.5 -43.5q-59 0 -92.5 37.5
t-33.5 90.5q0 58 40 100.5t111 42.5q60 0 92.5 -37t32.5 -89z" />
    <glyph glyph-name="Omicrontonos" unicode="&#x38c;" horiz-adv-x="1660" 
d="M1583 675q0 -307 -188 -509t-465 -202q-264 0 -442 185.5t-178 471.5q0 307 188 509t465 202q264 0 442 -185t178 -472zM1307 646q0 209 -107 339t-264 130q-146 0 -248 -131t-102 -331q0 -208 107.5 -338.5t263.5 -130.5q146 0 248 131.5t102 330.5zM508 1510
q0 -22 -134.5 -195t-134.5 -199h-176q0 33 79.5 203t79.5 191h286z" />
    <glyph glyph-name="Upsilontonos" unicode="&#x38e;" horiz-adv-x="1551" 
d="M1540 1302q0 -41 -114 -221q-175 -275 -213 -342q-114 -203 -114 -301q0 -220 12 -438h-284q11 219 11 441q0 102 -105 309q-49 96 -196 343q-105 177 -105 209h314q0 -36 125.5 -303.5t125.5 -345.5h16q0 72 122.5 328t122.5 321h282zM508 1510q0 -22 -134.5 -195
t-134.5 -199h-176q0 33 79.5 203t79.5 191h286z" />
    <glyph glyph-name="Upsilondieresis" unicode="&#x3ab;" horiz-adv-x="1130" 
d="M1119 1302q0 -41 -114 -221q-175 -275 -213 -342q-114 -203 -114 -301q0 -220 12 -438h-284q11 219 11 441q0 102 -105 309q-49 96 -196 343q-105 177 -105 209h314q0 -36 125.5 -303.5t125.5 -345.5h16q0 72 122.5 328t122.5 321h282zM917 1567q0 -58 -39.5 -101.5
t-110.5 -43.5q-60 0 -93.5 37.5t-33.5 90.5q0 57 40.5 100t111.5 43q60 0 92.5 -37t32.5 -89zM522 1567q0 -58 -39.5 -101.5t-110.5 -43.5q-59 0 -92.5 37.5t-33.5 90.5q0 58 40 100.5t111 42.5q60 0 92.5 -37t32.5 -89z" />
    <glyph glyph-name="Omegatonos" unicode="&#x38f;" horiz-adv-x="1688" 
d="M508 1510q0 -22 -134.5 -195t-134.5 -199h-176q0 33 79.5 203t79.5 191h286zM1622 221l-10 -221h-545q0 180 105 312q142 190 142 411q0 172 -102 280.5t-255 108.5q-149 0 -243.5 -95.5t-94.5 -257.5q0 -245 151 -447q97 -142 97 -312h-546l-11 221q180 -30 314 -30
l-1 16q0 24 -81.5 101.5t-139 176t-57.5 254.5q0 264 175 429.5t458 165.5q269 0 439 -154.5t170 -397.5q0 -160 -62 -269.5t-148 -197t-86 -107.5l-1 -16q157 0 332 29z" />
    <glyph glyph-name="alpha" unicode="&#x3b1;" horiz-adv-x="1187" 
d="M1167 188l-16 -181q-87 -28 -161 -28q-181 0 -222 226h-16q-44 -105 -124 -172.5t-183 -67.5q-202 0 -289.5 136.5t-87.5 346.5q0 234 119 385.5t326 151.5q165 0 248 -178h15q9 81 37 164l225 -21q-59 -192 -59 -507q0 -157 25 -214.5t80 -57.5q41 0 83 17zM746 598
q-81 198 -217 198q-98 0 -148 -83.5t-50 -227.5q0 -141 47 -234t127 -93q201 0 241 440z" />
    <glyph glyph-name="beta" unicode="&#x3b2;" horiz-adv-x="1101" 
d="M1049 460q0 -214 -132.5 -350t-332.5 -136q-135 0 -199 44h-13q10 -243 64 -452l-281 -43q-56 170 -56 1245q0 365 115.5 516.5t367.5 151.5q166 0 280.5 -69t114.5 -223q0 -218 -238 -278v-15q310 -83 310 -391zM794 434q0 154 -83 242q-75 80 -186 80q-40 0 -78 -4
l19 152q31 -7 69 -7q86 0 145 49t59 143q0 77 -47.5 123t-125.5 46q-141 0 -181.5 -93t-40.5 -380q0 -300 16 -595q72 -39 195 -39q104 0 171.5 77t67.5 206z" />
    <glyph glyph-name="beta.salt" horiz-adv-x="1101" 
d="M1055 450q0 -215 -139.5 -344t-349.5 -129q-246 0 -371.5 163t-125.5 529q0 358 161 567t417 209q150 0 252.5 -66t102.5 -209q0 -204 -219 -328v-15q100 -21 186 -111t86 -266zM801 449q0 107 -49 191t-130 114q-133 -63 -296 -100q0 -262 57 -379t194 -117
q113 0 168.5 80.5t55.5 210.5zM764 1117q0 151 -163 151q-249 0 -270 -470q433 94 433 319z" />
    <glyph glyph-name="gamma" unicode="&#x3b3;" horiz-adv-x="1022" 
d="M1002 950q0 -227 -198.5 -601t-205.5 -399q23 -222 23 -391l-230 -37q-35 92 -35 231q0 125 35 247q-28 318 -149 548t-228 348l247 75q81 -78 168.5 -283t124.5 -484h14q1 5 94 239.5t93 527.5z" />
    <glyph glyph-name="delta" unicode="&#x3b4;" horiz-adv-x="1125" 
d="M1056 468q0 -242 -145.5 -374.5t-361.5 -132.5q-213 0 -346.5 114t-133.5 317q0 194 113 319.5t249 168.5v15q-215 153 -215 294q0 259 411 259q245 0 388 -69l-44 -196q-181 89 -359 89q-171 0 -171 -71q0 -44 159 -148q210 -138 297 -228q159 -165 159 -357zM797 429
q0 209 -248 374q-218 -122 -218 -373q0 -134 66 -210t172 -76q101 0 164.5 74t63.5 211z" />
    <glyph glyph-name="epsilon" unicode="&#x3b5;" horiz-adv-x="940" 
d="M864 239l-17 -191q-147 -75 -353 -75q-418 0 -418 274q0 101 63 158.5t149 71.5v15q-197 54 -197 216q0 127 109.5 200t297.5 73q198 0 332 -35l-32 -182q-137 45 -274 45q-184 0 -184 -106q0 -123 246 -123q63 0 145 8l-20 -175q-69 9 -125 9q-257 0 -257 -135
q0 -133 207 -133q146 0 328 85z" />
    <glyph glyph-name="zeta" unicode="&#x3b6;" horiz-adv-x="894" 
d="M874 -71q0 -161 -142 -296l-106 38q28 73 28 171q0 113 -203 157q-177 38 -260 110q-122 106 -122 322q0 279 223 545q92 111 222 211v16q-122 -24 -318 -24l23 208q356 0 573 43l38 -171q-147 -81 -252 -187q-253 -254 -253 -587q0 -137 60 -196q48 -46 182 -76
q307 -68 307 -284z" />
    <glyph glyph-name="eta" unicode="&#x3b7;" horiz-adv-x="1117" 
d="M1017 -433l-254 -33q-22 196 -22 570q0 53 5 188.5t5 219.5q0 161 -35 213.5t-114 52.5q-123 0 -220 -131q0 -417 -15 -652l-264 10q38 226 38 487q0 253 -103 410l235 70q23 -27 47 -72t31 -91h15q126 174 314 174q319 0 319 -330q0 -70 -7.5 -211.5t-7.5 -232.5
q0 -396 33 -642z" />
    <glyph glyph-name="theta" unicode="&#x3b8;" horiz-adv-x="1177" 
d="M1108 725q0 -365 -149.5 -565t-385.5 -200q-229 0 -366.5 180t-137.5 526q0 365 150 566t387 201q227 0 364.5 -181t137.5 -527zM849 620h-517q26 -476 257 -476q254 0 260 476zM841 816q-37 433 -252 433q-239 0 -258 -433h510z" />
    <glyph glyph-name="theta.salt" horiz-adv-x="1174" 
d="M1095 696q0 -307 -136 -519t-412 -212q-207 0 -308 94t-120 293q-10 103 -49 217l250 36q36 -82 44 -207q9 -135 56.5 -195t159.5 -60q259 0 259 487q-361 0 -523 91t-162 316q0 194 119.5 295t312.5 101q256 0 382.5 -208t126.5 -529zM836 813q-16 212 -90 325t-178 113
q-163 0 -163 -189q0 -147 90 -198t341 -51z" />
    <glyph glyph-name="iota" unicode="&#x3b9;" horiz-adv-x="522" 
d="M522 188l-16 -179q-79 -30 -151 -30q-141 0 -199 78t-58 349q0 281 19 543l240 23q-22 -216 -22 -503q0 -189 22 -243.5t83 -54.5q33 0 82 17z" />
    <glyph glyph-name="kappa" unicode="&#x3ba;" horiz-adv-x="1117" 
d="M1055 10l-282 -31q0 60 -235 366h-15q-88 -91 -206 -364l-225 27q57 207 57 484q0 244 -33 448l288 31q-11 -168 -11 -408q0 -81 -11 -177h15q10 28 191 285.5t181 299.5l279 -21q0 -58 -346 -413v-15q353 -432 353 -512z" />
    <glyph glyph-name="lambda" unicode="&#x3bb;" horiz-adv-x="1055" 
d="M1048 57l-263 -93q-173 149 -227 719h-14q0 -45 -121.5 -319.5t-121.5 -373.5l-275 20q0 95 238 477.5t253 432.5q-11 182 -67.5 229t-161.5 47q-62 0 -142 -12l24 208q95 23 171 23q173 0 246.5 -89t106.5 -352q93 -726 354 -917z" />
    <glyph glyph-name="mu" unicode="&#x3bc;" horiz-adv-x="1198" 
d="M1184 187l-16 -180q-77 -28 -144 -28q-171 0 -222 121h-18q-106 -121 -237 -121q-170 0 -249 121h-15q0 -293 153 -512l-233 -70q-71 88 -71 234q0 57 13 235.5t13 276.5q0 376 -40 690l284 17q-13 -172 -13 -383q0 -246 43.5 -332.5t152.5 -86.5q105 0 178 103
q0 495 -17 678l276 21q-19 -260 -19 -490q0 -198 20.5 -254.5t73.5 -56.5q37 0 87 17z" />
    <glyph glyph-name="nu" unicode="&#x3bd;" horiz-adv-x="1022" 
d="M952 727q0 -128 -66 -252t-187 -300q-92 -133 -96 -175h-212q-22 239 -158.5 535.5t-207.5 377.5l264 63q41 -38 141.5 -309.5t117.5 -449.5h14q7 22 80 181.5t73 541.5l184 31q53 -86 53 -244z" />
    <glyph glyph-name="xi" unicode="&#x3be;" horiz-adv-x="915" 
d="M884 -71q0 -161 -142 -296l-106 38q28 84 28 166q0 115 -203 162q-175 41 -256 101q-125 94 -125 274q0 128 78 220.5t179 112.5v15q-169 46 -169 202q0 169 261 269v15q-147 -24 -294 -24l24 208q390 0 633 43l38 -176q-424 -100 -424 -272q0 -83 65 -112
q42 -19 136 -19q68 0 165 9l-23 -222q-70 13 -142 13q-124 0 -199 -62t-75 -161q0 -103 61 -153q51 -42 183 -72q143 -33 225 -93.5t82 -185.5z" />
    <glyph glyph-name="omicron" unicode="&#x3bf;" horiz-adv-x="1144" 
d="M1075 497q0 -252 -155 -394t-365 -142q-200 0 -343 129.5t-143 364.5q0 253 156 396t366 143q199 0 341.5 -130.5t142.5 -366.5zM814 467q0 145 -68 243.5t-177 98.5q-106 0 -172.5 -92t-66.5 -230q0 -145 68 -243.5t177 -98.5q106 0 172.5 92t66.5 230z" />
    <glyph glyph-name="pi" unicode="&#x3c0;" horiz-adv-x="1264" 
d="M1198 961l-7 -214q-120 7 -237 7q-6 -133 -6 -277q0 -307 123 -307q41 0 92 18l-15 -181q-82 -28 -157 -28q-130 0 -204.5 76t-74.5 288q0 218 40 397v14h-242q-32 -589 -109 -764l-265 20q41 95 73 203q77 260 93 541h-78q-80 0 -170 -44l-50 115q97 125 335 125
q517 0 859 11z" />
    <glyph glyph-name="rho" unicode="&#x3c1;" horiz-adv-x="1104" 
d="M1035 501q0 -211 -116 -371t-320 -160q-170 0 -231 121h-13q10 -243 73 -525l-281 -43q-58 288 -58 914q0 303 122 430t357 127q233 0 350 -138t117 -355zM775 475q0 136 -59 234t-169 98q-207 0 -207 -321q0 -94 9 -209q72 -121 212 -121q105 0 159.5 93.5t54.5 225.5z
" />
    <glyph glyph-name="sigma" unicode="&#x3c3;" horiz-adv-x="1185" 
d="M1136 820q-148 -49 -289 -49v-21q173 -113 173 -324q0 -225 -137.5 -345t-348.5 -120q-198 0 -331.5 129.5t-133.5 364.5q0 254 150.5 382.5t344.5 128.5q354 0 521 20zM769 447q0 177 -103 324q-41 8 -102 8q-234 0 -234 -292q0 -154 58.5 -246.5t166.5 -92.5
q214 0 214 299z" />
    <glyph glyph-name="sigma1" unicode="&#x3c2;" horiz-adv-x="816" 
d="M824 -91q0 -186 -158 -276l-95 38q33 78 33 150q0 56 -39.5 96t-148.5 87q-160 68 -253.5 176t-93.5 307q0 244 145.5 368t374.5 124q130 0 220 -15l-34 -206q-86 32 -199 32q-119 0 -192 -68.5t-73 -196.5q0 -124 51.5 -191t169.5 -116q167 -69 229.5 -137.5
t62.5 -171.5z" />
    <glyph glyph-name="tau" unicode="&#x3c4;" horiz-adv-x="991" 
d="M944 961l-8 -211q-140 4 -367 4q-6 -133 -6 -277q0 -307 133 -307q56 0 135 18l-15 -181q-108 -28 -217 -28q-130 0 -201 80.5t-71 293.5q0 208 40 387v14h-122q-108 0 -191 -44l-50 115q82 125 304 125q364 0 636 11z" />
    <glyph glyph-name="upsilon" unicode="&#x3c5;" horiz-adv-x="1095" 
d="M1026 595q0 -313 -145 -470.5t-338 -157.5q-199 0 -303.5 98.5t-104.5 343.5q0 333 -81 522l271 41q64 -171 64 -418q0 -227 45 -309t138 -82q194 0 194 397q0 219 -59 387l130 25q189 -123 189 -377z" />
    <glyph glyph-name="phi" unicode="&#x3c6;" horiz-adv-x="1537" 
d="M1473 570q0 -214 -157.5 -389t-432.5 -210q2 -62 2 -114q0 -219 -59 -347l-196 9q23 143 23 301q0 79 -6 151q-582 62 -582 518q0 210 123 338.5t333 171.5l58 -147q-129 -44 -191.5 -120.5t-62.5 -210.5q0 -328 316 -373q-17 195 -17 353q0 254 116.5 373.5t292.5 119.5
q225 0 332.5 -116t107.5 -308zM1212 534q0 275 -179 275q-183 0 -183 -306q0 -225 19 -355q169 31 256 135.5t87 250.5z" />
    </font>
</defs>
</svg>
